osu file format v14

[General]
AudioFilename: audio.mp3
AudioLeadIn: 0
PreviewTime: 51299
Countdown: 0
SampleSet: Soft
StackLeniency: 0.7
Mode: 0
LetterboxInBreaks: 0
WidescreenStoryboard: 0

[Editor]
DistanceSpacing: 1
BeatDivisor: 4
GridSize: 4
TimelineZoom: 1

[Metadata]
Title:Akatsuki
TitleUnicode:暁
Artist:Shikata Akiko
ArtistUnicode:志方あきこ
Creator:Hazu-
Version:Easy
Source:暁のヨナ
Tags:no yona of the dawn ending 2 tv size
BeatmapID:983196
BeatmapSetID:458815

[Difficulty]
HPDrainRate:3
CircleSize:3
OverallDifficulty:2
ApproachRate:3
SliderMultiplier:1
SliderTickRate:1

[Events]
//Background and Video events
0,0,"Akatsuki.jpg",0,0
Video,0,"Akatsuki.avi"
//Break Periods
//Storyboard Layer 0 (Background)
//Storyboard Layer 1 (Fail)
//Storyboard Layer 2 (Pass)
//Storyboard Layer 3 (Foreground)
//Storyboard Sound Samples

[TimingPoints]
324,521.739130434783,4,2,1,20,1,0
324,-100,4,2,1,20,0,0
4497,-100,4,2,3,20,0,0
5019,-100,4,2,1,20,0,0
7628,-100,4,2,1,25,0,0
8150,-100,4,2,1,30,0,0
8671,-100,4,2,1,40,0,0
19106,-100,4,2,1,5,0,0
21193,-100,4,2,1,30,0,0
29541,-100,4,2,2,30,0,0
31628,-100,4,2,3,30,0,0
33193,-100,4,2,3,5,0,0
33715,-100,4,2,3,30,0,0
35802,-100,4,2,1,30,0,0
39454,-100,4,2,2,30,0,0
42063,-100,4,2,1,30,0,0
48324,-100,4,2,1,20,0,0
49628,-100,4,2,1,25,0,0
50150,-100,4,2,1,30,0,0
50410,508.474576271186,4,2,1,35,1,0
50410,-100,4,2,1,35,0,0
50918,-100,4,2,1,40,0,0
52443,-100,4,2,1,50,0,1
56511,-100,4,2,2,50,0,1
56893,-100,4,2,4,50,0,1
57147,-100,4,2,2,50,0,1
57528,-100,4,2,1,50,0,1
67062,-100,4,2,4,50,0,1
67316,-100,4,2,1,50,0,1
71130,-100,4,2,4,50,0,1
71384,-100,4,2,1,50,0,1
81299,-100,4,2,4,50,0,1
81554,-100,4,2,1,50,0,1
84986,-100,4,2,1,60,0,0
89054,-100,4,2,1,5,0,0

[Colours]
Combo1 : 255,174,174
Combo2 : 190,124,124
Combo3 : 197,197,197
Combo4 : 104,206,240

[HitObjects]
120,140,324,6,0,P|168:112|216:116,1,100,0|0,0:0|0:0,0:0:0:0:
284,184,1367,2,0,P|236:212|188:208,1,100,0|0,0:0|0:0,0:0:0:0:
120,140,2410,2,0,L|24:100,2,100,0|0|0,0:0|0:0|0:0,0:0:0:0:
300,220,4497,6,0,P|368:208|400:172,1,100,2|0,0:0|0:0,0:0:0:0:
452,108,5541,1,0,0:0:0:0:
352,96,6063,1,0,0:0:0:0:
389,188,6584,2,0,L|381:296,1,100,0|0,0:0|0:0,0:0:0:0:
284,312,7628,2,0,L|292:204,1,100,2|2,0:0|0:0,0:0:0:0:
236,132,8671,6,0,P|192:120|140:132,1,100,4|0,0:0|0:0,0:0:0:0:
72,204,9715,2,0,L|88:316,1,100,0|0,0:0|0:0,0:0:0:0:
176,348,10758,2,0,P|215:348|276:328,2,100,2|0|2,0:0|0:0|0:0,0:0:0:0:
88,300,12324,1,2,0:0:0:0:
152,224,12845,6,0,L|356:228,1,200,4|2,0:0|0:0,0:0:0:0:
452,232,14410,1,2,0:0:0:0:
408,140,14932,2,0,P|392:100|412:44,2,100,4|2|2,0:0|0:0|0:0,0:0:0:0:
452,232,16497,1,2,0:0:0:0:
256,192,16758,12,0,19106,0:0:0:0:
192,160,21193,6,0,P|132:140|152:232,2,200,2|2|0,0:0|0:0|0:0,0:0:0:0:
240,248,23802,2,0,B|232:292|200:312|200:312|268:312|272:328|300:324|328:312,1,200,0|0,0:0|0:0,0:0:0:0:
360,224,25367,6,0,B|408:244|420:288|420:288|416:232|424:192|444:168,2,200,2|2|0,0:0|0:0|0:0,0:0:0:0:
288,156,27976,2,0,L|184:172,1,100,0|0,0:0|0:0,0:0:0:0:
92,148,29020,1,0,0:0:0:0:
60,244,29541,6,0,L|88:348,1,100,2|0,0:0|0:0,0:0:0:0:
184,356,30584,2,0,L|156:252,1,100,2|0,0:0|0:0,0:0:0:0:
188,164,31628,2,0,B|192:112|248:96|296:96|308:120|312:152|344:104|372:64|372:64|400:120,1,300,2|0,0:0|0:0,0:0:0:0:
452,204,33715,6,0,L|424:324,1,100,2|0,0:0|0:0,0:0:0:0:
344,352,34758,1,0,0:0:0:0:
332,256,35280,1,0,0:0:0:0:
248,312,35802,6,0,P|183:301|223:239,2,150,0|2|2,0:0|0:0|0:0,0:0:0:0:
332,256,37889,2,0,L|352:136,1,100,4|0,0:0|0:0,0:0:0:0:
268,100,38932,2,0,L|248:220,1,100,0|2,0:0|0:0,0:0:0:0:
200,284,39976,6,0,B|248:324|248:324|404:316,1,200,0|2,0:0|0:0,0:0:0:0:
468,264,41541,1,0,0:0:0:0:
416,180,42063,2,0,P|372:96|340:164,1,200,4|4,0:0|0:0,0:0:0:0:
348,248,43628,1,2,0:0:0:0:
264,300,44150,6,0,P|192:304|160:288,1,100,0|2,0:0|0:0,0:0:0:0:
76,328,45193,2,0,P|72:256|88:224,1,100,0|2,0:0|0:0,0:0:0:0:
136,148,46237,2,0,B|180:172|192:220|176:260|176:260|216:196|256:156|312:168,1,300,0|2,0:0|0:0,0:0:0:0:
256,192,48324,12,2,50410,0:0:0:0:
268,184,52443,6,0,P|336:188|364:176,2,100,4|8|0,0:0|0:0|0:0,0:0:0:0:
184,132,53969,1,8,0:0:0:0:
132,212,54477,2,0,L|112:328,1,100,4|8,0:0|0:0,0:0:0:0:
16,324,55494,2,0,L|36:208,1,100,0|8,0:0|0:0,0:0:0:0:
100,152,56511,6,0,P|180:196|140:276,1,200,2|2,0:0|0:0,0:0:0:0:
44,300,58037,1,10,0:0:0:0:
16,204,58545,2,0,L|0:104,1,100,4|8,0:0|0:0,0:0:0:0:
100,120,59562,2,0,L|115:218,1,100,2|8,0:0|0:0,0:0:0:0:
204,264,60579,6,0,P|180:352|172:360,2,100,4|10|2,0:0|0:0|0:0,0:0:0:0:
115,218,62105,1,10,0:0:0:0:
180,140,62613,2,0,L|296:124,1,100,4|8,0:0|0:0,0:0:0:0:
336,208,63630,2,0,L|220:224,1,100,2|10,0:0|0:0,0:0:0:0:
180,140,64647,6,0,P|136:188|136:232,1,100,2|8,0:0|0:0,0:0:0:0:
140,320,65664,1,2,0:0:0:0:
228,276,66172,1,8,0:0:0:0:
312,328,66681,6,0,B|356:360|392:340|396:308|400:284|376:264|376:264|416:244|424:220,1,200,2|2,0:0|0:0,0:0:0:0:
484,160,68206,1,10,0:0:0:0:
400,104,68715,2,0,P|316:80|292:88,1,100,4|8,0:0|0:0,0:0:0:0:
260,172,69732,2,0,P|176:196|152:188,1,100,0|8,0:0|0:0,0:0:0:0:
76,152,70748,6,0,B|40:148|12:124|12:124|40:200|24:256,1,200,4|2,0:0|0:0,0:0:0:0:
4,348,72274,1,10,0:0:0:0:
104,328,72782,2,0,L|212:340,1,100,2|8,0:0|0:0,0:0:0:0:
300,316,73799,1,0,0:0:0:0:
244,236,74308,1,8,0:0:0:0:
328,180,74816,6,0,P|283:139|232:135,1,100,4|8,0:0|0:0,0:0:0:0:
144,128,75833,2,0,L|160:232,1,100,0|8,0:0|0:0,0:0:0:0:
100,308,76850,2,0,P|44:312|0:296,2,100,2|8|0,0:0|0:0|0:0,0:0:0:0:
159,226,78376,1,8,0:0:0:0:
252,264,78884,6,0,L|364:252,1,100,2|8,0:0|0:0,0:0:0:0:
436,308,79901,2,0,P|452:256|440:208,1,100,0|8,0:0|0:0,0:0:0:0:
428,112,80918,6,0,B|392:112|364:144|364:144|380:96|356:64|320:56|296:64,1,200,4|0,0:0|0:0,0:0:0:0:
236,124,82443,1,8,0:0:0:0:
144,84,82952,2,0,L|28:72,1,100,4|8,0:0|0:0,0:0:0:0:
4,164,83969,2,0,L|120:176,1,100,2|2,0:0|0:0,0:0:0:0:
192,224,84986,1,4,0:0:0:0:
256,192,85240,12,0,89054,0:0:0:0:
