osu file format v14

[General]
AudioFilename: audio.mp3
AudioLeadIn: 0
PreviewTime: 61718
Countdown: 0
SampleSet: Soft
StackLeniency: 0.5
Mode: 0
LetterboxInBreaks: 0
WidescreenStoryboard: 1

[Editor]
Bookmarks: 17691,34682,51474,96894,113354,132469,149460,158487,165920,174947,183442,202557,221673,238664,255655
DistanceSpacing: 1
BeatDivisor: 4
GridSize: 8
TimelineZoom: 1.2

[Metadata]
Title:Akakakushi
TitleUnicode:朱隠し
Artist:Shikata Akiko
ArtistUnicode:志方あきこ
Creator:ScubDomino
Version:Hard
Source:あかやあかしやあやかしの
Tags:akaya akashiya ayakashino OP opening FCCM-0315 M:X Frontier Works Inc. Inori no Kanata 祈りの彼方 akihisa tsuboy tsuboi 壷井 彰久 つぼい あきひさ hiroki ito itou 伊藤 浩紀 いとう ひろき Gayo Nakagaki 中垣 雅葉 なかがき がよう 4562207980180 FCCM-0314 FCCM-0316 AkaAka Of the Red Light and Ayakashi HaccaWorks* haccaworks noctiluca anime girl anime_girl jungkyuyoung natsume shiki natsume_shiki scub domino [keqing] 8972308 beren be forgott 171021 vocal folk traditional japanese visual novel video game dark fantasy tsubaki 由 yue Kurogitsune 黒狐 diesel2b dizi930 旳---
BeatmapID:3118683
BeatmapSetID:1512084

[Difficulty]
HPDrainRate:3
CircleSize:4
OverallDifficulty:6
ApproachRate:8
SliderMultiplier:1.3
SliderTickRate:0.5

[Events]
//Background and Video events
0,0,"diesel2b.jpg",0,0
//Break Periods
2,58289,59759
2,98687,108356
2,113553,121100
2,130280,131719
//Storyboard Layer 0 (Background)
//Storyboard Layer 1 (Fail)
//Storyboard Layer 2 (Pass)
//Storyboard Layer 3 (Foreground)
//Storyboard Layer 4 (Overlay)
//Storyboard Sound Samples

[TimingPoints]
700,530.973451327434,4,2,1,60,1,0
1098,-100,4,2,2,60,0,0
1496,-100,4,2,1,60,0,0
3354,-100,4,2,1,40,0,0
4947,-100,4,2,1,60,0,0
5346,-100,4,2,2,60,0,0
5744,-100,4,2,1,60,0,0
7602,-100,4,2,1,40,0,0
9195,-100,4,2,1,60,0,0
9593,-100,4,2,2,60,0,0
9992,-100,4,2,1,60,0,0
11850,-100,4,2,1,40,0,0
13443,-100,4,2,1,60,0,0
13841,-100,4,2,2,60,0,0
14239,-100,4,2,1,60,0,0
16629,-100,4,2,1,40,0,0
17160,-100,4,2,1,60,0,0
17691,-100,4,2,1,35,0,0
18819,-100,4,2,1,5,0,0
19815,-100,4,2,1,30,0,0
19881,-100,4,2,1,5,0,0
20876,-100,4,2,1,30,0,0
20943,-100,4,2,1,5,0,0
21938,-222.222222222221,4,2,1,30,0,0
22469,-222.222222222221,4,2,1,25,0,0
23000,-222.222222222221,4,2,1,20,0,0
25124,-222.222222222221,4,2,2,20,0,0
26186,-222.222222222221,4,2,1,25,0,0
27381,-222.222222222221,4,2,1,5,0,0
28310,-222.222222222221,4,2,1,20,0,0
28443,-222.222222222221,4,2,1,5,0,0
29372,-222.222222222221,4,2,1,20,0,0
29505,-222.222222222221,4,2,1,5,0,0
30434,-222.222222222221,4,2,1,22,0,0
31496,-222.222222222221,4,2,1,30,0,0
33089,-222.222222222221,4,2,1,35,0,0
33620,-222.222222222221,4,2,2,40,0,0
33885,-222.222222222221,4,2,6,5,0,0
34018,-222.222222222221,4,2,5,15,0,0
34151,-222.222222222221,4,2,6,25,0,0
34284,-222.222222222221,4,2,5,35,0,0
34417,-222.222222222221,4,2,6,45,0,0
34549,-222.222222222221,4,2,6,55,0,0
34682,-100,4,2,1,75,0,0
34947,-100,4,2,4,70,0,0
35213,-100,4,2,1,70,0,0
35478,-100,4,2,4,70,0,0
35744,-100,4,2,1,70,0,0
35876,-100,4,2,4,70,0,0
36275,-100,4,2,1,70,0,0
36540,-100,4,2,4,70,0,0
36806,-100,4,2,1,70,0,0
37071,-100,4,2,4,70,0,0
37337,-100,4,2,1,70,0,0
37602,-100,4,2,4,70,0,0
37868,-100,4,2,1,70,0,0
38000,-100,4,2,4,70,0,0
38399,-100,4,2,1,70,0,0
38664,-100,4,2,4,70,0,0
38930,-100,4,2,1,70,0,0
39195,-100,4,2,4,70,0,0
39461,-100,4,2,1,70,0,0
39726,-100,4,2,4,70,0,0
39992,-100,4,2,1,70,0,0
40124,-100,4,2,4,70,0,0
40523,-100,4,2,1,70,0,0
40788,-100,4,2,4,70,0,0
41053,-100,4,2,1,70,0,0
41319,-100,4,2,4,70,0,0
41584,-100,4,2,1,70,0,0
41850,-100,4,2,4,70,0,0
42115,-100,4,2,1,70,0,0
42381,-100,4,2,4,70,0,0
42646,-100,4,2,1,70,0,0
42912,-100,4,2,4,70,0,0
43177,-100,4,2,1,70,0,0
43443,-100,4,2,4,70,0,0
43708,-100,4,2,1,70,0,0
43974,-100,4,2,4,70,0,0
44239,-100,4,2,1,70,0,0
44372,-100,4,2,4,70,0,0
44770,-100,4,2,1,70,0,0
45036,-100,4,2,4,70,0,0
45301,-100,4,2,1,70,0,0
45567,-100,4,2,4,70,0,0
45832,-100,4,2,1,70,0,0
46098,-100,4,2,4,70,0,0
46363,-100,4,2,1,70,0,0
46496,-100,4,2,4,70,0,0
46894,-100,4,2,1,70,0,0
47160,-100,4,2,4,70,0,0
47425,-100,4,2,1,70,0,0
47691,-100,4,2,4,70,0,0
47956,-100,4,2,1,70,0,0
48222,-100,4,2,4,70,0,0
48487,-100,4,2,1,70,0,0
48620,-100,4,2,4,70,0,0
49018,-100,4,2,1,70,0,0
49284,-100,4,2,4,70,0,0
49549,-100,4,2,1,70,0,0
49815,-100,4,2,4,70,0,0
50080,-100,4,2,1,70,0,0
50346,-100,4,2,4,70,0,0
50611,-100,4,2,1,70,0,0
51009,-100,4,2,4,70,0,0
51142,-100,4,2,1,70,0,0
51407,-100,4,2,4,70,0,0
51673,-100,4,2,1,70,0,0
52204,-100,4,2,1,35,0,0
52735,-100,4,2,2,35,0,0
54859,532.623169107856,4,2,2,30,1,0
55924,-100,4,2,1,30,0,0
56989,550.45871559633,4,2,1,30,1,0
56989,-133.333333333333,4,2,1,30,0,0
58089,604.838709677419,4,2,2,30,1,0
58693,-100,4,2,2,25,0,0
59298,745.341614906832,4,2,1,20,1,0
60509,-100,4,2,1,60,0,0
60789,530.973451327434,4,2,1,80,1,0
61319,-50,4,2,1,90,0,1
61408,-50,4,2,2,70,0,1
61496,-50,4,2,1,60,0,1
61585,-50,4,2,2,50,0,1
61673,-50,4,2,1,40,0,1
61762,-50,4,2,2,30,0,1
61850,-50,4,2,1,80,0,0
62381,530.973451327434,4,2,1,80,1,0
62381,-66.6666666666667,4,2,1,80,0,0
70876,-66.6666666666667,4,2,2,80,0,0
71142,-66.6666666666667,4,2,1,80,0,0
79372,-55.5555555555556,4,2,1,80,0,0
87867,-55.5555555555556,4,2,2,80,0,0
88133,-55.5555555555556,4,2,1,80,0,0
96496,-55.5555555555556,4,2,1,70,0,0
96628,-55.5555555555556,4,2,1,60,0,0
109106,-55.5555555555556,4,2,2,60,0,0
109637,-100,4,2,1,60,0,0
112292,-100,4,2,1,40,0,0
112557,-100,4,2,1,45,0,0
112823,-100,4,2,1,50,0,0
113088,-100,4,2,1,55,0,0
113354,-100,4,2,1,60,0,0
117071,-100,4,2,1,35,0,0
117336,-100,4,2,1,45,0,0
117602,-100,4,2,1,60,0,0
121319,-100,4,2,1,35,0,0
121584,-100,4,2,1,45,0,0
121850,-100,4,2,1,60,0,0
125566,-100,4,2,1,35,0,0
125832,-100,4,2,1,45,0,0
126097,-100,4,2,1,60,0,0
128487,-100,4,2,1,55,0,0
129283,-100,4,2,1,50,0,0
130080,-100,4,2,2,45,0,0
131938,-100,4,2,2,40,0,0
132469,-285.714285714284,4,2,2,40,0,0
133000,-285.714285714284,4,2,1,40,0,0
134858,-285.714285714284,4,2,1,30,0,0
135124,-285.714285714284,4,2,1,40,0,0
135389,-285.714285714284,4,2,1,20,0,0
135655,-285.714285714284,4,2,1,40,0,0
136186,-66.6666666666667,4,2,2,40,0,0
136717,-285.714285714284,4,2,2,40,0,0
137248,-285.714285714284,4,2,1,40,0,0
138310,-66.6666666666667,4,2,2,40,0,0
138841,-285.714285714284,4,2,1,40,0,0
139106,-285.714285714284,4,2,1,30,0,0
139372,-285.714285714284,4,2,1,40,0,0
140168,-285.714285714284,4,2,2,25,0,0
140434,-285.714285714284,4,2,2,33,0,0
140699,-285.714285714284,4,2,2,40,0,0
140965,-285.714285714284,4,2,1,35,0,0
141496,-285.714285714284,4,2,1,40,0,0
142292,-285.714285714284,4,2,1,35,0,0
143088,-285.714285714284,4,2,2,35,0,0
143354,-285.714285714284,4,2,2,40,0,0
143885,-285.714285714284,4,2,2,30,0,0
144150,-285.714285714284,4,2,2,40,0,0
144416,-66.6666666666667,4,2,2,40,0,0
144515,-66.6666666666667,4,2,1,5,0,0
144681,-66.6666666666667,4,2,2,40,0,0
144715,-66.6666666666667,4,2,1,5,0,0
144947,-66.6666666666667,4,2,2,40,0,0
144980,-66.6666666666667,4,2,1,5,0,0
145212,-181.818181818181,4,2,2,40,0,0
145743,-181.818181818181,4,2,1,40,0,0
146540,-181.818181818181,4,2,1,25,0,0
146805,-181.818181818181,4,2,2,32,0,0
147867,-181.818181818181,4,2,2,40,0,0
148398,-181.818181818181,4,2,1,50,0,0
148531,-181.818181818181,4,2,6,5,0,0
148664,-181.818181818181,4,2,5,10,0,0
148796,-181.818181818181,4,2,6,20,0,0
148929,-181.818181818181,4,2,5,30,0,0
149062,-181.818181818181,4,2,6,50,0,0
149195,-181.818181818181,4,2,5,70,0,0
149460,-181.818181818181,4,2,1,70,0,0
149726,-181.818181818181,4,2,4,70,0,0
149991,-181.818181818181,4,2,1,70,0,0
150257,-181.818181818181,4,2,4,70,0,0
150522,-181.818181818181,4,2,1,70,0,0
150788,-181.818181818181,4,2,4,70,0,0
151053,-181.818181818181,4,2,1,70,0,0
151319,-181.818181818181,4,2,4,70,0,0
151584,-100,4,2,1,70,0,0
151850,-100,4,2,4,70,0,0
152115,-100,4,2,1,70,0,0
152381,-100,4,2,4,70,0,0
152646,-100,4,2,1,70,0,0
152911,-100,4,2,4,70,0,0
153177,-100,4,2,1,70,0,0
153442,-100,4,2,4,70,0,0
153708,-100,4,2,1,70,0,0
153973,-100,4,2,4,70,0,0
154239,-100,4,2,1,70,0,0
154504,-100,4,2,4,70,0,0
154770,-100,4,2,1,70,0,0
155035,-100,4,2,4,70,0,0
155301,-100,4,2,1,70,0,0
155566,-100,4,2,4,70,0,0
155832,-100,4,2,2,70,0,0
156097,-100,4,2,4,70,0,0
156363,-100,4,2,1,70,0,0
156628,-100,4,2,4,70,0,0
156894,-100,4,2,2,70,0,0
157159,-100,4,2,4,70,0,0
157425,-100,4,2,1,70,0,0
157690,-100,4,2,4,70,0,0
157956,-100,4,2,1,70,0,0
158221,-100,4,2,4,70,0,0
158487,-100,4,2,1,70,0,0
158752,-100,4,2,4,70,0,0
159018,-100,4,2,1,70,0,0
159283,-100,4,2,4,70,0,0
159549,-100,4,2,1,70,0,0
159814,-100,4,2,4,70,0,0
160080,-100,4,2,1,70,0,0
160345,-100,4,2,4,70,0,0
160611,-100,4,2,1,70,0,0
160876,-100,4,2,4,70,0,0
161142,-100,4,2,1,70,0,0
161407,-100,4,2,4,70,0,0
161673,-100,4,2,1,70,0,0
161938,-100,4,2,4,70,0,0
162204,-100,4,2,1,70,0,0
162469,-100,4,2,4,70,0,0
162734,-100,4,2,1,70,0,0
163000,-100,4,2,4,70,0,0
163265,-100,4,2,1,70,0,0
163531,-100,4,2,4,70,0,0
163796,-100,4,2,1,70,0,0
164062,-100,4,2,4,70,0,0
164327,-100,4,2,2,70,0,0
164593,-100,4,2,4,70,0,0
164858,-66.6666666666667,4,2,1,70,0,0
165124,-66.6666666666667,4,2,4,70,0,0
165389,-55.5555555555556,4,2,2,70,0,0
165920,-55.5555555555556,4,2,1,70,0,0
166451,-55.5555555555556,4,2,1,80,0,0
172292,-66.6666666666667,4,2,1,80,0,0
174947,-55.5555555555556,4,2,2,80,0,0
175212,-55.5555555555556,4,2,1,80,0,0
184327,-55.5555555555556,4,2,4,80,0,0
184504,-55.5555555555556,4,2,1,80,0,0
187513,-55.5555555555556,4,2,4,80,0,0
187690,-55.5555555555556,4,2,1,80,0,0
189814,-55.5555555555556,4,2,2,80,0,0
189947,-55.5555555555556,4,2,1,80,0,0
190876,-55.5555555555556,4,2,2,80,0,0
191009,-55.5555555555556,4,2,1,80,0,0
200168,-222.222222222221,4,2,1,80,0,0
202557,-222.222222222221,4,2,1,40,0,0
204681,-222.222222222221,4,2,1,30,0,0
205212,-222.222222222221,4,2,2,30,0,0
205743,-222.222222222221,4,2,1,30,0,0
207336,-222.222222222221,4,2,2,30,0,0
207867,-222.222222222221,4,2,1,30,0,0
208398,-222.222222222221,4,2,2,30,0,0
208929,-222.222222222221,4,2,1,30,0,0
209460,-222.222222222221,4,2,2,30,0,0
209991,-222.222222222221,4,2,1,30,0,0
210788,-222.222222222221,4,2,2,30,0,0
211053,-222.222222222221,4,2,1,30,0,0
211850,-222.222222222221,4,2,2,30,0,0
212646,-222.222222222221,4,2,2,40,0,0
213177,-133.333333333333,4,2,1,40,0,0
215035,-133.333333333333,4,2,2,40,0,0
215301,-133.333333333333,4,2,1,40,0,0
216894,-133.333333333333,4,2,2,40,0,0
217425,-133.333333333333,4,2,1,40,0,0
219018,-133.333333333333,4,2,2,40,0,0
219283,-133.333333333333,4,2,1,40,0,0
219549,-133.333333333333,4,2,5,5,0,0
219681,-133.333333333333,4,2,6,10,0,0
219814,-133.333333333333,4,2,5,15,0,0
219946,-133.333333333333,4,2,6,20,0,0
220080,-133.333333333333,4,2,5,25,0,0
220212,-133.333333333333,4,2,6,30,0,0
220345,-133.333333333333,4,2,5,35,0,0
220477,-133.333333333333,4,2,6,40,0,0
220611,-133.333333333333,4,2,5,45,0,0
220743,-133.333333333333,4,2,6,60,0,0
220876,-133.333333333333,4,2,5,45,0,0
221008,-133.333333333333,4,2,5,5,0,0
221142,-133.333333333333,4,2,1,80,0,0
221673,-55.5555555555556,4,2,1,80,0,0
225920,-55.5555555555556,4,2,2,80,0,0
226186,-55.5555555555556,4,2,1,80,0,0
229372,-55.5555555555556,4,2,2,80,0,0
229504,-55.5555555555556,4,2,1,80,0,0
230168,-55.5555555555556,4,2,2,80,0,0
230434,-55.5555555555556,4,2,1,80,0,0
236540,-55.5555555555556,4,2,2,80,0,0
236805,-55.5555555555556,4,2,1,80,0,0
238664,-55.5555555555556,4,2,1,85,0,1
240788,-55.5555555555556,4,2,2,85,0,1
240920,-55.5555555555556,4,2,1,85,0,1
246097,-55.5555555555556,4,2,2,85,0,1
246229,-55.5555555555556,4,2,1,85,0,1
249018,-55.5555555555556,4,2,1,65,0,1
249283,-55.5555555555556,4,2,1,85,0,1
250876,-55.5555555555556,4,2,1,65,0,1
251141,-55.5555555555556,4,2,1,85,0,1
255655,-55.5555555555556,4,2,1,75,0,0
259903,-55.5555555555556,4,2,1,35,0,0

[Colours]
Combo1 : 217,209,218
Combo2 : 200,164,123
Combo3 : 214,89,48
Combo4 : 138,181,123

[HitObjects]
7,0,700,6,0,P|10:65|-10:111,2,97.5,2|2|0,1:0|2:0|3:0,0:0:0:0:
0,171,1761,2,0,B|39:83|145:51|238:98|257:235|146:277|94:202|135:169,1,390,2|8,2:0|2:3,0:0:0:0:
128,177,4947,6,0,B|191:169|165:190|231:183,2,97.5,4|2|0,1:2|2:0|3:0,0:0:0:0:
142,267,6009,2,0,B|366:321|296:158|513:213,1,390,8|4,2:0|2:3,0:0:0:0:
505,384,9195,6,0,P|502:319|522:273,2,97.5,2|2|0,1:0|2:0|3:0,0:0:0:0:
512,213,10257,2,0,B|472:300|366:332|273:285|254:148|365:106|417:181|376:214,1,390,2|8,2:0|2:3,0:0:0:0:
383,206,13443,6,0,B|390:269|369:243|376:309,2,97.5,4|2|0,1:2|2:0|3:0,0:0:0:0:
431,132,14505,2,0,B|406:198|320:200|232:120|284:-2|360:-19|435:27|438:102|392:143|348:110|318:63|346:12|403:-31|440:12|529:-10|548:146|483:198,1,585,8|0,2:0|0:0,0:0:0:0:
512,269,17160,1,2,2:3:0:0:
354,369,17691,5,0,1:0:0:0:
344,372,18753,1,0,2:0:0:0:
334,375,19815,1,0,2:0:0:0:
324,377,20877,1,0,2:0:0:0:
314,381,21938,2,0,P|287:377|244:377,2,58.4999982147217,0|0|8,2:0|1:0|2:3,0:0:0:0:
186,244,24062,2,0,P|213:240|256:240,2,58.4999982147217,0|2|8,2:0|2:0|2:1,0:0:0:0:
43,207,25655,2,0,L|49:169,1,29.2499991073609
0,115,26186,5,0,1:0:0:0:
158,14,27248,1,0,2:0:0:0:
168,12,28310,1,0,2:0:0:0:
178,9,29372,1,0,2:0:0:0:
198,3,30434,2,0,P|225:7|324:2,1,116.999996429443,0|8,2:0|2:3,0:0:0:0:
393,98,32292,1,0,0:0:0:0:
337,147,32558,2,0,P|310:151|267:151,2,58.4999982147217,0|8|2,2:0|2:0|2:1,0:0:0:0:
337,147,34682,6,0,L|329:212,1,65,4|0,3:2|3:0,0:0:0:0:
192,271,35213,2,0,L|235:348,1,65,8|0,3:1|3:2,0:0:0:0:
20,349,35744,2,0,L|108:362,3,65,0|2|8|2,3:1|2:0|3:1|2:0,0:0:0:0:
113,240,36806,2,0,P|111:175|99:156,1,65,0|0,3:2|3:0,0:0:0:0:
208,49,37337,2,0,P|273:47|292:35,1,65,8|0,3:1|3:2,0:0:0:0:
399,144,37868,2,0,P|401:209|425:243,1,97.5,0|0,3:1|3:0,0:0:0:0:
427,248,38399,2,0,L|511:263,1,65,8|2,3:1|2:0,0:0:0:0:
498,357,38930,5,4,3:2:0:0:
200,289,39461,2,0,L|189:207,1,65,8|0,3:1|3:2,0:0:0:0:
295,330,39992,2,0,P|193:325|116:391,1,195,0|2,3:1|2:0,0:0:0:0:
191,224,41053,2,0,L|206:131,1,65,0|0,3:2|3:0,0:0:0:0:
349,278,41584,2,0,L|422:337,1,65,8|0,3:1|3:2,0:0:0:0:
208,350,42115,2,0,B|128:377|128:377|163:323,1,130,0|8,3:1|3:1,0:0:0:0:
203,276,42912,1,2,3:2:0:0:
274,309,43177,6,0,L|352:321,1,65,4|0,3:2|3:0,0:0:0:0:
99,161,43708,2,0,L|177:173,1,65,8|0,3:1|3:2,0:0:0:0:
296,35,44239,2,0,L|374:47,3,65,0|2|8|2,3:1|2:0|3:1|2:0,0:0:0:0:
231,78,45301,2,0,P|234:141|244:165,1,65,0|0,3:2|3:0,0:0:0:0:
367,227,45832,2,0,P|311:198|285:195,1,65,8|0,3:1|3:2,0:0:0:0:
149,313,46363,2,0,P|202:278|235:222,1,130,0|8,3:1|3:1,0:0:0:0:
283,374,47160,1,2,2:0:0:0:
283,374,47292,1,0,2:0:0:0:
283,374,47425,6,0,L|378:389,1,65,4|0,3:2|3:0,0:0:0:0:
148,312,47956,2,0,L|213:323,1,65,8|0,3:1|3:2,0:0:0:0:
352,344,48487,2,0,L|489:367,1,130,0|8,3:1|3:1,0:0:0:0:
512,256,49284,1,2,2:0:0:0:
448,208,49549,2,0,P|439:155|447:121,1,65,0|0,3:2|3:0,0:0:0:0:
261,320,50080,2,0,P|270:373|262:407,1,65,8|0,3:1|3:2,0:0:0:0:
369,246,50611,2,0,P|360:193|382:102,1,130,0|10,3:1|3:0,0:0:0:0:
465,11,51407,2,0,L|527:2,2,32.5,0|0|4,3:2|2:0|2:0,0:0:0:0:
465,11,52735,5,2,2:0:0:0:
466,11,53797,1,2,2:1:0:0:
386,111,55924,1,4,2:0:0:0:
386,111,56989,2,0,P|383:168|386:227,1,97.50000371933,8|0,2:3|2:0,0:0:0:0:
512,194,58089,1,8,2:1:0:0:
12,194,60509,6,0,L|12:136,1,48.75,0|8,1:0|1:3,0:0:0:0:
12,145,61319,6,0,B|135:118|151:236|64:272|-22:213,1,260,4|2,2:0|3:0,0:0:0:0:
1,226,62381,6,0,P|94:280|145:263,1,146.250005578995,4|0,1:0|0:0,0:0:0:0:
205,253,62911,2,0,P|207:277|202:301,1,48.750001859665,8|0,3:1|0:0,0:0:0:0:
196,311,63177,1,2,2:1:0:0:
316,369,63442,2,0,P|370:276|353:225,1,146.250005578995,0|2,3:1|2:0,0:0:0:0:
339,171,63973,2,0,L|402:161,1,48.750001859665,8|0,3:1|0:0,0:0:0:0:
392,92,64239,1,2,2:1:0:0:
256,48,64504,5,8,3:0:0:0:
216,168,64770,1,2,2:1:0:0:
318,99,65035,1,8,3:1:0:0:
192,96,65301,1,2,2:1:0:0:
296,168,65566,1,0,3:1:0:0:
68,0,66097,2,0,P|68:64|60:112,1,97.50000371933,10|2,3:0|3:1,0:0:0:0:
0,143,66628,6,0,P|72:132|210:157,1,195.00000743866,4|8,3:0|3:1,0:0:0:0:
299,213,67425,1,2,2:1:0:0:
149,221,67690,2,0,P|68:275|31:322,1,146.250005578995,0|0,3:1|0:0,0:0:0:0:
0,384,68221,1,8,3:1:0:0:
0,384,68354,1,0,0:0:0:0:
0,384,68487,1,2,2:1:0:0:
141,377,68752,5,0,3:1:0:0:
116,296,69018,1,2,2:1:0:0:
156,216,69283,1,8,3:1:0:0:
116,136,69549,1,2,2:1:0:0:
142,55,69814,2,0,P|197:56|245:64,1,97.50000371933,0|2,3:1|2:1,0:0:0:0:
251,69,70212,1,0,3:1:0:0:
260,75,70345,2,0,L|267:136,1,48.750001859665,8|0,3:1|0:0,0:0:0:0:
343,137,70611,1,2,3:1:0:0:
259,263,70876,6,0,P|185:245|96:252,1,146.250005578995,2|0,1:0|0:0,0:0:0:0:
107,249,71407,1,8,3:1:0:0:
90,89,71673,1,2,2:1:0:0:
253,121,71938,2,0,P|327:139|416:132,1,146.250005578995,0|2,3:1|2:0,0:0:0:0:
403,135,72469,1,8,3:1:0:0:
379,252,72734,1,2,2:1:0:0:
256,261,73000,5,0,3:1:0:0:
320,309,73266,1,2,2:1:0:0:
192,309,73531,1,8,3:1:0:0:
296,381,73797,1,2,2:1:0:0:
216,381,74062,1,0,3:1:0:0:
259,50,74593,2,0,P|260:105|258:159,1,97.50000371933,8|2,3:1|3:1,0:0:0:0:
167,175,75124,6,0,B|279:149|252:221|385:193,1,195.00000743866,4|8,3:2|3:1,0:0:0:0:
512,179,75920,1,2,2:1:0:0:
345,175,76186,6,0,B|233:149|260:221|127:193,1,195.00000743866,0|8,3:1|3:2,0:0:0:0:
0,179,76982,1,2,2:1:0:0:
64,61,77248,6,0,P|72:103|77:169,1,97.50000371933,0|2,3:0|2:1,0:0:0:0:
241,203,77779,2,0,P|216:238|173:288,1,97.50000371933,8|2,3:1|2:1,0:0:0:0:
287,371,78310,2,0,P|244:379|178:384,1,97.50000371933,0|2,3:1|3:0,0:0:0:0:
241,203,78841,2,0,P|283:195|325:192,1,48.750001859665,10|0,3:0|0:0,0:0:0:0:
364,185,79106,1,2,3:1:0:0:
299,81,79372,6,0,P|397:90|491:-23,1,233.999992858887,4|8,1:3|3:1,0:0:0:0:
512,136,80168,1,2,2:1:0:0:
512,249,80434,2,0,P|414:240|320:353,1,233.999992858887,0|8,3:1|3:1,0:0:0:0:
295,224,81230,1,2,2:1:0:0:
152,164,81496,5,8,3:0:0:0:
192,284,81762,1,2,2:1:0:0:
88,212,82027,1,8,3:1:0:0:
216,212,82293,1,2,2:1:0:0:
112,284,82558,1,0,3:1:0:0:
237,18,83088,2,0,P|238:76|237:134,1,116.999996429443,10|2,3:0|3:1,0:0:0:0:
183,200,83619,6,0,P|107:159|26:186,1,175.499994644165,4|0,3:0|0:0,0:0:0:0:
20,192,84150,2,0,P|21:221|11:330,1,116.999996429443,8|2,3:1|2:1,0:0:0:0:
7,321,84549,1,2,2:0:0:0:
0,331,84681,2,0,P|75:371|156:344,1,175.499994644165,0|2,3:1|2:0,0:0:0:0:
163,340,85212,2,0,L|235:323,1,58.4999982147217,8|0,3:1|0:0,0:0:0:0:
293,340,85478,1,2,2:1:0:0:
321,242,85743,5,0,3:1:0:0:
223,211,86009,1,2,2:1:0:0:
295,122,86274,1,8,3:1:0:0:
230,189,86540,1,2,2:1:0:0:
240,61,86805,6,0,P|245:130|234:188,1,116.999996429443,4|2,3:0|2:1,0:0:0:0:
367,332,87336,2,0,L|362:259,2,58.4999982147217,8|0|2,3:1|0:0|3:1,0:0:0:0:
453,110,87867,6,0,P|445:193|463:331,1,175.499994644165,2|0,1:0|0:0,0:0:0:0:
458,301,88398,1,8,3:1:0:0:
293,383,88664,1,2,2:1:0:0:
180,330,88929,2,0,P|187:242|179:155,1,175.499994644165,0|2,3:1|2:0,0:0:0:0:
174,146,89460,2,0,L|102:138,1,58.4999982147217,8|0,3:1|0:0,0:0:0:0:
73,80,89726,1,2,2:1:0:0:
221,8,89991,5,0,3:1:0:0:
235,88,90257,1,2,2:1:0:0:
351,50,90522,1,8,3:1:0:0:
365,130,90788,1,2,2:1:0:0:
302,237,91053,2,0,L|321:364,1,116.999996429443,0|2,3:1|2:1,0:0:0:0:
247,166,91584,2,0,L|229:50,1,116.999996429443,8|2,3:1|3:1,0:0:0:0:
389,196,92115,6,0,P|277:196|179:277,1,233.999992858887,4|8,3:2|3:1,0:0:0:0:
152,345,92911,1,2,2:1:0:0:
67,212,93177,2,0,L|100:23,1,175.499994644165,0|2,3:1|2:0,0:0:0:0:
98,28,93708,2,0,L|28:46,1,58.4999982147217,8|0,3:2|0:0,0:0:0:0:
6,114,93973,1,2,2:1:0:0:
187,141,94239,6,0,P|187:55|218:9,1,116.999996429443,0|2,3:0|2:1,0:0:0:0:
322,160,94770,2,0,P|343:214|336:272,1,116.999996429443,8|2,3:1|2:1,0:0:0:0:
160,376,95301,5,0,3:1:0:0:
256,240,95566,1,2,3:0:0:0:
352,376,95832,1,10,3:0:0:0:
256,384,96097,1,2,3:1:0:0:
256,312,96363,5,4,1:2:0:0:
256,192,96894,12,8,98487,3:0:0:0:
0,224,109106,5,2,1:0:0:0:
64,184,109372,1,0,2:0:0:0:
136,216,109637,2,0,L|224:224,1,65,2|0,3:2|2:0,0:0:0:0:
272,256,110168,1,0,3:2:0:0:
312,160,110434,1,0,2:0:0:0:
368,240,110699,2,0,L|456:248,1,65,0|0,3:2|2:0,0:0:0:0:
432,245,111230,6,0,P|442:280|443:332,1,65,0|0,3:2|2:0,0:0:0:0:
312,160,111761,2,0,P|302:125|301:73,1,65,2|0,3:2|2:0,0:0:0:0:
323,22,112292,1,8,3:2:0:0:
219,83,112557,1,0,3:2:0:0:
151,43,112823,2,0,L|1:29,1,130,0|4,3:2|3:2,0:0:0:0:
64,182,121850,5,4,1:2:0:0:
128,273,122381,2,0,P|26:263|-13:275,2,130,2|0|0,3:2|3:2|3:2,0:0:0:0:
293,337,123973,2,0,L|365:328,1,65,0|0,3:2|2:0,0:0:0:0:
419,369,124504,1,2,3:2:0:0:
340,218,125035,2,0,L|268:227,1,65,8|0,3:2|2:0,0:0:0:0:
214,186,125566,1,0,3:2:0:0:
142,62,126097,6,0,B|185:154|131:273|-36:244|-94:175|-44:48|51:26|113:70|109:138|31:163|47:79,1,455,4|0,1:2|2:0,0:0:0:0:
47,109,128221,1,0,3:2:0:0:
256,192,128487,12,8,130080,1:0:0:0:
48,366,132469,54,0,L|44:316,1,45.4999986114502,2|0,2:1|1:0,0:0:0:0:
82,254,133531,1,8,2:3:0:0:
189,349,134593,2,0,L|193:299,2,45.4999986114502,4|0|0,2:0|2:0|2:0,0:0:0:0:
189,349,136186,22,0,P|251:346|294:348,1,97.50000371933,2|0,2:0|0:0,0:0:0:0:
286,347,136717,22,0,L|337:339,2,45.4999986114502,2|0|8,2:1|1:0|2:3,0:0:0:0:
286,347,138310,22,0,L|294:283,1,48.750001859665,2|0,2:0|0:0,0:0:0:0:
343,216,138575,2,0,L|336:167,1,48.750001859665,2|0,2:0|0:0,0:0:0:0:
334,162,138841,22,0,P|369:157|387:156,1,45.4999986114502,4|0,2:0|2:0,0:0:0:0:
320,83,139903,2,0,P|252:86|226:83,1,90.9999972229005,2|4,2:0|2:0,0:0:0:0:
162,21,141496,2,0,L|165:51,1,22.7499993057251,0|0,1:0|2:0,0:0:0:0:
161,120,142027,2,0,P|159:149|155:172,1,45.4999986114502,8|0,2:3|2:0,0:0:0:0:
156,165,143088,2,0,L|102:174,2,45.4999986114502,2|0|0,2:1|2:0|3:0,0:0:0:0:
156,165,144416,22,0,L|167:235,1,48.750001859665,2|0,2:0|2:0,0:0:0:0:
242,229,144682,2,0,L|253:299,1,48.750001859665,2|0,3:2|2:0,0:0:0:0:
328,293,144947,2,0,L|339:363,1,48.750001859665,2|0,2:0|2:0,0:0:0:0:
335,341,145212,22,0,P|398:352|415:357,2,71.5000021820069,2|0|8,2:1|1:0|2:3,0:0:0:0:
209,347,146805,2,0,L|163:355,1,35.7500010910034,0|0,3:0|3:0,0:0:0:0:
163,355,147336,2,0,P|169:309|167:280,2,71.5000021820069,0|2|4,2:0|3:2|2:0,0:0:0:0:
127,120,149460,5,4,1:0:0:0:
195,100,149726,1,0,3:2:0:0:
287,189,149991,1,2,3:2:0:0:
355,170,150257,1,0,3:2:0:0:
346,93,150522,5,0,3:0:0:0:
275,91,150788,1,0,3:2:0:0:
209,201,151053,1,2,3:0:0:0:
138,200,151319,1,2,3:2:0:0:
127,120,151584,6,0,P|73:63|18:44,2,130,4|0|0,3:0|3:0|3:2,0:0:0:0:
195,156,152911,1,0,3:2:0:0:
248,266,153177,2,0,L|234:363,1,97.5,0|0,3:0|3:0,0:0:0:0:
235,372,153708,6,0,P|321:355|380:360,1,130,4|2,3:2|3:2,0:0:0:0:
438,374,154504,1,0,3:2:0:0:
393,254,154770,2,0,P|342:263|307:261,1,65,0|0,3:0|3:2,0:0:0:0:
445,185,155301,2,0,P|435:134|437:99,1,65,2|2,3:0|3:2,0:0:0:0:
451,46,155832,1,2,1:0:0:0:
245,69,156363,2,0,P|309:64|374:65,2,130,0|8|0,3:0|1:0|3:0,0:0:0:0:
245,69,157956,5,4,3:2:0:0:
230,149,158221,1,0,3:2:0:0:
167,94,158487,1,2,3:2:0:0:
152,174,158752,1,0,3:2:0:0:
78,130,159018,6,0,P|103:177|127:280,1,130,0|2,3:0|3:0,0:0:0:0:
122,326,159814,1,2,3:2:0:0:
180,384,160080,2,0,P|215:344|243:258,1,130,4|0,3:0|3:0,0:0:0:0:
338,369,161142,2,0,P|338:337|323:289,1,65,0|0,3:2|3:2,0:0:0:0:
435,381,161673,2,0,P|413:320|412:256,1,130,0|4,3:0|3:2,0:0:0:0:
424,171,162469,5,0,3:2:0:0:
490,85,162734,2,0,L|475:-1,1,65,2|0,3:2|3:2,0:0:0:0:
324,78,163265,2,0,L|314:170,2,65,0|0|2,3:0|3:2|3:0,0:0:0:0:
273,20,164062,1,2,3:2:0:0:
176,80,164327,6,0,P|127:94|55:94,1,97.5,2|0,1:0|3:0,0:0:0:0:
76,89,164858,2,0,P|125:75|244:101,1,146.250005578995,0|0,3:0|3:0,0:0:0:0:
225,93,165389,2,0,P|183:137|-9:159,1,233.999992858887,8|2,1:0|1:3,0:0:0:0:
19,168,166451,6,0,P|16:234|89:335,1,175.499994644165,4|0,1:0|0:0,0:0:0:0:
79,333,166982,2,0,L|155:324,1,58.4999982147217,8|0,3:1|0:0,0:0:0:0:
206,360,167248,1,2,2:1:0:0:
288,237,167513,2,0,P|291:171|247:91,1,116.999996429443,0|2,3:1|2:1,0:0:0:0:
269,113,167911,1,2,2:0:0:0:
276,102,168044,2,0,L|354:114,1,58.4999982147217,8|0,3:1|0:0,0:0:0:0:
410,121,168310,1,2,2:1:0:0:
512,238,168575,5,8,3:0:0:0:
392,198,168841,1,2,2:1:0:0:
461,300,169106,1,8,3:1:0:0:
464,174,169372,1,2,2:1:0:0:
392,278,169637,1,0,3:1:0:0:
193,258,170168,2,0,P|263:259|320:261,1,116.999996429443,10|2,3:0|3:1,0:0:0:0:
234,360,170699,6,0,B|253:198|210:285|237:122,1,233.999992858887,4|8,3:0|3:1,0:0:0:0:
236,127,171363,1,0,0:0:0:0:
236,127,171496,1,2,2:1:0:0:
163,46,171761,2,0,P|139:105|156:160,1,116.999996429443,0|2,3:1|2:1,0:0:0:0:
54,228,172292,2,0,L|163:248,1,97.50000371933,8|2,3:1|2:1,0:0:0:0:
277,317,172823,5,0,3:1:0:0:
403,273,173088,1,2,2:1:0:0:
364,373,173354,1,8,3:1:0:0:
314,217,173619,1,2,2:1:0:0:
414,275,173885,6,0,P|465:275|534:285,1,97.50000371933,0|2,3:1|2:1,0:0:0:0:
409,184,174416,1,8,3:1:0:0:
409,98,174681,1,2,3:1:0:0:
312,48,174947,6,0,P|408:57|492:48,1,175.499994644165,2|2,1:0|2:0,0:0:0:0:
495,48,175478,1,8,3:1:0:0:
379,174,175743,1,2,2:1:0:0:
379,174,175876,1,0,0:0:0:0:
379,174,176009,2,0,P|372:243|384:326,1,116.999996429443,0|2,3:1|2:1,0:0:0:0:
382,300,176407,1,2,2:0:0:0:
388,309,176540,2,0,L|476:321,1,58.4999982147217,8|0,3:1|0:0,0:0:0:0:
505,266,176805,1,2,2:1:0:0:
362,204,177071,6,0,L|236:221,1,116.999996429443,0|2,3:1|2:1,0:0:0:0:
284,79,177602,2,0,L|158:96,1,116.999996429443,8|2,3:1|2:1,0:0:0:0:
117,154,178000,1,2,2:0:0:0:
117,154,178133,6,0,L|-9:171,1,116.999996429443,0|2,3:1|2:1,0:0:0:0:
11,284,178664,1,8,3:1:0:0:
125,282,178929,1,2,3:1:0:0:
187,377,179195,6,0,P|159:293|286:261,1,233.999992858887,4|8,3:2|3:1,0:0:0:0:
259,330,179991,1,2,2:1:0:0:
314,183,180257,2,0,P|345:222|331:306,1,116.999996429443,0|2,3:1|2:1,0:0:0:0:
351,295,180655,1,2,2:0:0:0:
351,295,180788,2,0,L|487:274,1,116.999996429443,8|2,3:1|3:1,0:0:0:0:
489,160,181319,5,0,3:0:0:0:
443,93,181584,1,2,2:1:0:0:
384,0,181850,5,8,3:1:0:0:
317,46,182115,1,2,2:1:0:0:
214,117,182381,6,0,P|143:96|46:95,1,116.999996429443,0|2,3:1|3:0,0:0:0:0:
54,235,182911,2,0,P|125:214|313:205,1,233.999992858887,10|4,3:0|1:2,0:0:0:0:
282,326,183708,5,2,2:1:0:0:
282,326,183841,1,0,0:0:0:0:
282,326,183973,2,0,P|223:305|143:296,1,116.999996429443,8|2,3:1|2:1,0:0:0:0:
161,288,184372,1,0,0:0:0:0:
154,281,184504,6,0,B|91:280|135:209|242:241|189:295|169:366|166:393|279:446|344:376|302:304|270:297,1,350.99998928833,0|2,3:1|2:1,0:0:0:0:
187,181,185566,6,0,B|219:152|219:152|339:123|339:123|283:203,1,233.999992858887,0|8,3:1|3:1,0:0:0:0:
436,219,186363,2,0,L|363:232,1,58.4999982147217,2|2,2:1|0:0,0:0:0:0:
369,231,186628,6,0,B|361:279|361:279|372:324|372:324|492:369,1,175.499994644165,0|2,3:1|0:2,0:0:0:0:
462,357,187159,1,10,3:3:0:0:
512,242,187425,1,2,3:1:0:0:
409,139,187690,6,0,L|208:175,1,175.499994644165,4|0,3:0|0:0,0:0:0:0:
228,174,188221,2,0,P|214:125|241:62,1,116.999996429443,8|2,3:1|2:1,0:0:0:0:
115,205,188752,6,0,B|142:182|142:182|158:223|158:223|-14:261,1,233.999992858887,0|4,3:1|3:3,0:0:0:0:
104,371,189549,1,2,2:1:0:0:
104,371,189681,1,0,0:0:0:0:
104,371,189814,6,0,P|122:337|119:291,3,58.4999982147217,8|0|2|0,1:1|0:0|2:1|0:0,0:0:0:0:
188,271,190345,2,0,P|186:232|160:194,3,58.4999982147217,8|0|2|0,3:1|0:0|2:1|0:0,0:0:0:0:
224,152,190876,6,0,L|208:61,1,58.4999982147217,2|0,1:1|0:0,0:0:0:0:
279,0,191142,2,0,L|289:57,1,58.4999982147217,2|0,3:1|0:0,0:0:0:0:
212,87,191407,2,0,B|394:112|394:112|355:156,1,233.999992858887,8|4,3:3|1:2,0:0:0:0:
278,256,192204,6,0,B|326:252|326:252|475:385,1,233.999992858887,2|2,2:1|2:1,0:0:0:0:
478,380,192867,1,0,0:0:0:0:
492,383,193000,2,0,B|500:316|500:316|485:287|485:287|495:192,1,175.499994644165,0|0,3:1|0:0,0:0:0:0:
422,182,193531,6,0,L|344:163,1,58.4999982147217,8|0,3:1|0:0,0:0:0:0:
335,243,193796,2,0,L|258:260,1,58.4999982147217,2|0,2:1|0:0,0:0:0:0:
270,330,194062,1,0,3:1:0:0:
150,384,194327,6,0,B|158:322|158:322|161:301|134:284|134:284|163:270|167:254|167:254|177:174,1,233.999992858887,2|2,2:1|2:1,0:0:0:0:
180,169,194991,1,0,0:0:0:0:
184,161,195124,2,0,B|147:124|147:124|53:148|53:148,1,116.999996429443,0|2,3:1|3:1,0:0:0:0:
77,133,195522,1,0,0:0:0:0:
71,124,195655,2,0,L|85:53,2,58.4999982147217,8|0|2,3:3|0:0|3:1,0:0:0:0:
137,7,196186,1,0,1:0:0:0:
266,56,196451,6,0,L|429:22,2,116.999996429443,2|8|2,2:1|3:1|2:1,0:0:0:0:
342,200,197248,2,0,B|415:183|415:183|433:164|433:164|529:144,1,175.499994644165,0|0,1:1|0:0,0:0:0:0:
512,147,197779,2,0,B|523:97|523:97|438:22,1,116.999996429443,8|2,3:1|2:1,0:0:0:0:
342,200,198310,6,0,L|276:187,3,58.4999982147217,8|0|2|0,1:3|0:0|2:1|0:0,0:0:0:0:
229,245,198841,2,0,P|240:309|204:379,1,116.999996429443,8|2,3:1|2:1,0:0:0:0:
149,314,199372,5,4,1:3:0:0:
321,276,199637,1,2,3:3:0:0:
336,163,199903,1,10,3:3:0:0:
508,125,200168,1,2,3:1:0:0:
256,192,200301,12,4,202557,0:0:0:0:
465,384,204681,6,0,P|385:336|354:341,1,116.999996429443,0|8,1:0|2:3,0:0:0:0:
293,361,206274,1,0,2:0:0:0:
218,350,206805,2,0,P|172:268|143:257,1,116.999996429443,4|4,2:0|2:3,0:0:0:0:
80,244,208398,1,2,2:0:0:0:
31,189,208929,2,0,P|32:95|12:71,1,116.999996429443,4|8,2:0|2:3,0:0:0:0:
144,113,210788,1,2,2:0:0:0:
136,123,211053,2,0,L|144:181,1,58.4999982147217,4|0,2:0|2:0,0:0:0:0:
146,189,211850,2,0,P|212:203|240:194,1,87.7499973220826,2|2,2:0|2:0,0:0:0:0:
301,179,212911,1,2,2:0:0:0:
350,237,213177,6,0,L|508:210,1,146.250005578995,0|0,1:0|2:0,0:0:0:0:
512,140,214239,1,8,2:3:0:0:
475,73,214770,1,0,2:0:0:0:
406,49,215301,2,0,L|402:-15,3,48.750001859665,6|0|0|0,2:0|2:0|1:0|2:0,0:0:0:0:
332,15,216363,1,4,2:3:0:0:
217,42,216894,2,0,L|215:93,1,48.750001859665,2|2,2:0|2:0,0:0:0:0:
214,104,217425,2,0,P|137:76|61:84,1,146.250005578995,4|0,2:0|2:0,0:0:0:0:
19,136,218487,1,8,2:3:0:0:
0,253,219018,1,2,2:0:0:0:
0,253,219283,2,0,B|165:211|165:211|187:253|147:289|147:289|123:256|136:236,1,292.50001115799,4|0,2:0|0:0,0:0:0:0:
154,245,221142,5,2,2:3:0:0:
154,245,221673,6,0,P|238:309|343:291,1,175.499994644165,4|0,1:0|0:0,0:0:0:0:
370,273,222204,1,8,3:1:0:0:
410,151,222469,2,0,L|398:61,1,58.4999982147217,2|2,2:1|2:0,0:0:0:0:
400,79,222734,2,0,P|504:144|493:250,1,233.999992858887,0|8,3:1|3:0,0:0:0:0:
497,243,223398,1,0,0:0:0:0:
497,243,223531,1,2,2:1:0:0:
347,352,223796,5,4,3:0:0:0:
309,226,224062,1,2,2:1:0:0:
205,158,224327,1,8,3:1:0:0:
167,32,224593,1,2,2:1:0:0:
65,95,224858,6,0,P|52:168|19:227,1,116.999996429443,0|2,3:1|3:0,0:0:0:0:
40,215,225257,1,0,0:0:0:0:
47,224,225389,2,0,L|126:236,1,58.4999982147217,6|0,3:0|0:0,0:0:0:0:
180,215,225655,1,2,3:1:0:0:
108,318,225920,6,0,L|313:292,1,175.499994644165,2|0,3:1|0:0,0:0:0:0:
293,295,226451,2,0,P|310:344|396:373,1,116.999996429443,8|2,3:1|2:1,0:0:0:0:
386,209,226982,2,0,P|419:169|387:44,1,175.499994644165,0|0,3:1|0:0,0:0:0:0:
329,23,227513,2,0,L|247:10,1,58.4999982147217,8|0,3:1|0:0,0:0:0:0:
198,40,227779,1,2,2:1:0:0:
318,160,228044,5,4,3:2:0:0:
187,181,228310,1,2,2:1:0:0:
305,240,228575,1,8,3:1:0:0:
245,123,228840,1,2,2:1:0:0:
224,254,229106,6,0,P|222:319|229:380,1,116.999996429443,0|2,3:1|2:1,0:0:0:0:
63,285,229637,2,0,L|68:200,1,58.4999982147217,8|0,3:1|0:0,0:0:0:0:
87,150,229903,1,2,3:1:0:0:
224,253,230168,6,0,P|282:287|441:202,1,233.999992858887,8|8,1:0|3:1,0:0:0:0:
426,231,230832,1,0,2:0:0:0:
426,231,230965,1,2,2:1:0:0:
512,139,231230,2,0,P|463:105|332:133,1,175.499994644165,0|2,3:1|2:0,0:0:0:0:
305,183,231761,2,0,P|280:150|281:93,1,58.4999982147217,8|0,3:0|2:0,0:0:0:0:
301,60,232027,1,2,2:1:0:0:
176,136,232292,5,4,3:0:0:0:
102,32,232558,1,2,2:1:0:0:
223,71,232823,1,8,3:1:0:0:
100,108,233089,1,2,2:1:0:0:
179,9,233354,1,0,3:1:0:0:
6,205,233885,2,0,P|2:267|-1:343,1,116.999996429443,8|2,3:1|3:1,0:0:0:0:
0,322,234416,6,0,B|149:281|79:385|265:341,1,233.999992858887,4|8,3:2|3:1,0:0:0:0:
254,279,235212,1,2,2:1:0:0:
342,346,235478,2,0,P|293:280|353:175,1,175.499994644165,0|2,3:1|2:0,0:0:0:0:
326,192,236009,2,0,L|406:207,2,58.4999982147217,8|0|2,3:2|0:0|2:1,0:0:0:0:
466,186,236540,5,2,1:1:0:0:
389,94,236805,1,2,2:1:0:0:
253,65,237071,1,4,3:0:0:0:
135,111,237337,1,2,2:1:0:0:
80,240,237602,5,0,3:1:0:0:
228,247,237867,1,2,3:0:0:0:
363,164,238133,1,10,3:0:0:0:
419,26,238399,1,2,3:1:0:0:
466,170,238664,6,0,B|409:208|409:306|475:312|493:268|427:229,1,175.499994644165,4|2,1:0|2:0,0:0:0:0:
490,360,239195,2,0,P|400:363|336:278,1,175.499994644165,8|2,3:0|2:0,0:0:0:0:
341,300,239726,6,0,P|275:238|215:246,1,116.999996429443,4|2,3:0|2:1,0:0:0:0:
231,244,240124,1,0,2:0:0:0:
217,256,240257,2,0,L|232:335,1,58.4999982147217,8|0,3:1|2:0,0:0:0:0:
182,376,240522,1,2,2:1:0:0:
145,216,240788,6,0,P|142:160|200:99,1,116.999996429443,2|2,1:1|2:1,0:0:0:0:
180,108,241186,2,0,L|247:117,1,58.4999982147217,2|8,0:0|3:1,0:0:0:0:
248,115,241451,2,0,B|283:74|283:74|374:86,1,116.999996429443,2|0,0:0|0:0,0:0:0:0:
386,0,241850,6,0,B|353:160|416:69|383:262,1,233.999992858887,8|8,3:2|3:1,0:0:0:0:
289,326,242646,1,2,3:1:0:0:
304,347,242779,1,2,0:0:0:0:
330,356,242911,6,0,L|463:346,1,116.999996429443,4|2,3:2|2:1,0:0:0:0:
457,345,243310,2,0,P|483:267|446:206,1,116.999996429443,2|0,0:0|0:0,0:0:0:0:
387,230,243708,2,0,L|309:219,1,58.4999982147217,2|0,2:1|0:0,0:0:0:0:
299,136,243973,6,0,B|440:156|440:156|347:93,2,233.999992858887,0|8|4,3:1|3:3|3:3,0:0:0:0:
351,23,245301,2,0,L|239:8,1,58.4999982147217,2|2,2:1|0:0,0:0:0:0:
238,79,245566,2,0,L|126:64,1,58.4999982147217,8|0,3:3|2:0,0:0:0:0:
124,13,245832,2,0,L|12:-2,1,58.4999982147217,2|2,2:1|0:0,0:0:0:0:
14,68,246097,5,8,1:1:0:0:
0,100,246229,1,2,0:0:0:0:
1,136,246362,1,10,3:1:0:0:
16,168,246495,1,2,0:0:0:0:
42,192,246628,2,0,L|178:211,1,116.999996429443,8|2,3:1|3:1,0:0:0:0:
157,208,247159,6,0,P|157:311|213:411,1,175.499994644165,4|0,1:1|0:0,0:0:0:0:
258,381,247690,1,8,3:3:0:0:
350,300,247956,2,0,L|428:291,1,58.4999982147217,2|2,2:1|2:0,0:0:0:0:
417,291,248221,6,0,P|421:203|394:132,1,116.999996429443,4|2,3:3|2:1,0:0:0:0:
414,163,248619,1,2,2:0:0:0:
418,153,248752,2,0,L|505:142,1,58.4999982147217,8|0,3:1|0:0,0:0:0:0:
498,72,249018,1,2,3:1:0:0:
350,89,249283,5,4,3:2:0:0:
234,0,249549,1,2,2:1:0:0:
223,151,249814,1,8,3:3:0:0:
271,78,250080,1,2,2:1:0:0:
295,186,250345,6,0,B|274:297|336:254|304:407,1,175.499994644165,4|0,3:3|0:0,0:0:0:0:
309,368,250876,2,0,P|211:369|178:316,1,116.999996429443,8|2,3:1|3:1,0:0:0:0:
24,298,251407,6,0,P|95:232|213:283,1,233.999992858887,4|8,3:2|3:3,0:0:0:0:
256,152,252204,1,2,2:1:0:0:
301,278,252469,6,0,P|401:229|485:285,1,175.499994644165,4|2,3:3|2:0,0:0:0:0:
462,255,253000,2,0,L|477:337,2,58.4999982147217,8|0|2,3:1|0:0|3:1,0:0:0:0:
231,167,253531,6,0,L|346:146,1,116.999996429443,4|2,3:2|2:1,0:0:0:0:
290,30,254062,2,0,L|405:9,1,116.999996429443,8|2,3:3|2:1,0:0:0:0:
405,9,254460,1,0,0:0:0:0:
405,9,254593,5,4,3:3:0:0:
425,90,254858,1,2,3:3:0:0:
501,217,255124,5,10,3:3:0:0:
490,144,255389,1,2,3:1:0:0:
451,287,255655,5,4,1:2:0:0:
256,192,255788,12,2,259903,1:2:0:0:
