osu file format v14

[General]
AudioFilename: EXEC_with.METHOD_METAFALICA-..mp3
AudioLeadIn: 0
PreviewTime: 170819
Countdown: 0
SampleSet: Soft
StackLeniency: 0.7
Mode: 0
LetterboxInBreaks: 0
WidescreenStoryboard: 0

[Editor]
Bookmarks: 1485,2679,4461,6746,11675,11925,12175,12425,12675,12925,13175,13425,13427,13675,13925,14175,14425,14675,14925,15175,15425,15675,15925,16175,16425,16675,16925,17175,17425,17675,18175,23583,74303,94684,94973,95321,95717,96136,112988,149969,188478,251795,290702,411902
DistanceSpacing: 2
BeatDivisor: 4
GridSize: 4
TimelineZoom: 1.800006

[Metadata]
Title:EXEC_with.METHOD_METAFALICA/.
TitleUnicode:EXEC_with.METHOD_METAFALICA/.
Artist:Shikata Akiko / Shimotsuki Haruka
ArtistUnicode:志方あきこ/霜月はるか
Creator:Shurelia
Version:Metafalss
Source:アルトネリコ2 ~世界に響く少女たちの創造詩~
Tags:Mir Ongaku Ar Tonelico II Sekai ni Hibiku Shoujo-tachi no Metafalica Melody of Cloche Leythal Pastalia Luca Trulyworth Hymn Visual Novel Gust NIS RPG Daisuke Achiwa best game Homura ~HOMURA~ Hyumunos Konsaato 2 Saido Aka
BeatmapID:1213723
BeatmapSetID:572865

[Difficulty]
HPDrainRate:6.3
CircleSize:4
OverallDifficulty:7.7
ApproachRate:8.8
SliderMultiplier:2.2
SliderTickRate:1

[Events]
//Background and Video events
0,0,"wallpaper 2.jpg",0,0
//Break Periods
//Storyboard Layer 0 (Background)
//Storyboard Layer 1 (Fail)
//Storyboard Layer 2 (Pass)
//Storyboard Layer 3 (Foreground)
//Storyboard Sound Samples

[TimingPoints]
1527,582.52427184466,3,2,1,25,1,0
1527,-133.333333333333,3,2,1,25,0,0
2546,-133.333333333333,3,2,1,5,0,0
2692,-133.333333333333,3,2,1,27,0,0
3711,-133.333333333333,3,2,1,5,0,0
3857,-133.333333333333,3,2,1,32,0,0
5167,-133.333333333333,3,2,1,5,0,0
5313,-133.333333333333,3,2,1,34,0,0
5604,-133.333333333333,3,2,99,34,0,0
6769,-100,4,2,1,5,0,0
7352,-100,4,2,1,50,0,0
7789,-100,4,2,1,5,0,0
7934,-100,4,2,1,53,0,0
8080,-100,4,2,1,5,0,0
8226,-100,4,2,1,53,0,0
8371,-100,4,2,1,5,0,0
8517,619.666666666667,4,2,1,60,1,8
8517,-100,4,2,1,60,0,0
8671,-100,4,2,1,5,0,0
8826,-100,4,2,1,60,0,0
8981,-100,4,2,1,5,0,0
9136,613.666666666667,4,2,1,65,1,0
9136,-200,4,2,1,65,0,0
9289,-200,4,2,1,5,0,0
9750,673.400673400673,4,2,1,5,1,8
9750,-200,4,2,1,5,0,0
10425,779.220779220779,4,2,1,5,1,8
10427,-200,4,2,1,5,0,0
11207,937.5,4,2,1,40,1,0
11207,-100,4,2,1,40,0,0
11677,500,4,2,1,35,1,0
11677,-100,4,2,1,35,0,0
13677,500,4,2,1,35,1,0
14677,500,3,2,1,35,1,0
16177,500,3,2,1,35,1,0
17677,535.714285714286,3,2,1,30,1,8
18217,602.409638554217,4,2,1,5,1,0
18217,-200,4,2,1,5,0,0
18368,-200,4,2,1,5,0,0
23038,547.445255474453,4,2,1,30,1,0
23038,-133.333333333333,4,2,1,30,0,0
28512,560.747663551402,4,2,1,30,1,0
28512,-133.333333333333,4,2,1,30,0,0
29633,582.52427184466,4,2,1,30,1,0
29633,-133.333333333333,4,2,1,30,0,0
31092,527.815789473684,4,2,1,30,1,8
31092,-133.333333333333,4,2,1,30,0,8
31620,533.333333333333,4,2,1,30,1,0
31620,-133.333333333333,4,2,1,30,0,0
38020,-200,4,2,1,30,0,0
39619,534.515789473683,4,2,1,24,1,8
40056,533.333333333333,4,2,1,35,1,0
40056,-125,4,2,1,35,0,0
56455,-125,4,2,2,35,0,0
56595,571.428571428571,4,2,2,45,1,8
57165,535.714285714286,4,2,2,45,1,0
57165,-111.111111111111,4,2,2,45,0,0
57343,-111.111111111111,4,2,2,5,0,0
57432,-111.111111111111,4,2,2,45,0,0
59486,-111.111111111111,4,2,2,5,0,0
59575,-111.111111111111,4,2,2,45,0,0
61629,-111.111111111111,4,2,2,5,0,0
61718,-111.111111111111,4,2,2,45,0,0
63772,-111.111111111111,4,2,2,5,0,0
63861,-111.111111111111,4,2,2,45,0,0
65736,-111.111111111111,4,2,98,45,0,0
65915,-111.111111111111,4,2,2,5,0,0
66004,-111.111111111111,4,2,2,45,0,0
68057,-111.111111111111,4,2,2,5,0,0
68147,-111.111111111111,4,2,2,45,0,0
70200,-111.111111111111,4,2,2,5,0,0
70290,-111.111111111111,4,2,2,45,0,0
72343,-111.111111111111,4,2,2,5,0,0
72432,-111.111111111111,4,2,97,45,0,0
73772,-111.111111111111,4,2,97,50,0,0
74307,-100,4,2,96,60,0,1
74575,-100,4,2,3,60,0,0
78325,-100,4,2,97,60,0,0
78593,-100,4,2,96,60,0,0
78861,-100,4,2,3,60,0,0
82611,-100,4,2,97,60,0,0
82879,-100,4,2,96,60,0,0
83147,-100,4,2,3,60,0,0
90111,-100,4,2,3,60,0,0
90379,-100,4,2,97,60,0,0
91450,-200,4,2,98,75,0,0
93057,-200,4,2,3,55,0,0
93459,-200,4,2,3,5,0,0
93593,-200,4,2,3,55,0,0
94396,582.52427184466,4,2,1,50,1,8
94541,-100,4,2,1,50,0,0
94701,668.15144766147,4,2,1,50,1,8
95327,779,4,2,1,75,1,8
95711,857.142857142857,4,2,1,45,1,8
96139,601.02173695282,4,2,1,75,1,0
96439,-100,4,2,3,35,0,0
100947,-100,4,2,96,35,0,0
101247,-100,4,2,3,35,0,0
105755,-100,4,2,96,35,0,0
106055,-100,4,2,3,35,0,0
110563,-100,4,2,96,35,0,0
110864,-100,4,2,3,35,0,0
112967,631.578947368421,4,2,1,35,1,0
114230,711,4,2,1,26,1,8
114941,769,4,2,1,23,1,8
115325,779.220779220779,4,2,1,20,1,8
115714,535.714285714286,4,2,94,20,1,8
115981,545.454545454546,4,2,3,25,1,0
116117,-166.666666666667,4,2,3,25,0,0
116221,517.241379310345,4,2,3,25,1,0
116221,-166.666666666667,4,2,3,25,0,0
118031,631.578947368421,4,2,3,25,1,0
118031,-166.666666666667,4,2,3,25,0,0
118663,492.454545454546,4,2,3,25,1,0
118663,-166.666666666667,4,2,3,25,0,0
119508,545.454545454546,4,2,3,25,1,0
119508,-125,4,2,3,25,0,0
119816,545.454545454546,4,2,3,25,1,0
120134,390.854545454546,4,2,3,25,1,0
120134,-200,4,2,3,25,0,0
120524,495.867768595041,4,2,3,25,1,0
121020,545.454545454546,4,2,3,25,1,0
121565,458.015267175573,4,2,3,25,1,0
121565,-166.666666666667,4,2,3,25,0,0
122485,461.538461538462,4,2,3,25,1,0
122485,-142.857142857143,4,2,3,25,0,0
122948,750,4,2,3,25,1,0
123323,571.428571428571,4,2,3,25,1,0
123323,-166.666666666667,4,2,3,25,0,0
123608,612.244897959184,4,2,3,25,1,0
123914,731.707317073171,4,2,3,25,1,0
123914,-111.111111111111,4,2,3,25,0,0
124279,740.740740740741,4,2,3,25,1,0
125017,545.454545454546,4,2,3,25,1,0
125017,-166.666666666667,4,2,3,25,0,0
126380,731.707317073171,4,2,3,25,1,0
126768,600,4,2,3,25,1,0
126768,-133.333333333333,4,2,3,25,0,0
127371,517.241379310345,4,2,3,25,1,0
127888,645.161290322581,4,2,3,25,1,0
127888,-166.666666666667,4,2,3,25,0,0
128371,-166.666666666667,4,2,3,5,0,0
128523,-166.666666666667,4,2,3,25,0,0
128524,545.454545454546,4,2,3,25,1,0
128524,-166.666666666667,4,2,3,25,0,0
128933,-166.666666666667,4,2,3,5,0,0
129069,-166.666666666667,4,2,3,25,0,0
129478,-166.666666666667,4,2,3,5,0,0
129614,-166.666666666667,4,2,3,25,0,0
130023,-166.666666666667,4,2,3,5,0,0
130160,-166.666666666667,4,2,3,25,0,0
130569,-166.666666666667,4,2,3,5,0,0
130705,-166.666666666667,4,2,3,25,0,0
130935,714.285714285714,4,2,3,25,1,0
131173,-166.666666666667,4,2,3,5,0,0
131236,779.220779220779,4,2,3,25,1,0
131236,-166.666666666667,4,2,3,25,0,0
132431,789.473684210526,4,2,3,25,1,0
132825,-100,4,2,94,25,0,0
133171,500,4,2,1,25,1,0
133171,-166.666666666667,4,2,1,25,0,0
133671,-166.666666666667,4,2,1,5,0,0
134087,-166.666666666667,4,2,1,25,0,0
134671,-166.666666666667,4,2,1,5,0,0
135546,-166.666666666667,4,2,1,25,0,0
135921,-166.666666666667,4,2,1,25,0,0
136421,666.666666666667,4,2,1,25,1,0
136421,-166.666666666667,4,2,1,25,0,0
137087,-166.666666666667,4,2,1,5,0,0
137671,-166.666666666667,4,2,1,5,0,0
137754,638.297872340426,4,2,1,25,1,0
137754,-166.666666666667,4,2,1,25,0,0
138073,468.75,4,2,1,5,1,0
138073,-166.666666666667,4,2,1,5,0,0
138190,-166.666666666667,4,2,1,25,0,0
138541,-166.666666666667,4,2,1,5,0,0
139010,502.092050209205,4,2,1,25,1,0
139763,410.958904109589,4,2,1,25,1,0
139763,-200,4,2,1,25,0,0
140173,-200,4,2,1,5,0,0
142228,-200,4,2,1,5,0,0
142356,600,4,2,1,25,1,0
142356,-166.666666666667,4,2,1,25,0,0
142956,626.304801670146,4,2,1,25,1,0
142956,-181.818181818181,4,2,1,25,0,0
143112,-181.818181818181,4,2,1,5,0,0
144209,625,4,2,1,25,1,0
144520,652.173913043478,4,2,1,25,1,0
144852,594.059405940594,4,2,1,25,1,0
144852,-166.666666666667,4,2,1,25,0,0
145223,-166.666666666667,4,2,1,5,0,0
145446,454.545454545455,4,2,1,25,1,0
145446,-200,4,2,1,25,0,0
145900,526.315789473684,4,2,1,25,1,0
145900,-166.666666666667,4,2,1,25,0,0
146426,-166.666666666667,4,2,1,5,0,0
147391,-166.666666666667,4,2,1,5,0,0
147478,487.80487804878,4,2,1,25,1,0
147478,-142.857142857143,4,2,1,25,0,0
147965,-142.857142857143,4,2,1,5,0,0
148212,606.060606060606,4,2,1,25,1,0
148363,-166.666666666667,4,2,97,25,0,0
149121,535.714285714286,4,2,97,25,1,0
149927,535.714285714286,4,2,96,60,1,1
150060,-100,4,2,3,40,0,0
152069,-100,4,2,3,40,0,0
154212,-90.9090909090909,4,2,96,60,0,1
154346,-90.9090909090909,4,2,3,60,0,0
162784,-90.9090909090909,4,2,96,60,0,0
163052,-90.9090909090909,4,2,3,60,0,0
170819,-100,4,2,92,55,0,0
171355,-100,4,2,96,60,0,1
171623,-100,4,2,3,60,0,1
179927,-100,4,2,96,60,0,1
180194,-100,4,2,3,60,0,1
184212,-100,4,2,98,60,0,1
186355,560.747663551402,4,2,98,35,1,0
186447,-100,4,2,97,35,0,0
186915,612.244897959184,4,2,97,38,1,8
187731,645.161290322581,4,2,97,44,1,8
188161,653.753580662841,4,2,97,44,1,8
188705,555.555555555556,4,2,98,60,1,1
188705,-125,4,2,98,60,0,1
188843,-125,4,2,3,50,0,0
189677,-125,4,2,3,5,0,0
189816,-125,4,2,3,50,0,0
190788,-125,4,2,3,5,0,0
190927,-125,4,2,3,50,0,0
193149,-125,4,2,98,50,0,0
193427,-125,4,2,3,50,0,0
194677,-125,4,2,3,5,0,0
194816,-125,4,2,3,50,0,0
195232,-125,4,2,3,5,0,0
195371,-125,4,2,3,50,0,0
196482,-125,4,2,97,50,0,0
197036,-125,4,2,97,50,0,0
197593,-125,4,2,98,55,0,1
197732,-125,4,2,3,45,0,0
198566,-125,4,2,3,5,0,0
198705,-125,4,2,3,45,0,0
199677,-125,4,2,3,5,0,0
199816,-125,4,2,3,45,0,0
200371,-125,4,2,3,5,0,0
200510,-125,4,2,3,45,0,0
202038,-125,4,2,98,45,0,0
202593,-125,4,2,3,45,0,0
205279,-125,4,2,97,45,0,0
205925,-125,4,2,92,50,0,0
206482,-100,4,2,98,60,0,1
206760,-100,4,2,3,60,0,1
210927,-100,4,2,98,60,0,1
211482,-100,4,2,3,60,0,1
214260,-100,4,2,97,60,0,1
215371,-100,4,2,98,60,0,1
215649,-100,4,2,3,60,0,1
219814,564.928571428571,4,2,98,55,1,0
220096,-100,4,2,3,55,0,0
220379,592.1,4,2,3,53,1,8
220970,655.666666666667,4,2,3,50,1,8
221627,687.666666666667,4,2,97,45,1,8
222315,662.666666666667,4,2,91,60,1,0
222975,742.666666666667,4,2,91,55,1,8
223717,782.561109084277,4,2,91,50,1,8
224505,1232.33333333333,4,2,91,45,1,8
225121,1324.33636363636,4,2,92,50,1,8
225782,333.333333333333,3,2,3,75,1,1
225782,-100,3,2,3,75,0,1
226115,-133.333333333333,3,2,4,65,0,1
232032,-133.333333333333,3,2,4,5,0,1
232115,-133.333333333333,3,2,4,65,0,1
236032,-133.333333333333,3,2,4,5,0,1
236115,-133.333333333333,3,2,4,65,0,1
237032,-133.333333333333,3,2,4,5,0,1
237115,-133.333333333333,3,2,4,65,0,1
238032,-133.333333333333,3,2,4,5,0,1
238115,-133.333333333333,3,2,4,65,0,1
239032,-133.333333333333,3,2,4,5,0,1
239115,-133.333333333333,3,2,4,65,0,1
239365,-133.333333333333,3,2,4,5,0,1
239448,-133.333333333333,3,2,4,65,0,1
245031,-133.333333333333,3,2,4,5,0,1
245115,-133.333333333333,3,2,4,65,0,1
247031,-133.333333333333,3,2,4,5,0,1
247115,-133.333333333333,3,2,4,65,0,1
247365,-133.333333333333,3,2,4,5,0,1
247448,-133.333333333333,3,2,4,65,0,1
248031,-133.333333333333,3,2,4,5,0,1
248115,-133.333333333333,3,2,4,65,0,1
248365,-133.333333333333,3,2,4,5,0,1
248448,-133.333333333333,3,2,4,65,0,1
248698,-133.333333333333,3,2,4,5,0,1
248781,-133.333333333333,3,2,4,65,0,1
249365,-133.333333333333,3,2,4,5,0,1
249448,-133.333333333333,3,2,4,65,0,1
251698,-133.333333333333,3,2,4,5,0,1
251781,544.014285714286,4,2,4,60,1,0
252325,-100,4,2,4,40,0,0
252869,-100,4,2,98,20,0,0
253141,-100,4,2,98,30,0,0
253413,-100,4,2,98,40,0,0
253685,-100,4,2,98,50,0,0
253956,535.714285714286,4,2,3,40,1,0
253956,-125,4,2,3,40,0,0
254223,-125,4,2,3,40,0,0
263063,-125,4,2,3,40,0,0
263331,-125,4,2,3,40,0,0
263866,-125,4,2,3,50,0,0
270831,-125,4,2,90,50,0,0
271098,-111.111111111111,4,2,90,55,0,0
278598,-111.111111111111,4,2,97,55,0,0
279402,-111.111111111111,4,2,3,55,0,0
279670,-111.111111111111,4,2,98,55,0,0
279938,-111.111111111111,4,2,90,55,0,0
283956,-111.111111111111,4,2,98,55,0,0
284223,-111.111111111111,4,2,90,55,0,0
287706,584.216591928252,4,2,97,60,1,8
287998,-100,4,2,3,60,0,8
288292,535.714285714286,4,2,98,65,1,1
288292,-74.0740740740741,4,2,98,65,0,1
288425,-100,4,2,90,60,0,0
292577,-74.0740740740741,4,2,1,65,0,1
292711,-100,4,2,90,60,0,0
295792,-100,4,2,97,60,0,0
296595,-100,4,2,3,60,0,0
296863,-74.0740740740741,4,2,98,65,0,1
296997,-100,4,2,90,60,0,0
301149,-74.0740740740741,4,2,1,65,0,1
301283,-100,4,2,90,60,0,0
304363,516.914285714286,4,2,98,60,1,8
304883,539.014285714287,4,2,90,60,1,8
304972,-100,4,2,90,5,0,0
305062,-100,4,2,90,60,0,0
305152,-100,4,2,90,5,0,0
305242,-100,4,2,90,60,0,0
305332,-100,4,2,90,5,0,0
305425,536.214285714286,4,2,5,65,1,1
322315,-100,4,2,5,65,0,0
322583,-100,4,2,5,65,0,1
339474,-100,4,2,5,65,0,0
339742,-100,4,2,5,65,0,1
356633,-100,4,2,5,65,0,0
356901,-100,4,2,5,65,0,1
372988,600.014285714286,4,2,5,60,1,9
373586,594.314285714286,4,2,5,50,1,9
374182,588.235294117647,4,2,3,20,1,0
374182,-200,4,2,3,20,0,0
375358,-200,4,2,3,20,0,0
375505,-200,4,2,3,20,0,0
375799,-200,4,2,3,5,0,0
375946,-200,4,2,3,20,0,0
380505,-200,4,2,3,5,0,0
380652,-200,4,2,3,20,0,0
383593,-200,4,2,96,20,0,0
384034,-200,4,2,3,5,0,0
384182,-200,4,2,3,20,0,0
384623,-200,4,2,3,5,0,0
384770,-200,4,2,3,20,0,0
385211,-200,4,2,3,5,0,0
385358,-200,4,2,3,20,0,0
385799,-200,4,2,3,5,0,0
385946,-200,4,2,3,20,0,0
392417,629.135294117647,4,2,3,25,1,8
393045,588.235294117647,4,2,1,25,1,0
393045,-250,4,2,1,25,0,0
394809,-250,4,2,1,5,0,0
394956,-250,4,2,1,25,0,0
399221,-250,4,2,1,5,0,0
399368,-250,4,2,1,25,0,0
399809,-250,4,2,1,5,0,0
400103,-250,4,2,1,25,0,0
401721,-250,4,2,1,5,0,0
401868,-250,4,2,1,25,0,0
402309,-250,4,2,1,5,0,0
402456,-250,4,2,1,25,0,0
403045,-250,4,2,1,5,0,0
403192,-250,4,2,1,5,0,0
403339,-250,4,2,1,25,0,0
404221,-250,4,2,1,5,0,0
404515,-250,4,2,1,25,0,0
406280,-250,4,2,1,5,0,0
406427,-250,4,2,1,25,0,0
406721,-250,4,2,1,5,0,0
406868,-250,4,2,1,25,0,0
407309,-250,4,2,1,5,0,0
407456,-250,4,2,1,25,0,0
407603,-250,4,2,1,5,0,0
408192,-250,4,2,1,5,0,0
409221,-250,4,2,1,5,0,0
409515,-250,4,2,1,25,0,0
411868,-250,4,2,1,25,0,0
425986,-500,4,2,1,15,0,0
430692,750,4,2,1,10,1,0
431442,773.395204949729,4,2,1,10,1,0
431442,-500,4,2,1,10,0,0
434535,-500,4,2,96,10,0,0

[Colours]
Combo1 : 136,136,238
Combo2 : 196,196,196
Combo3 : 64,121,255
Combo4 : 248,231,137
Combo5 : 177,124,231
Combo6 : 232,117,174

[HitObjects]
151,62,1527,54,0,P|228:71|253:96,1,82.5000031471254,0|0,0:0|0:0,0:0:0:0:
260,159,2109,2,0,L|258:298,1,123.750004720688,2|0,0:0|0:0,0:0:0:0:
190,348,2692,1,0,0:0:0:0:
148,256,2983,1,0,0:0:0:0:
66,349,3274,38,0,L|212:347,1,123.750004720688,2|0,0:0|0:0,0:0:0:0:
258,282,3857,1,0,0:0:0:0:
341,352,4148,1,0,0:0:0:0:
240,269,4439,1,2,0:0:0:0:
363,237,4730,6,0,P|367:181|313:116,1,123.750004720688,0|0,0:0|0:0,0:0:0:0:
239,102,5313,1,0,0:0:0:0:
145,154,5604,1,6,0:0:0:0:
79,80,5895,1,0,0:0:0:0:
154,166,6187,1,0,0:0:0:0:
61,236,6478,1,0,0:0:0:0:
131,323,6769,6,0,P|191:309|235:210,1,165,4|0,0:0|0:0,0:0:0:0:
142,69,7352,2,0,B|129:117|129:161|167:145|165:201|143:241,1,165,0|0,0:0|0:0,0:0:0:0:
227,110,7934,2,0,L|281:111,1,55,2|0,0:0|0:0,0:0:0:0:
374,194,8226,2,0,L|316:195,1,55,0|0,0:0|0:0,0:0:0:0:
430,124,8517,6,0,P|448:143|459:168,1,55,0|0,0:0|0:0,0:0:0:0:
366,57,8826,2,0,P|388:40|414:32,1,55,0|0,0:0|0:0,0:0:0:0:
264,27,9136,6,0,B|249:87|284:126|284:126|210:151|155:197|181:289|318:254|244:184,1,371.5,2|0,0:0|0:0,0:0:0:0:
4,112,11675,5,0,0:0:0:0:
4,276,11927,1,0,0:0:0:0:
88,80,12177,5,0,0:0:0:0:
88,80,12427,1,2,0:0:0:0:
88,244,12677,5,0,0:0:0:0:
170,48,12927,1,0,0:0:0:0:
170,48,13177,5,0,0:0:0:0:
172,212,13427,1,0,0:0:0:0:
254,7,13677,5,0,0:0:0:0:
256,172,13927,1,2,0:0:0:0:
256,172,14177,5,0,0:0:0:0:
334,45,14427,1,0,0:0:0:0:
334,45,14677,5,0,0:0:0:0:
332,208,14927,1,0,0:0:0:0:
424,80,15177,5,0,0:0:0:0:
424,244,15427,1,2,0:0:0:0:
424,244,15677,5,0,0:0:0:0:
506,124,15927,1,0,0:0:0:0:
504,288,16177,5,0,0:0:0:0:
504,288,16427,1,0,0:0:0:0:
504,288,16677,5,0,0:0:0:0:
506,124,16927,1,2,0:0:0:0:
424,244,17177,5,0,0:0:0:0:
424,80,17427,1,0,0:0:0:0:
256,227,17677,6,0,L|256:160,1,36.6666666666667
254,16,17944,1,0,0:0:0:0:
256,192,18217,12,0,23038,0:0:0:0:
144,296,23585,70,0,B|187:303|218:329|218:329|259:319|304:328,2,165.000006294251
232,208,24954,1,0,0:0:0:0:
56,128,25227,2,0,B|56:156|56:156|75:206,1,82.5000031471254
125,62,25775,2,0,P|204:64|248:130,1,165.000006294251
304,364,26870,1,0,0:0:0:0:
252,252,27143,1,0,0:0:0:0:
413,290,27417,6,0,B|387:222|408:174|442:195|456:108|405:57,1,247.500009441376,2|0,0:0|0:0,0:0:0:0:
328,132,28512,1,0,0:0:0:0:
191,207,28885,2,0,P|175:155|180:101,1,110.000004196167,0|0,0:0|0:0,0:0:0:0:
121,281,29633,2,0,B|180:328|248:292|248:292|296:312|296:312|369:280|433:310,1,330.000012588501,2|0,0:0|0:0,0:0:0:0:
348,128,31092,1,0,0:0:0:0:
340,228,31355,1,0,0:0:0:0:
276,60,31620,54,0,P|234:50|187:62,1,82.5000031471254,2|0,0:0|0:0,0:0:0:0:
79,163,32153,2,0,P|155:191|232:166,1,165.000006294251
64,36,33220,1,2,0:0:0:0:
68,252,33753,1,0,0:0:0:0:
68,252,34286,1,2,0:0:0:0:
132,164,34553,1,0,0:0:0:0:
304,96,34820,1,0,0:0:0:0:
304,96,35353,1,0,0:0:0:0:
196,92,35620,1,0,0:0:0:0:
411,98,35886,6,0,B|412:135|394:160|394:160|446:234|417:294|383:328,1,247.500009441376,2|0,0:0|0:0,0:0:0:0:
303,236,36953,6,0,P|263:244|223:237,1,82.5000031471254,2|0,0:0|0:0,0:0:0:0:
180,160,37353,54,0,B|224:140|264:160|264:160|300:160,1,123.750004720688,0|0,0:0|0:0,0:0:0:0:
484,60,38020,6,0,B|404:88|347:53|347:53|279:87|279:87|228:64|170:87,1,330,2|0,0:0|0:0,0:0:0:0:
370,292,40589,6,0,P|327:285|284:292,1,88
468,343,41122,2,0,P|475:300|468:257,1,88,0|0,0:0|0:0,0:0:0:0:
305,182,41656,2,0,P|348:175|391:183,1,88,0|2,0:0|0:0,0:0:0:0:
282,291,42189,54,0,P|226:260|200:200,1,132
92,216,42722,2,0,P|101:258|124:295,1,88
248,336,43256,1,0,0:0:0:0:
248,336,43789,1,0,0:0:0:0:
220,208,44056,1,2,0:0:0:0:
397,353,44322,6,0,B|376:300|381:255|411:277|428:231|406:189|406:189|385:236|339:255,1,264
276,128,45389,2,0,P|238:74|240:9,1,132,0|0,0:0|0:0,0:0:0:0:
406,190,46189,1,2,0:0:0:0:
148,336,46722,2,0,P|26:284|156:261,1,352
275,315,48055,1,0,0:0:0:0:
392,296,48322,1,2,0:0:0:0:
388,160,48589,6,0,L|392:72,1,88
280,228,49122,2,0,L|276:315,1,88,0|0,0:0|0:0,0:0:0:0:
204,152,49655,2,0,L|207:20,1,132,0|0,0:0|0:0,0:0:0:0:
136,40,50189,2,0,L|133:127,1,88,0|2,0:0|0:0,0:0:0:0:
32,252,50722,2,0,P|75:259|119:257,1,88,0|0,0:0|0:0,0:0:0:0:
284,264,51255,1,0,0:0:0:0:
204,152,51522,1,0,0:0:0:0:
360,311,51789,2,0,P|368:268|360:225,1,88
204,152,52322,1,0,0:0:0:0:
328,96,52589,1,2,0:0:0:0:
282,264,52855,54,0,P|205:235|204:152,1,176
408,152,53655,1,0,0:0:0:0:
279,63,53922,2,0,P|236:56|193:63,1,88,0|0,0:0|0:0,0:0:0:0:
132,128,54322,2,0,P|88:135|45:127,1,88,0|0,0:0|0:0,0:0:0:0:
0,49,54722,1,2,0:0:0:0:
56,220,54989,2,0,B|128:240|184:204|184:204|184:246,1,176,0|0,0:0|0:0,0:0:0:0:
116,52,55789,1,0,0:0:0:0:
304,68,56055,2,0,P|320:131|304:194,1,132,0|4,0:0|0:0,0:0:0:0:
184,246,56595,1,0,0:0:0:0:
216,132,56880,1,4,0:0:0:0:
371,302,57165,6,0,P|397:283|415:255,1,65.9999979858399,4|0,0:0|0:0,0:0:0:0:
424,236,57432,1,2,0:0:0:0:
429,214,57522,1,2,0:0:0:0:
433,192,57611,1,2,0:0:0:0:
435,171,57700,1,2,0:0:0:0:
304,56,57968,2,0,P|256:44|207:54,1,98.9999969787599,8|0,0:0|0:0,0:0:0:0:
148,168,58504,1,0,0:0:0:0:
36,32,58772,2,0,P|24:79|34:127,1,98.9999969787599,4|0,0:0|0:0,0:0:0:0:
176,311,59307,6,0,P|208:307|241:313,1,65.9999979858399,4|0,0:0|0:0,0:0:0:0:
260,324,59575,1,2,0:0:0:0:
284,332,59665,1,2,0:0:0:0:
306,333,59754,1,2,0:0:0:0:
327,327,59843,1,2,0:0:0:0:
428,228,60111,1,8,0:0:0:0:
347,135,60379,2,0,P|299:127|250:135,1,98.9999969787599,0|0,0:0|0:0,0:0:0:0:
132,284,60915,1,4,0:0:0:0:
268,260,61182,1,0,0:0:0:0:
55,148,61450,54,0,P|47:179|54:211,1,65.9999979858399,4|0,0:0|0:0,0:0:0:0:
72,228,61718,1,2,0:0:0:0:
80,248,61807,1,2,0:0:0:0:
80,272,61896,1,2,0:0:0:0:
72,292,61985,1,2,0:0:0:0:
192,336,62254,1,8,0:0:0:0:
196,175,62522,2,0,P|244:167|293:175,1,98.9999969787599,0|0,0:0|0:0,0:0:0:0:
412,224,63057,1,4,0:0:0:0:
408,84,63325,1,0,0:0:0:0:
196,175,63593,6,0,L|196:241,1,65.9999979858399,4|0,0:0|0:0,0:0:0:0:
212,256,63861,1,2,0:0:0:0:
212,278,63950,1,2,0:0:0:0:
212,300,64040,1,2,0:0:0:0:
212,322,64129,1,2,0:0:0:0:
320,352,64397,1,8,0:0:0:0:
140,292,64665,2,0,P|92:284|43:292,1,98.9999969787599,0|0,0:0|0:0,0:0:0:0:
204,212,65200,1,4,0:0:0:0:
152,52,65468,1,0,0:0:0:0:
304,248,65736,6,0,P|335:256|367:249,1,65.9999979858399,6|0,0:0|0:0,0:0:0:0:
388,244,66004,1,2,0:0:0:0:
410,237,66093,1,2,0:0:0:0:
432,238,66182,1,2,0:0:0:0:
456,244,66272,1,2,0:0:0:0:
256,128,66540,2,0,P|232:85|233:36,1,98.9999969787599,8|0,0:0|0:0,0:0:0:0:
372,152,67075,1,0,0:0:0:0:
344,304,67343,1,4,0:0:0:0:
200,236,67611,1,0,0:0:0:0:
424,340,67879,54,0,P|428:308|424:275,1,65.9999979858399,4|0,0:0|0:0,0:0:0:0:
412,252,68147,1,2,0:0:0:0:
408,230,68236,1,2,0:0:0:0:
408,208,68325,1,2,0:0:0:0:
413,186,68415,1,2,0:0:0:0:
500,304,68682,1,8,0:0:0:0:
461,90,68950,2,0,P|411:86|365:102,1,98.9999969787599,0|0,0:0|0:0,0:0:0:0:
260,220,69486,1,4,0:0:0:0:
152,104,69754,1,0,0:0:0:0:
358,38,70022,6,0,P|367:70|365:103,1,65.9999979858399,4|0,0:0|0:0,0:0:0:0:
347,120,70290,1,2,0:0:0:0:
342,141,70379,1,2,0:0:0:0:
342,163,70468,1,2,0:0:0:0:
346,184,70557,1,2,0:0:0:0:
436,276,70825,1,8,0:0:0:0:
224,332,71093,2,0,P|175:328|126:332,1,98.9999969787599,0|0,0:0|0:0,0:0:0:0:
92,304,71495,2,0,P|85:271|84:248,1,49.4999984893799,0|4,0:0|0:0,0:0:0:0:
180,152,71897,1,0,0:0:0:0:
292,360,72165,6,0,P|324:363|357:361,1,65.9999979858399,4|0,0:0|0:0,0:0:0:0:
380,356,72432,1,2,0:0:0:0:
402,353,72522,1,2,0:0:0:0:
424,353,72611,1,2,0:0:0:0:
444,364,72700,1,2,0:0:0:0:
512,196,72968,2,0,L|492:222,2,32.99999899292,2|2|2,0:0|0:0|0:0,0:0:0:0:
436,126,73236,2,0,L|432:158,2,32.99999899292,2|2|2,0:0|0:0|0:0,0:0:0:0:
340,162,73504,2,0,L|353:192,2,32.99999899292,2|2|2,0:0|0:0|0:0,0:0:0:0:
316,32,73772,53,2,0:0:0:0:
286,17,73861,1,2,0:0:0:0:
253,11,73950,1,2,0:0:0:0:
221,14,74040,1,2,0:0:0:0:
190,26,74129,1,2,0:0:0:0:
160,44,74218,1,2,0:0:0:0:
131,82,74307,38,0,P|118:149|146:192,1,110,6|10,0:0|0:0,0:0:0:0:
204,130,74843,1,8,0:0:0:0:
44,179,75111,2,0,P|57:233|108:272,1,110,6|0,0:0|0:0,0:0:0:0:
194,258,75647,1,10,0:0:0:0:
136,181,75915,1,0,0:0:0:0:
156,343,76182,1,0,0:0:0:0:
274,214,76450,21,10,0:0:0:0:
194,258,76718,1,10,0:0:0:0:
334,284,76986,1,8,0:0:0:0:
219,138,77254,2,0,P|233:86|279:59,2,110,4|0|10,0:0|0:0|0:0,0:0:0:0:
274,214,78057,1,0,0:0:0:0:
367,70,78325,1,2,0:0:0:0:
389,83,78415,1,2,0:0:0:0:
410,96,78504,1,2,0:0:0:0:
448,120,78593,70,0,L|436:248,1,110,6|10,0:0|0:0,0:0:0:0:
450,306,79129,1,8,0:0:0:0:
286,253,79397,2,0,P|227:243|158:289,1,110,6|0,0:0|0:0,0:0:0:0:
241,334,79932,1,10,0:0:0:0:
361,267,80200,1,0,0:0:0:0:
238,154,80468,1,0,0:0:0:0:
387,62,80736,69,10,0:0:0:0:
238,154,81004,1,10,0:0:0:0:
246,0,81272,1,8,0:0:0:0:
370,196,81540,2,0,P|389:246|378:315,2,110,4|0|10,0:0|0:0|0:0,0:0:0:0:
238,154,82343,1,0,0:0:0:0:
85,224,82611,1,2,0:0:0:0:
70,203,82700,1,2,0:0:0:0:
53,182,82790,1,2,0:0:0:0:
38,160,82879,22,0,L|46:35,1,110,4|10,0:0|0:0,0:0:0:0:
161,49,83415,1,8,0:0:0:0:
163,153,83682,1,6,0:0:0:0:
163,153,83950,1,0,0:0:0:0:
251,79,84218,1,10,0:0:0:0:
166,171,84486,1,0,0:0:0:0:
277,171,84754,1,4,0:0:0:0:
216,294,85022,70,0,P|268:314|324:302,1,110,10|10,0:0|0:0,0:0:0:0:
384,212,85557,1,8,0:0:0:0:
327,307,85825,1,6,0:0:0:0:
381,181,86093,1,0,0:0:0:0:
442,288,86361,1,10,0:0:0:0:
380,145,86629,1,0,0:0:0:0:
489,191,86897,1,4,0:0:0:0:
260,178,87165,70,0,L|118:179,1,110,10|10,0:0|0:0,0:0:0:0:
171,41,87700,1,8,0:0:0:0:
71,105,87968,1,6,0:0:0:0:
71,105,88236,1,0,0:0:0:0:
150,178,88504,1,10,0:0:0:0:
51,101,88772,1,0,0:0:0:0:
24,225,89040,1,4,0:0:0:0:
166,290,89307,22,0,P|219:304|273:293,1,110,10|10,0:0|0:0,0:0:0:0:
305,152,89843,1,8,0:0:0:0:
414,237,90111,1,4,0:0:0:0:
426,214,90200,1,0,0:0:0:0:
428,188,90290,1,0,0:0:0:0:
427,161,90379,2,0,L|469:141,5,36.6666666666667,2|2|2|2|2|2,0:0|0:0|0:0|0:0|0:0|0:0,0:0:0:0:
396,88,90915,69,2,0:0:0:0:
379,73,91004,1,2,0:0:0:0:
360,62,91093,1,2,0:0:0:0:
339,55,91182,1,2,0:0:0:0:
317,52,91272,1,2,0:0:0:0:
296,54,91361,1,2,0:0:0:0:
254,77,91450,70,0,P|230:92|203:98,1,55,4|0,0:0|0:0,0:0:0:0:
24,67,91986,2,0,P|72:40|133:45,1,110,0|0,0:0|0:0,0:0:0:0:
93,129,92790,1,0,0:0:0:0:
27,203,93057,2,0,P|17:242|26:282,1,82.5,0|0,0:0|0:0,0:0:0:0:
94,324,93593,22,0,B|138:303|178:308|161:344|221:339|270:319,1,165,0|0,0:0|0:0,0:0:0:0:
280,310,94541,1,0,0:0:0:0:
375,366,94701,69,0,0:0:0:0:
288,136,95035,69,0,0:0:0:0:
496,365,95327,21,4,0:0:0:0:
451,208,95711,69,0,0:0:0:0:
464,197,96139,70,0,L|462:79,1,110,4|8,0:0|0:0,0:0:0:0:
264,67,96740,2,0,P|274:120|317:151,1,110,4|4,0:0|0:0,0:0:0:0:
348,75,97341,1,8,0:0:0:0:
196,11,97641,1,4,0:0:0:0:
221,190,97942,1,8,0:0:0:0:
264,68,98242,1,4,0:0:0:0:
115,94,98543,22,0,L|-10:87,1,110,12|8,0:0|0:0,0:0:0:0:
120,189,99144,2,0,P|166:177|203:118,1,110,4|4,0:0|0:0,0:0:0:0:
34,189,99745,2,0,P|47:242|91:272,1,110,0|4,0:0|0:0,0:0:0:0:
120,189,100346,1,4,0:0:0:0:
33,341,100646,1,4,0:0:0:0:
209,218,100947,70,0,L|325:215,1,110,4|8,0:0|0:0,0:0:0:0:
414,195,101548,1,4,0:0:0:0:
375,300,101848,1,4,0:0:0:0:
414,195,102149,2,0,L|416:85,1,110,0|8,0:0|0:0,0:0:0:0:
296,49,102750,2,0,P|243:64|204:101,1,110,0|8,0:0|0:0,0:0:0:0:
44,215,103351,70,0,P|97:208|146:233,1,110,8|8,0:0|0:0,0:0:0:0:
211,319,103952,1,4,0:0:0:0:
130,384,104252,1,4,0:0:0:0:
146,233,104553,2,0,P|143:179|115:133,1,110,0|8,0:0|0:0,0:0:0:0:
14,95,105154,1,4,0:0:0:0:
91,22,105454,1,4,0:0:0:0:
318,87,105755,22,0,L|427:75,1,110,4|8,0:0|0:0,0:0:0:0:
255,18,106356,2,0,P|224:63|227:117,1,110,4|4,0:0|0:0,0:0:0:0:
391,177,106957,1,0,0:0:0:0:
318,87,107257,1,8,0:0:0:0:
320,266,107558,1,0,0:0:0:0:
391,177,107858,1,8,0:0:0:0:
221,212,108159,70,0,L|91:229,1,110,8|8,0:0|0:0,0:0:0:0:
3,324,108760,2,0,L|111:339,1,110,4|4,0:0|0:0,0:0:0:0:
196,180,109361,1,0,0:0:0:0:
214,360,109661,1,8,0:0:0:0:
112,340,109962,1,4,0:0:0:0:
312,384,110263,1,4,0:0:0:0:
100,237,110563,70,0,P|60:199|52:146,1,110,4|8,0:0|0:0,0:0:0:0:
156,50,111164,2,0,L|135:158,1,110,4|4,0:0|0:0,0:0:0:0:
183,285,111765,1,0,0:0:0:0:
269,107,112066,1,8,0:0:0:0:
220,200,112366,1,0,0:0:0:0:
225,18,112667,1,8,0:0:0:0:
269,107,112967,22,0,P|324:105|376:124,1,110
436,236,113598,2,0,L|320:228,1,110
290,341,114230,2,0,L|180:343,1,110,2|0,0:0|0:0,0:0:0:0:
75,213,114941,69,0,0:0:0:0:
60,177,115325,69,0,0:0:0:0:
68,72,115714,22,0,L|16:53,2,55,4|0|0,0:0|0:0|0:0,0:0:0:0:
176,28,116221,70,0,P|238:9|300:27,1,131.99999597168
352,256,117255,2,0,P|364:192|342:127,1,131.99999597168,0|0,0:0|0:0,0:0:0:0:
252,208,118031,70,0,L|236:208,1,16.49999949646
235,208,118663,2,0,P|170:220|107:205,1,131.99999597168,0|0,0:0|0:0,0:0:0:0:
320,156,119508,2,0,P|332:209|328:252,1,88,0|0,0:0|0:0,0:0:0:0:
227,96,120134,22,0,P|267:59|321:50,1,110
325,255,121020,1,0,0:0:0:0:
316,261,121565,2,0,P|251:274|187:262,1,131.99999597168,0|0,0:0|0:0,0:0:0:0:
48,120,122485,2,0,B|52:172|52:172|24:216|38:269,1,153.999995300293,0|0,0:0|0:0,0:0:0:0:
216,184,123323,2,0,P|206:215|187:242,1,65.9999979858399
320,120,123914,2,0,P|328:168|316:216,1,98.9999969787599
476,312,125017,70,0,L|492:328,2,21.9999993286133
404,276,125289,2,0,B|312:324|236:275|236:275|252:320|227:358,1,263.99999194336,0|0,0:0|0:0,0:0:0:0:
120,204,126768,2,0,P|100:153|110:106,2,82.5000031471254
56,56,127888,70,0,B|112:68|112:68|152:57,1,98.9999969787599,0|0,0:0|0:0,0:0:0:0:
244,40,128524,2,0,B|300:28|300:28|340:38,1,98.9999969787599,0|0,0:0|0:0,0:0:0:0:
420,80,129069,2,0,B|408:124|408:124|419:176,1,98.9999969787599,0|0,0:0|0:0,0:0:0:0:
364,248,129614,2,0,B|324:236|324:236|267:245,1,98.9999969787599,0|0,0:0|0:0,0:0:0:0:
196,312,130160,2,0,B|128:332|128:332|68:317,1,131.99999597168,0|0,0:0|0:0,0:0:0:0:
36,232,130935,22,0,L|3:203,2,36.6666666666667
76,220,131236,2,0,P|137:199|197:224,1,131.99999597168,0|0,0:0|0:0,0:0:0:0:
280,8,132431,1,0,0:0:0:0:
123,52,132825,2,0,L|95:52,2,27.5,4|0|0,0:0|0:0|0:0,0:0:0:0:
208,56,133171,70,0,B|244:88|320:80|320:80|248:104|220:150,1,241.999992614746
124,168,134171,70,0,B|137:213|182:272|296:232|296:232|288:280|312:316|312:316|276:308|246:315,1,362.99998892212
68,360,135796,1,0,0:0:0:0:
68,359,135921,2,0,P|83:313|70:267,1,98.9999969787599
36,196,136421,22,0,B|53:153|36:124|36:124|68:80|120:80|120:80|160:56|189:59,1,247.4999924469
224,132,137754,70,0,P|238:161|263:182,1,65.9999979858399
306,112,138190,70,0,P|413:112|436:216,1,230.99999295044,0|0,0:0|0:0,0:0:0:0:
260,348,139700,1,0,0:0:0:0:
244,337,139763,22,0,B|180:293|104:336|104:336|157:235|71:172|71:172|160:144|156:68|156:68|198:98|248:128|323:94,1,660
392,45,142356,70,0,P|407:91|393:138,1,98.9999969787599
404,232,142956,70,0,B|331:230|313:168|313:168|280:222|207:214,1,242.000007385254
108,160,144520,1,0,0:0:0:0:
196,332,144852,22,0,L|203:249,1,82.4999974822999
352,384,145446,2,0,L|359:301,1,82.5,0|0,0:0|0:0,0:0:0:0:
364,244,145900,70,0,B|332:208|284:212|284:212|248:152|176:168|176:168|196:120|176:80|176:80|220:80|235:54,1,373.999988586426
172,4,147478,70,0,B|104:20|100:88|100:88|128:128|96:160|96:160|107:193,1,230.99999295044
92,328,148515,22,0,L|92:349,5,21.9999993286133,2|2|2|2|2|2,0:0|0:0|0:0|0:0|0:0|0:0,0:0:0:0:
36,228,149121,70,0,L|0:236,5,36.6666666666667
112,136,149656,69,2,0:0:0:0:
148,112,149746,1,2,0:0:0:0:
188,100,149835,1,2,0:0:0:0:
276,160,149927,22,0,P|322:158|374:115,1,110,4|10,0:0|0:0,0:0:0:0:
288,55,150462,1,0,0:0:0:0:
213,232,150730,1,6,0:0:0:0:
333,251,150998,2,0,L|329:367,2,110,0|10|0,0:0|0:0|0:0,0:0:0:0:
213,232,151802,2,0,L|163:255,2,36.6666666666667
223,216,152069,70,0,P|212:162|247:105,1,110,10|10,0:0|0:0,0:0:0:0:
327,49,152605,1,0,0:0:0:0:
333,251,152873,1,6,0:0:0:0:
333,251,153141,2,0,L|457:253,2,110,0|10|0,0:0|0:0|0:0,0:0:0:0:
387,147,153944,1,0,0:0:0:0:
96,313,154212,70,0,P|73:255|124:175,1,121.000003692627,4|10,0:0|0:0,0:0:0:0:
164,105,154614,1,0,0:0:0:0:
188,87,154748,2,0,L|320:87,1,121.000003692627,0|6,0:0|0:0,0:0:0:0:
409,126,155150,1,0,0:0:0:0:
387,147,155284,2,0,P|376:235|404:271,1,121.000003692627,0|10,0:0|0:0,0:0:0:0:
466,349,155685,1,0,0:0:0:0:
438,360,155819,2,0,L|299:351,1,121.000003692627,0|0,0:0|0:0,0:0:0:0:
296,350,156177,1,0,0:0:0:0:
275,348,156266,1,0,0:0:0:0:
254,346,156355,22,0,L|115:337,1,121.000003692627,10|10,0:0|0:0,0:0:0:0:
84,238,156757,1,0,0:0:0:0:
108,220,156891,2,0,P|143:150|115:88,1,121.000003692627,0|6,0:0|0:0,0:0:0:0:
37,163,157293,1,0,0:0:0:0:
15,184,157427,2,0,P|-5:255|29:306,1,121.000003692627,0|10,0:0|0:0,0:0:0:0:
170,307,157962,1,0,0:0:0:0:
139,110,158230,1,0,0:0:0:0:
124,83,158364,1,0,0:0:0:0:
130,53,158498,70,0,L|286:53,1,121.000003692627,10|10,0:0|0:0,0:0:0:0:
368,96,158900,1,0,0:0:0:0:
389,117,159034,2,0,P|416:209|388:261,1,121.000003692627,0|6,0:0|0:0,0:0:0:0:
299,241,159435,1,0,0:0:0:0:
277,262,159569,2,0,P|250:354|278:406,1,121.000003692627,0|10,0:0|0:0,0:0:0:0:
356,335,159971,1,0,0:0:0:0:
374,358,160105,2,0,P|462:363|499:331,1,121.000003692627,0|0,0:0|0:0,0:0:0:0:
500,328,160462,1,0,0:0:0:0:
506,312,160552,1,0,0:0:0:0:
501,292,160641,70,0,P|488:256|430:211,1,60.5000018463135,10|0,0:0|0:0,0:0:0:0:
321,113,160909,1,10,0:0:0:0:
383,249,161177,1,0,0:0:0:0:
445,105,161444,1,6,0:0:0:0:
273,273,161712,2,0,P|214:282|108:202,1,181.500005538941,8|0,0:0|0:0,0:0:0:0:
95,185,162248,1,8,0:0:0:0:
268,178,162516,1,2,0:0:0:0:
297,183,162650,1,0,0:0:0:0:
363,230,162784,22,0,P|402:307|388:352,1,121.000003692627,4|10,0:0|0:0,0:0:0:0:
263,354,163185,1,0,0:0:0:0:
233,360,163319,2,0,L|82:348,1,121.000003692627,0|6,0:0|0:0,0:0:0:0:
63,259,163721,1,0,0:0:0:0:
85,239,163855,2,0,P|125:173|111:133,1,121.000003692627,0|10,0:0|0:0,0:0:0:0:
42,48,164257,1,0,0:0:0:0:
63,26,164391,2,0,L|206:31,1,121.000003692627,0|0,0:0|0:0,0:0:0:0:
264,91,164793,1,0,0:0:0:0:
284,113,164927,70,0,P|316:185|282:253,2,121.000003692627,10|10|0,0:0|0:0|0:0,0:0:0:0:
231,267,165730,1,6,0:0:0:0:
251,290,165864,1,0,0:0:0:0:
277,304,165998,2,0,P|294:309|350:299,1,60.5000018463135,0|0,0:0|0:0,0:0:0:0:
451,242,166266,2,0,P|434:237|378:247,1,60.5000018463135,10|0,0:0|0:0,0:0:0:0:
221,162,166534,2,0,P|242:103|327:66,1,121.000003692627,0|0,0:0|0:0,0:0:0:0:
417,111,166935,1,0,0:0:0:0:
451,121,167069,70,0,L|450:271,1,121.000003692627,10|10,0:0|0:0,0:0:0:0:
422,336,167471,1,0,0:0:0:0:
389,320,167605,2,0,P|303:307|257:325,1,121.000003692627,0|6,0:0|0:0,0:0:0:0:
182,345,168007,1,0,0:0:0:0:
149,361,168141,2,0,P|63:374|17:356,2,121.000003692627,0|10|0,0:0|0:0|0:0,0:0:0:0:
146,229,168944,1,0,0:0:0:0:
141,209,169034,1,0,0:0:0:0:
133,190,169123,1,0,0:0:0:0:
130,170,169212,22,0,P|186:116|243:123,1,121.000003692627,10|10,0:0|0:0,0:0:0:0:
360,137,169614,1,0,0:0:0:0:
393,121,169748,2,0,L|482:116,1,60.5000018463135,0|0,0:0|0:0,0:0:0:0:
388,218,170016,2,0,L|299:213,1,60.5000018463135,6|0,0:0|0:0,0:0:0:0:
206,207,170284,1,0,0:0:0:0:
169,207,170418,1,0,0:0:0:0:
132,207,170552,1,10,0:0:0:0:
316,267,170819,5,2,0:0:0:0:
323,250,170908,1,2,0:0:0:0:
327,232,170997,1,2,0:0:0:0:
327,214,171086,1,2,0:0:0:0:
323,196,171176,1,2,0:0:0:0:
315,179,171265,1,2,0:0:0:0:
258,129,171355,6,0,P|271:60|328:34,1,110,4|10,0:0|0:0,0:0:0:0:
467,131,171757,1,0,0:0:0:0:
485,164,171891,2,0,L|478:299,1,110,0|6,0:0|0:0,0:0:0:0:
376,339,172293,1,0,0:0:0:0:
341,355,172427,1,0,0:0:0:0:
138,149,172694,2,0,L|131:217,1,55,10|0,0:0|0:0,0:0:0:0:
233,127,172962,2,0,L|227:72,1,55,0|0,0:0|0:0,0:0:0:0:
319,163,173230,2,0,L|312:231,1,55,0|0,0:0|0:0,0:0:0:0:
292,328,173498,70,0,P|235:347|161:310,1,110,10|10,0:0|0:0,0:0:0:0:
111,263,173900,1,0,0:0:0:0:
94,228,174034,2,0,P|103:153|53:103,1,110,0|6,0:0|0:0,0:0:0:0:
3,48,174435,1,0,0:0:0:0:
27,18,174569,2,0,L|115:19,2,55,0|0|10,0:0|0:0|0:0,0:0:0:0:
183,122,175105,2,0,P|222:68|222:50,1,55,0|0,0:0|0:0,0:0:0:0:
329,69,175373,2,0,P|290:15|290:-3,1,55,0|0,0:0|0:0,0:0:0:0:
414,120,175641,22,0,P|360:159|276:147,1,110,10|10,0:0|0:0,0:0:0:0:
208,151,176043,1,0,0:0:0:0:
172,167,176177,1,0,0:0:0:0:
266,310,176444,2,0,P|279:285|283:258,1,55,6|0,0:0|0:0,0:0:0:0:
146,246,176712,2,0,P|100:217|85:165,1,110,0|10,0:0|0:0,0:0:0:0:
187,115,177114,2,0,P|172:166|146:186,2,55,0|0|0,0:0|0:0|0:0,0:0:0:0:
123,57,177516,2,0,P|169:30|204:37,1,55,0|0,0:0|0:0,0:0:0:0:
326,38,177784,70,0,P|385:68|445:53,1,110,10|10,0:0|0:0,0:0:0:0:
508,132,178185,1,0,0:0:0:0:
487,164,178319,2,0,L|500:291,1,110,0|6,0:0|0:0,0:0:0:0:
412,332,178721,1,0,0:0:0:0:
429,366,178855,2,0,L|491:374,1,55,0|0,0:0|0:0,0:0:0:0:
498,273,179123,1,10,0:0:0:0:
344,205,179391,2,0,L|338:291,1,55,0|0,0:0|0:0,0:0:0:0:
237,329,179659,2,0,L|233:274,1,55,0|0,0:0|0:0,0:0:0:0:
237,44,179927,70,0,L|219:193,1,110,4|10,0:0|0:0,0:0:0:0:
157,225,180328,1,0,0:0:0:0:
128,250,180462,2,0,P|66:256|8:222,1,110,0|6,0:0|0:0,0:0:0:0:
23,112,180864,1,0,0:0:0:0:
34,75,180998,1,0,0:0:0:0:
234,64,181266,2,0,L|222:152,1,55,10|0,0:0|0:0,0:0:0:0:
324,65,181534,2,0,L|316:10,1,55,0|0,0:0|0:0,0:0:0:0:
410,83,181802,2,0,L|402:137,1,55,0|0,0:0|0:0,0:0:0:0:
348,302,182069,22,0,P|353:219|305:180,1,110,10|10,0:0|0:0,0:0:0:0:
207,199,182471,1,0,0:0:0:0:
185,229,182605,2,0,P|166:249|141:261,1,55,0|0,0:0|0:0,0:0:0:0:
28,291,182873,2,0,P|40:266|61:249,1,55,6|0,0:0|0:0,0:0:0:0:
73,151,183141,2,0,P|98:162|117:182,1,55,0|0,0:0|0:0,0:0:0:0:
98,333,183409,1,10,0:0:0:0:
261,197,183677,2,0,L|181:199,1,55,0|0,0:0|0:0,0:0:0:0:
318,276,183944,2,0,L|398:278,1,55,0|0,0:0|0:0,0:0:0:0:
413,31,184212,69,4,0:0:0:0:
267,220,184480,1,0,0:0:0:0:
105,17,184748,2,0,B|52:62|80:173|155:173|203:160|203:160|175:195|161:254|229:305,1,385,4|0,0:0|0:0,0:0:0:0:
377,228,185819,2,0,L|258:220,1,110,4|0,0:0|0:0,0:0:0:0:
170,78,186355,70,0,L|218:71,2,36.6666666666667,4|2|2,0:0|0:0|0:0,0:0:0:0:
102,120,186635,2,0,L|54:113,2,36.6666666666667,2|2|2,0:0|0:0|0:0,0:0:0:0:
170,168,186915,2,0,L|218:161,2,36.6666666666667,2|2|2,0:0|0:0|0:0,0:0:0:0:
65,236,187221,54,0,L|17:229,2,36.6666666666667,2|2|2,0:0|0:0|0:0,0:0:0:0:
152,288,187527,2,0,L|200:281,1,36.6666666666667,2|2,0:0|0:0,0:0:0:0:
69,341,187731,2,0,L|21:334,1,36.6666666666667,2|2,0:0|0:0,0:0:0:0:
178,375,187946,70,0,L|244:368,1,36.6666666666667,2|2,0:0|0:0,0:0:0:0:
300,344,188161,1,0,0:0:0:0:
327,332,188269,1,2,0:0:0:0:
346,315,188378,1,0,0:0:0:0:
360,294,188487,1,2,0:0:0:0:
366,269,188596,1,2,0:0:0:0:
364,235,188705,22,0,B|368:191|420:155|420:155|368:143|320:151|320:151|344:104|322:47,1,308,4|0,0:0|0:0,0:0:0:0:
236,96,189816,2,0,B|152:100|100:32|100:32|108:116|39:161,1,308,0|0,0:0|0:0,0:0:0:0:
16,256,190927,70,0,B|87:268|126:208|126:208|168:232|214:222,1,220
264,300,191760,1,0,0:0:0:0:
264,300,192038,2,0,B|308:264|304:212|304:212|328:232|328:232|371:239,1,176,0|0,0:0|0:0,0:0:0:0:
208,220,192871,1,0,0:0:0:0:
396,72,193149,70,0,B|349:57|349:57|308:56,1,88,4|0,0:0|0:0,0:0:0:0:
188,60,193705,1,0,0:0:0:0:
252,164,193982,1,0,0:0:0:0:
144,60,194260,2,0,B|80:72|80:72|14:61,1,132,0|0,0:0|0:0,0:0:0:0:
16,152,194816,2,0,B|81:162|81:162|145:150,1,132,0|0,0:0|0:0,0:0:0:0:
312,88,195371,21,0,0:0:0:0:
144,60,195649,1,0,0:0:0:0:
191,267,195927,2,0,P|204:312|196:356,1,88,0|0,0:0|0:0,0:0:0:0:
24,240,196482,70,0,L|6:263,5,29.3333333333333,2|2|2|2|2|2,0:0|0:0|0:0|0:0|0:0|0:0,0:0:0:0:
84,172,197038,69,2,0:0:0:0:
111,181,197130,1,2,0:0:0:0:
139,190,197223,1,2,0:0:0:0:
167,192,197315,1,2,0:0:0:0:
195,182,197408,1,2,0:0:0:0:
223,173,197500,1,2,0:0:0:0:
308,156,197593,22,0,B|355:153|412:196|412:196|418:125|448:76|448:76|427:122|384:121,1,308,4|0,0:0|0:0,0:0:0:0:
364,40,198705,2,0,B|318:19|283:17|237:48|208:44|155:21|155:21|161:78|112:107,1,308
63,28,199816,70,0,P|23:102|62:177,1,176
163,155,200510,2,0,P|180:141|200:131,1,44,0|0,0:0|0:0,0:0:0:0:
199,131,200927,2,0,B|255:107|299:131|299:131|299:91|299:91|312:61,1,176
248,216,201760,1,0,0:0:0:0:
383,350,202038,70,0,B|407:314|407:314|407:182,1,176,4|0,0:0|0:0,0:0:0:0:
336,7,202871,1,0,0:0:0:0:
287,179,203149,1,0,0:0:0:0:
430,72,203427,1,0,0:0:0:0:
245,76,203705,2,0,P|181:93|118:76,1,132,0|0,0:0|0:0,0:0:0:0:
72,16,204260,22,0,B|73:158|73:158|128:184|137:255,1,264
132,352,205279,70,0,L|102:352,6,29.3333333333333,2|2|2|2|2|2|2,0:0|0:0|0:0|0:0|0:0|0:0|0:0,0:0:0:0:
220,296,205927,69,2,0:0:0:0:
252,284,206019,1,2,0:0:0:0:
284,272,206112,1,2,0:0:0:0:
320,272,206205,1,2,0:0:0:0:
360,288,206297,1,2,0:0:0:0:
400,304,206390,1,2,0:0:0:0:
484,304,206482,22,0,P|500:252|487:199,1,110,4|10,0:0|0:0,0:0:0:0:
400,40,207038,1,0,0:0:0:0:
344,196,207316,1,6,0:0:0:0:
248,44,207593,2,0,P|193:52|139:44,1,110,0|10,0:0|0:0,0:0:0:0:
288,120,208149,1,0,0:0:0:0:
136,180,208427,1,0,0:0:0:0:
300,336,208705,6,0,B|308:280|308:280|296:227,1,110,10|10,0:0|0:0,0:0:0:0:
192,100,209260,1,0,0:0:0:0:
192,264,209538,1,6,0:0:0:0:
316,112,209816,2,0,P|389:84|441:141,1,165,0|0,0:0|0:0,0:0:0:0:
408,232,210371,2,0,P|397:257|393:284,1,55,0|0,0:0|0:0,0:0:0:0:
480,336,210649,2,0,P|490:310|494:283,1,55,2|0,0:0|0:0,0:0:0:0:
320,348,210927,6,0,B|237:355|237:355|149:341,1,165,4|0,0:0|0:0,0:0:0:0:
88,304,211482,1,0,0:0:0:0:
212,188,211760,1,10,0:0:0:0:
99,68,212038,2,0,P|144:37|198:29,1,110,0|10,0:0|0:0,0:0:0:0:
360,72,212593,1,0,0:0:0:0:
236,180,212871,1,0,0:0:0:0:
480,288,213149,6,0,P|491:234|475:182,1,110,10|10,0:0|0:0,0:0:0:0:
364,60,213705,2,0,P|352:113|368:165,1,110,0|10,0:0|0:0,0:0:0:0:
488,52,214260,2,0,L|515:76,5,36.6666666666667,2|2|2|2|2|2,0:0|0:0|0:0|0:0|0:0|0:0,0:0:0:0:
392,88,214816,5,2,0:0:0:0:
356,99,214908,1,2,0:0:0:0:
322,110,215001,1,2,0:0:0:0:
286,115,215093,1,2,0:0:0:0:
236,102,215186,1,2,0:0:0:0:
191,81,215279,1,2,0:0:0:0:
80,40,215371,6,0,P|56:88|64:142,1,110,4|10,0:0|0:0,0:0:0:0:
220,248,215927,1,0,0:0:0:0:
232,116,216205,1,6,0:0:0:0:
123,327,216482,2,0,P|177:339|231:330,1,110,0|6,0:0|0:0,0:0:0:0:
84,240,217038,1,0,0:0:0:0:
248,240,217316,1,4,0:0:0:0:
88,88,217593,6,0,B|136:56|136:56|188:56,1,110,10|10,0:0|0:0,0:0:0:0:
359,91,218149,2,0,P|387:96|414:92,1,55,0|0,0:0|0:0,0:0:0:0:
488,92,218427,1,6,0:0:0:0:
296,20,218705,2,0,P|265:64|266:118,1,110,0|10,0:0|0:0,0:0:0:0:
356,256,219260,1,0,0:0:0:0:
414,92,219538,2,0,L|368:127,1,55
216,244,219814,6,0,P|164:260|111:247,1,110,4|10,0:0|0:0,0:0:0:0:
24,116,220378,1,0,0:0:0:0:
28,280,220675,1,6,0:0:0:0:
167,168,220970,6,0,P|221:156|274:167,1,110,0|10,0:0|0:0,0:0:0:0:
388,276,221625,5,2,0:0:0:0:
391,259,221712,1,2,0:0:0:0:
395,243,221798,1,2,0:0:0:0:
399,227,221884,1,2,0:0:0:0:
403,211,221970,1,2,0:0:0:0:
407,195,222056,1,2,0:0:0:0:
405,179,222142,1,2,0:0:0:0:
402,163,222228,1,2,0:0:0:0:
398,147,222315,5,14,0:0:0:0:
196,72,222646,1,2,0:0:0:0:
320,180,222975,5,10,0:0:0:0:
116,108,223346,1,2,0:0:0:0:
240,200,223717,5,10,0:0:0:0:
36,128,224108,1,0,0:0:0:0:
164,220,224505,6,0,P|171:264|160:316,1,91.6666666666667,10|0,0:0|0:0,0:0:0:0:
188,332,225121,5,2,0:0:0:0:
224,344,225231,1,2,0:0:0:0:
260,348,225341,1,2,0:0:0:0:
296,344,225452,1,2,0:0:0:0:
332,332,225562,1,2,0:0:0:0:
364,312,225672,1,2,0:0:0:0:
396,242,225782,6,0,B|381:193|424:186|392:119,1,110,2|0,0:0|0:0,0:0:0:0:
301,80,226115,22,0,L|202:80,1,82.5000031471254,8|4,0:0|0:0,0:0:0:0:
103,125,226448,1,8,0:0:0:0:
196,187,226615,1,4,0:0:0:0:
75,275,226782,2,0,L|68:381,1,82.5000031471254,2|0,0:0|0:0,0:0:0:0:
180,366,227115,2,0,P|244:357|273:328,1,82.5000031471254,8|4,0:0|0:0,0:0:0:0:
336,264,227448,1,8,0:0:0:0:
336,264,227615,1,4,0:0:0:0:
499,171,227782,70,0,L|489:354,1,165.000006294251,2|8,0:0|0:0,0:0:0:0:
379,364,228282,1,4,0:0:0:0:
397,195,228448,1,8,0:0:0:0:
313,274,228615,1,4,0:0:0:0:
316,106,228782,2,0,P|256:80|211:85,1,82.5000031471254,2|0,0:0|0:0,0:0:0:0:
102,84,229115,1,8,0:0:0:0:
102,84,229198,1,0,0:0:0:0:
102,84,229282,1,4,0:0:0:0:
120,186,229448,2,0,L|113:222,3,27.5000010490418,8|0|0|4,0:0|0:0|0:0|0:0,0:0:0:0:
239,79,229782,22,0,P|255:146|236:193,1,82.5000031471254,2|0,0:0|0:0,0:0:0:0:
140,299,230115,1,8,0:0:0:0:
261,288,230282,1,4,0:0:0:0:
238,184,230448,1,8,0:0:0:0:
205,377,230615,1,4,0:0:0:0:
353,270,230782,2,0,P|406:263|448:280,1,82.5000031471254,2|0,0:0|0:0,0:0:0:0:
505,218,231115,1,8,0:0:0:0:
396,356,231282,1,4,0:0:0:0:
323,182,231448,2,0,L|327:84,1,82.5000031471254,8|4,0:0|0:0,0:0:0:0:
58,67,231782,70,0,L|212:68,1,123.750004720688,2|0,0:0|0:0,0:0:0:0:
215,67,232115,1,8,0:0:0:0:
227,207,232282,1,4,0:0:0:0:
309,129,232448,1,8,0:0:0:0:
125,174,232615,1,4,0:0:0:0:
247,228,232782,2,0,L|239:341,1,82.5000031471254,2|0,0:0|0:0,0:0:0:0:
0,288,233115,2,0,P|63:274|159:328,1,165.000006294251,8|8,0:0|0:0,0:0:0:0:
202,384,233615,1,4,0:0:0:0:
330,293,233782,70,0,B|368:278|422:279|398:311|469:322|506:294,1,165.000006294251,2|8,0:0|0:0,0:0:0:0:
460,208,234282,1,4,0:0:0:0:
285,206,234448,2,0,P|234:251|229:286,1,82.5000031471254,8|4,0:0|0:0,0:0:0:0:
51,173,234782,2,0,P|101:115|199:125,1,165.000006294251,2|8,0:0|0:0,0:0:0:0:
285,206,235282,1,4,0:0:0:0:
145,200,235448,1,8,0:0:0:0:
218,311,235615,1,4,0:0:0:0:
299,184,235782,22,0,L|438:185,1,123.750004720688,2|0,0:0|0:0,0:0:0:0:
451,184,236115,1,8,0:0:0:0:
364,80,236282,1,4,0:0:0:0:
468,211,236448,1,8,0:0:0:0:
465,39,236615,1,4,0:0:0:0:
250,111,236782,2,0,P|191:120|126:81,1,123.750004720688,2|0,0:0|0:0,0:0:0:0:
117,62,237115,1,8,0:0:0:0:
27,146,237282,1,4,0:0:0:0:
106,25,237448,1,8,0:0:0:0:
137,190,237615,1,4,0:0:0:0:
258,13,237782,70,0,P|302:28|346:120,1,123.750004720688,2|0,0:0|0:0,0:0:0:0:
347,118,238115,1,8,0:0:0:0:
153,168,238282,1,4,0:0:0:0:
255,219,238448,2,0,L|258:326,1,82.5000031471254,8|4,0:0|0:0,0:0:0:0:
0,307,238782,2,0,P|70:284|145:318,1,123.750004720688,2|0,0:0|0:0,0:0:0:0:
140,312,239115,2,0,P|199:323|256:301,1,123.750004720688,8|0,0:0|0:0,0:0:0:0:
279,283,239448,1,8,0:0:0:0:
390,353,239615,1,4,0:0:0:0:
297,194,239782,70,0,L|305:17,1,165.000006294251,2|8,0:0|0:0,0:0:0:0:
183,91,240281,1,4,0:0:0:0:
305,5,240448,1,8,0:0:0:0:
208,176,240615,1,4,0:0:0:0:
73,33,240781,2,0,L|80:197,1,165.000006294251,2|8,0:0|0:0,0:0:0:0:
83,306,241281,1,4,0:0:0:0:
197,278,241448,2,0,P|275:305|292:328,1,82.5000031471254,8|4,0:0|0:0,0:0:0:0:
474,261,241781,22,0,P|416:269|364:390,1,165.000006294251,2|8,0:0|0:0,0:0:0:0:
461,363,242281,1,4,0:0:0:0:
289,280,242448,1,8,0:0:0:0:
332,365,242615,1,4,0:0:0:0:
263,194,242781,2,0,P|296:134|393:116,1,165.000006294251,2|8,0:0|0:0,0:0:0:0:
359,207,243281,1,4,0:0:0:0:
200,84,243448,1,8,0:0:0:0:
263,194,243615,1,4,0:0:0:0:
136,21,243781,70,0,P|109:106|181:172,1,165.000006294251,2|8,0:0|0:0,0:0:0:0:
263,194,244281,1,4,0:0:0:0:
200,84,244448,1,8,0:0:0:0:
175,256,244615,1,4,0:0:0:0:
336,129,244781,2,0,P|400:127|470:168,1,123.750004720688,2|0,0:0|0:0,0:0:0:0:
469,176,245115,1,8,0:0:0:0:
406,253,245281,1,4,0:0:0:0:
479,333,245448,1,8,0:0:0:0:
310,337,245615,1,4,0:0:0:0:
290,310,245698,1,0,0:0:0:0:
268,293,245781,70,0,P|200:279|132:349,1,165.000006294251,2|8,0:0|0:0,0:0:0:0:
218,365,246281,1,4,0:0:0:0:
257,207,246448,2,0,L|269:110,1,82.5000031471254,8|4,0:0|0:0,0:0:0:0:
422,37,246781,2,0,P|464:100|454:157,1,123.750004720688,2|0,0:0|0:0,0:0:0:0:
434,167,247115,2,0,P|392:230|402:287,1,123.750004720688,8|0,0:0|0:0,0:0:0:0:
406,306,247448,1,8,0:0:0:0:
492,246,247615,1,4,0:0:0:0:
295,336,247781,22,0,L|141:336,1,123.750004720688,2|0,0:0|0:0,0:0:0:0:
137,333,248115,2,0,P|164:291|159:199,1,123.750004720688,8|0,0:0|0:0,0:0:0:0:
149,190,248448,2,0,P|122:148|127:56,1,123.750004720688,8|0,0:0|0:0,0:0:0:0:
138,48,248781,1,2,0:0:0:0:
249,182,248948,1,0,0:0:0:0:
381,71,249115,2,0,L|258:69,1,123.750004720688,8|0,0:0|0:0,0:0:0:0:
224,70,249448,1,8,0:0:0:0:
261,218,249615,1,4,0:0:0:0:
439,147,249781,70,0,P|465:197|424:317,1,165.000006294251,2|8,0:0|0:0,0:0:0:0:
304,359,250281,1,4,0:0:0:0:
338,255,250448,1,8,0:0:0:0:
401,376,250615,1,4,0:0:0:0:
213,335,250781,2,0,P|138:328|95:335,1,82.5000031471254,2|0,0:0|0:0,0:0:0:0:
24,313,251115,1,8,0:0:0:0:
118,234,251281,1,4,0:0:0:0:
1,164,251448,2,0,P|40:100|114:75,1,123.750004720688,8|0,0:0|0:0,0:0:0:0:
108,80,251781,38,0,P|196:108|257:82,1,110,2|8,0:0|0:0,0:0:0:0:
308,65,252325,1,2,0:0:0:0:
409,117,252597,1,8,0:0:0:0:
137,204,252869,5,4,0:0:0:0:
348,244,253141,1,4,0:0:0:0:
220,88,253413,1,4,0:0:0:0:
284,376,253685,1,4,0:0:0:0:
67,271,253956,54,0,P|56:229|61:186,1,88,0|8,0:0|0:0,0:0:0:0:
104,80,254491,1,8,0:0:0:0:
192,156,254759,1,4,0:0:0:0:
192,156,255295,1,0,0:0:0:0:
288,92,255563,1,4,0:0:0:0:
396,132,255831,1,0,0:0:0:0:
192,156,256098,6,0,P|185:199|189:242,1,88,8|8,0:0|0:0,0:0:0:0:
280,312,256634,1,8,0:0:0:0:
376,248,256902,1,4,0:0:0:0:
192,156,257170,2,0,P|156:131|131:96,1,88,0|0,0:0|0:0,0:0:0:0:
268,80,257706,2,0,L|312:72,1,44,0|0,0:0|0:0,0:0:0:0:
304,184,257973,2,0,L|331:149,1,44,0|0,0:0|0:0,0:0:0:0:
236,248,258241,6,0,P|193:255|150:248,1,88,8|8,0:0|0:0,0:0:0:0:
192,140,258777,1,8,0:0:0:0:
296,188,259045,1,4,0:0:0:0:
296,188,259581,1,0,0:0:0:0:
436,268,259848,1,4,0:0:0:0:
320,380,260116,1,0,0:0:0:0:
268,116,260384,54,0,L|258:28,2,88,8|8|8,0:0|0:0|0:0,0:0:0:0:
328,212,261188,1,4,0:0:0:0:
223,248,261456,2,0,P|180:248|139:231,1,88,0|0,0:0|0:0,0:0:0:0:
64,144,261991,2,0,L|47:275,1,132,4|0,0:0|0:0,0:0:0:0:
120,308,262527,6,0,P|158:328|201:328,1,88,8|8,0:0|0:0,0:0:0:0:
316,324,263063,1,8,0:0:0:0:
428,344,263331,1,4,0:0:0:0:
428,344,263866,1,0,0:0:0:0:
332,280,264134,1,4,0:0:0:0:
284,176,264402,1,0,0:0:0:0:
431,79,264670,6,0,P|388:75|344:79,2,88,8|8|8,0:0|0:0|0:0,0:0:0:0:
452,192,265473,1,4,0:0:0:0:
247,191,265741,2,0,P|185:211|133:251,1,132,0|0,0:0|0:0,0:0:0:0:
84,320,266277,2,0,L|84:188,1,132,4|0,0:0|0:0,0:0:0:0:
208,108,266813,54,0,P|248:100|295:108,1,88,8|8,0:0|0:0,0:0:0:0:
404,240,267348,1,8,0:0:0:0:
384,144,267616,1,4,0:0:0:0:
244,288,267884,1,0,0:0:0:0:
348,340,268152,1,0,0:0:0:0:
156,356,268420,2,0,P|113:360|69:352,1,88,4|0,0:0|0:0,0:0:0:0:
244,288,268956,6,0,P|251:244|247:200,1,88,8|8,0:0|0:0,0:0:0:0:
164,120,269491,1,8,0:0:0:0:
148,244,269759,1,4,0:0:0:0:
300,112,270027,2,0,P|328:145|341:186,1,88,0|0,0:0|0:0,0:0:0:0:
236,288,270563,2,0,L|192:285,1,44,4|0,0:0|0:0,0:0:0:0:
58,264,270831,2,0,L|36:264,3,22,8|8|8|8,0:0|0:0|0:0|0:0,0:0:0:0:
112,195,271098,6,0,P|160:186|207:199,1,98.9999969787599,2|2,0:0|0:0,0:0:0:0:
336,180,271634,2,0,L|385:180,1,49.4999984893799,0|0,0:0|0:0,0:0:0:0:
344,44,271902,2,0,L|368:44,2,24.74999924469,8|8|8,0:0|0:0|0:0,0:0:0:0:
260,108,272170,2,0,P|211:117|163:108,1,98.9999969787599,2|2,0:0|0:0,0:0:0:0:
32,40,272706,1,0,0:0:0:0:
80,244,272973,2,0,L|64:263,2,24.74999924469,8|8|8,0:0|0:0|0:0,0:0:0:0:
164,192,273241,6,0,P|212:184|261:193,1,98.9999969787599,2|2,0:0|0:0,0:0:0:0:
368,264,273777,1,0,0:0:0:0:
464,188,274045,2,0,L|488:188,2,24.74999924469,8|8|8,0:0|0:0|0:0,0:0:0:0:
416,112,274313,2,0,P|367:105|318:114,1,98.9999969787599,2|2,0:0|0:0,0:0:0:0:
220,196,274848,2,0,L|220:245,1,49.4999984893799,0|0,0:0|0:0,0:0:0:0:
148,124,275116,2,0,L|148:173,1,49.4999984893799,8|8,0:0|0:0,0:0:0:0:
72,48,275384,6,0,L|72:147,1,98.9999969787599,2|2,0:0|0:0,0:0:0:0:
32,292,275920,2,0,L|18:339,1,49.4999984893799,0|0,0:0|0:0,0:0:0:0:
149,304,276188,2,0,L|144:328,2,24.74999924469,8|8|0,0:0|0:0|0:0,0:0:0:0:
256,247,276456,2,0,P|304:240|352:250,1,98.9999969787599,2|2,0:0|0:0,0:0:0:0:
252,360,276991,1,0,0:0:0:0:
152,184,277259,1,8,0:0:0:0:
276,32,277527,6,0,P|325:27|374:35,2,98.9999969787599,2|2|0,0:0|0:0|0:0,0:0:0:0:
148,60,278331,1,8,0:0:0:0:
264,224,278598,6,0,L|264:257,5,32.99999899292,2|2|2|2|2|2,0:0|0:0|0:0|0:0|0:0|0:0,0:0:0:0:
348,220,279134,6,0,L|353:252,2,32.99999899292,2|2|2,0:0|0:0|0:0,0:0:0:0:
420,184,279402,6,0,L|429:197,4,16.49999949646,2|0|0|0|0,0:0|0:0|0:0|0:0|0:0,0:0:0:0:
348,144,279670,6,0,L|249:144,1,98.9999969787599,4|2,0:0|0:0,0:0:0:0:
135,55,280206,2,0,P|125:32|111:11,1,49.4999984893799,0|0,0:0|0:0,0:0:0:0:
64,128,280473,2,0,P|73:150|87:171,1,49.4999984893799,8|8,0:0|0:0,0:0:0:0:
36,256,280741,2,0,P|77:282|125:292,1,98.9999969787599,2|2,0:0|0:0,0:0:0:0:
240,232,281277,1,0,0:0:0:0:
404,296,281545,2,0,P|412:319|416:343,1,49.4999984893799,8|8,0:0|0:0,0:0:0:0:
351,183,281813,6,0,P|323:143|282:116,1,98.9999969787599,2|2,0:0|0:0,0:0:0:0:
152,116,282348,1,0,0:0:0:0:
168,244,282616,2,0,P|170:268|175:292,1,49.4999984893799,8|8,0:0|0:0,0:0:0:0:
256,352,282884,2,0,P|304:360|353:351,1,98.9999969787599,2|2,0:0|0:0,0:0:0:0:
456,152,283420,2,0,P|464:200|455:249,1,98.9999969787599,0|8,0:0|0:0,0:0:0:0:
372,272,283822,1,8,0:0:0:0:
356,244,283956,6,0,P|348:195|357:146,1,98.9999969787599,6|0,0:0|0:0,0:0:0:0:
112,96,284759,2,0,L|88:96,2,24.74999924469,8|8|8,0:0|0:0|0:0,0:0:0:0:
208,124,285027,2,0,P|216:172|208:221,1,98.9999969787599,2|2,0:0|0:0,0:0:0:0:
100,288,285563,2,0,P|91:239|99:190,1,98.9999969787599,0|8,0:0|0:0,0:0:0:0:
280,320,286098,6,0,P|328:328|377:319,1,98.9999969787599,2|2,0:0|0:0,0:0:0:0:
440,68,286902,2,0,L|455:48,2,24.74999924469,8|8|8,0:0|0:0|0:0,0:0:0:0:
368,132,287170,2,0,P|319:140|270:131,1,98.9999969787599,2|2,0:0|0:0,0:0:0:0:
156,72,287706,6,0,L|121:60,2,36.6666666666667,2|2|2,0:0|0:0|0:0,0:0:0:0:
132,144,287998,6,0,L|113:144,4,18.3333333333333,2|0|0|0|0,0:0|0:0|0:0|0:0|0:0,0:0:0:0:
144,224,288292,54,0,L|144:298,1,74.2500002832413,4|0,0:0|0:0,0:0:0:0:
208,344,288559,37,2,0:0:0:0:
264,344,288693,1,0,0:0:0:0:
320,344,288827,1,0,0:0:0:0:
144,224,289095,53,8,0:0:0:0:
104,224,289229,1,8,0:0:0:0:
64,224,289363,1,2,0:0:0:0:
264,344,289631,21,2,0:0:0:0:
320,344,289765,1,0,0:0:0:0:
376,344,289899,1,0,0:0:0:0:
184,224,290167,53,8,0:0:0:0:
144,224,290300,1,8,0:0:0:0:
104,224,290434,1,2,0:0:0:0:
320,344,290702,21,2,0:0:0:0:
376,344,290836,1,0,0:0:0:0:
432,344,290970,1,0,0:0:0:0:
308,204,291238,53,8,0:0:0:0:
144,224,291506,2,0,P|89:233|36:221,2,110,2|2|0,0:0|0:0|0:0,0:0:0:0:
344,191,292309,1,8,0:0:0:0:
352,172,292399,1,8,0:0:0:0:
360,152,292488,1,8,0:0:0:0:
367,110,292577,22,0,P|355:76|331:48,1,74.2500002832413,4|0,0:0|0:0,0:0:0:0:
260,144,292845,37,2,0:0:0:0:
212,172,292979,1,0,0:0:0:0:
212,116,293113,1,0,0:0:0:0:
384,236,293381,69,8,0:0:0:0:
440,268,293515,1,8,0:0:0:0:
436,204,293649,1,2,0:0:0:0:
212,172,293917,5,2,0:0:0:0:
164,200,294050,1,0,0:0:0:0:
164,144,294184,1,0,0:0:0:0:
332,268,294452,69,8,0:0:0:0:
388,300,294586,1,8,0:0:0:0:
384,236,294720,1,2,0:0:0:0:
164,200,294988,5,2,0:0:0:0:
100,240,295122,1,0,0:0:0:0:
96,164,295256,1,0,0:0:0:0:
244,68,295524,1,8,0:0:0:0:
364,180,295792,6,0,L|400:180,5,36.6666666666667,2|2|2|2|2|2,0:0|0:0|0:0|0:0|0:0|0:0,0:0:0:0:
328,256,296327,6,0,L|359:274,2,36.6666666666667,2|2|2,0:0|0:0|0:0,0:0:0:0:
264,324,296595,6,0,L|273:339,4,18.3333333333333,2|0|0|0|0,0:0|0:0|0:0|0:0|0:0,0:0:0:0:
240,244,296863,22,0,L|165:244,1,74.2500002832413,4|0,0:0|0:0,0:0:0:0:
160,160,297131,69,2,0:0:0:0:
124,120,297265,1,0,0:0:0:0:
92,76,297399,1,0,0:0:0:0:
320,52,297667,53,8,0:0:0:0:
348,24,297800,1,8,0:0:0:0:
376,0,297934,1,2,0:0:0:0:
196,200,298202,21,2,0:0:0:0:
160,160,298336,1,0,0:0:0:0:
124,120,298470,1,0,0:0:0:0:
344,80,298738,53,8,0:0:0:0:
372,52,298872,1,8,0:0:0:0:
400,28,299006,1,2,0:0:0:0:
232,240,299274,21,2,0:0:0:0:
196,200,299408,1,0,0:0:0:0:
160,160,299542,1,0,0:0:0:0:
376,328,299809,53,8,0:0:0:0:
487,208,300077,2,0,P|503:155|493:102,2,110,2|2|0,0:0|0:0|0:0,0:0:0:0:
420,32,300881,1,8,0:0:0:0:
404,52,300970,1,8,0:0:0:0:
388,72,301059,1,8,0:0:0:0:
312,32,301149,6,0,L|312:106,1,74.2500002832413,4|0,0:0|0:0,0:0:0:0:
360,184,301417,5,2,0:0:0:0:
360,224,301551,1,0,0:0:0:0:
360,264,301684,1,0,0:0:0:0:
164,256,301952,21,8,0:0:0:0:
164,312,302086,1,8,0:0:0:0:
164,368,302220,1,2,0:0:0:0:
360,144,302488,53,2,0:0:0:0:
360,184,302622,1,0,0:0:0:0:
360,224,302756,1,0,0:0:0:0:
164,200,303024,21,8,0:0:0:0:
164,256,303158,1,8,0:0:0:0:
164,312,303292,1,2,0:0:0:0:
360,104,303559,53,2,0:0:0:0:
360,144,303693,1,0,0:0:0:0:
360,184,303827,2,0,L|360:294,1,110,0|8,0:0|0:0,0:0:0:0:
232,248,304363,5,4,0:0:0:0:
488,232,304621,1,2,0:0:0:0:
272,116,304883,54,0,L|232:123,1,36.6666666666667,8|0,0:0|0:0,0:0:0:0:
180,205,305062,6,0,L|187:244,1,36.6666666666667,8|0,0:0|0:0,0:0:0:0:
267,313,305242,6,0,L|303:306,1,36.6666666666667,8|0,0:0|0:0,0:0:0:0:
288,207,305425,22,0,P|233:215|180:205,1,110,4|0,0:0|0:0,0:0:0:0:
87,142,305827,1,0,0:0:0:0:
61,171,305961,2,0,L|64:258,1,55,2|0,0:0|0:0,0:0:0:0:
50,368,306229,2,0,L|51:313,1,55,2|0,0:0|0:0,0:0:0:0:
163,317,306497,2,0,P|214:300|267:313,1,110,8|0,0:0|0:0,0:0:0:0:
356,351,306899,1,0,0:0:0:0:
388,330,307033,2,0,L|389:208,1,110,2|2,0:0|0:0,0:0:0:0:
425,115,307435,1,0,0:0:0:0:
361,58,307569,6,0,P|288:53|233:97,1,110,0|0,0:0|0:0,0:0:0:0:
140,134,307972,1,0,0:0:0:0:
175,148,308106,2,0,P|197:157|228:193,1,55,2|0,0:0|0:0,0:0:0:0:
274,259,308374,2,0,P|252:268|221:304,1,55,2|0,0:0|0:0,0:0:0:0:
113,351,308642,2,0,P|70:306|70:243,2,110,8|0|2,0:0|0:0|0:0,0:0:0:0:
321,342,309446,1,2,0:0:0:0:
346,313,309580,1,0,0:0:0:0:
366,230,309714,54,0,P|350:152|308:116,1,110,4|0,0:0|0:0,0:0:0:0:
252,55,310116,1,0,0:0:0:0:
283,33,310250,2,0,P|310:25|350:26,1,55,2|0,0:0|0:0,0:0:0:0:
481,87,310519,2,0,P|454:79|414:80,1,55,2|0,0:0|0:0,0:0:0:0:
320,149,310787,2,0,L|318:284,1,110,8|0,0:0|0:0,0:0:0:0:
386,384,311189,1,0,0:0:0:0:
356,359,311323,2,0,P|267:342|206:354,1,110,2|2,0:0|0:0,0:0:0:0:
170,310,311725,1,0,0:0:0:0:
92,344,311859,6,0,L|17:340,1,55,0|0,0:0|0:0,0:0:0:0:
27,239,312127,2,0,L|102:235,1,55,0|0,0:0|0:0,0:0:0:0:
171,192,312395,2,0,P|189:131|181:98,1,55,2|0,0:0|0:0,0:0:0:0:
132,31,312663,1,2,0:0:0:0:
163,53,312797,1,0,0:0:0:0:
201,60,312932,2,0,L|271:58,2,55,8|0|0,0:0|0:0|0:0,0:0:0:0:
432,91,313468,2,0,P|447:145|446:158,1,55,2|0,0:0|0:0,0:0:0:0:
459,263,313736,2,0,L|481:263,4,18.3333333333333,2|0|0|0|0,0:0|0:0|0:0|0:0|0:0,0:0:0:0:
431,264,314004,6,0,L|304:263,1,110,4|0,0:0|0:0,0:0:0:0:
270,357,314406,1,0,0:0:0:0:
232,363,314540,2,0,P|162:337|141:292,1,110,2|2,0:0|0:0,0:0:0:0:
78,208,314942,1,0,0:0:0:0:
80,158,315076,1,8,0:0:0:0:
234,221,315344,2,0,L|224:290,1,55,0|0,0:0|0:0,0:0:0:0:
296,141,315613,2,0,L|288:86,1,55,2|0,0:0|0:0,0:0:0:0:
356,215,315881,1,2,0:0:0:0:
384,242,316015,1,0,0:0:0:0:
458,260,316149,54,0,P|539:247|554:236,1,55,0|0,0:0|0:0,0:0:0:0:
468,101,316417,2,0,L|459:178,1,55,0|0,0:0|0:0,0:0:0:0:
379,82,316685,2,0,L|372:27,1,55,2|0,0:0|0:0,0:0:0:0:
281,82,316953,1,2,0:0:0:0:
256,52,317087,1,0,0:0:0:0:
219,40,317221,2,0,P|151:44|111:69,2,110,8|0|2,0:0|0:0|0:0,0:0:0:0:
333,143,318026,1,2,0:0:0:0:
326,180,318160,1,0,0:0:0:0:
275,240,318294,6,0,P|209:251|149:229,1,110,4|0,0:0|0:0,0:0:0:0:
78,155,318696,1,0,0:0:0:0:
51,182,318830,2,0,P|38:245|68:295,1,110,2|2,0:0|0:0,0:0:0:0:
136,354,319232,1,0,0:0:0:0:
224,332,319366,2,0,L|356:333,1,110,4|0,0:0|0:0,0:0:0:0:
449,327,319768,1,0,0:0:0:0:
421,305,319902,2,0,P|403:240|420:180,1,110,2|2,0:0|0:0,0:0:0:0:
329,151,320304,1,0,0:0:0:0:
252,186,320439,6,0,L|107:186,1,110,4|0,0:0|0:0,0:0:0:0:
64,74,320841,1,0,0:0:0:0:
91,47,320975,2,0,P|153:45|208:83,1,110,2|2,0:0|0:0,0:0:0:0:
294,98,321377,1,0,0:0:0:0:
374,63,321511,2,0,L|466:62,2,55,4|0|0,0:0|0:0|0:0,0:0:0:0:
137,134,322047,1,2,0:0:0:0:
196,322,322315,1,2,0:0:0:0:
242,305,322449,1,0,0:0:0:0:
255,232,322583,54,0,P|190:221|107:252,1,110,4|0,0:0|0:0,0:0:0:0:
85,289,322986,1,0,0:0:0:0:
76,330,323120,2,0,L|74:384,1,55,2|0,0:0|0:0,0:0:0:0:
45,212,323388,2,0,L|43:113,1,55,2|0,0:0|0:0,0:0:0:0:
4,69,323656,2,0,P|74:68|117:100,1,110,8|0,0:0|0:0,0:0:0:0:
219,156,324058,1,0,0:0:0:0:
253,120,324192,2,0,L|399:119,1,110,2|2,0:0|0:0,0:0:0:0:
477,113,324594,1,0,0:0:0:0:
446,188,324728,6,0,P|433:254|457:325,1,110,0|0,0:0|0:0,0:0:0:0:
371,359,325130,1,0,0:0:0:0:
327,334,325264,2,0,L|235:334,1,55,2|0,0:0|0:0,0:0:0:0:
99,298,325533,2,0,L|191:298,1,55,2|0,0:0|0:0,0:0:0:0:
279,156,325801,2,0,P|252:75|213:52,2,110,8|2|0,0:0|0:0|0:0,0:0:0:0:
102,154,326605,2,0,P|130:152|186:131,1,55,2|0,0:0|0:0,0:0:0:0:
279,156,326873,6,0,L|409:154,1,110,4|0,0:0|0:0,0:0:0:0:
465,217,327275,1,0,0:0:0:0:
466,266,327409,2,0,P|438:313|369:343,1,110,2|2,0:0|0:0,0:0:0:0:
297,283,327811,1,0,0:0:0:0:
255,255,327946,2,0,P|187:253|137:290,2,110,8|0|2,0:0|0:0|0:0,0:0:0:0:
394,205,328750,1,2,0:0:0:0:
402,155,328884,1,0,0:0:0:0:
359,91,329018,54,0,L|352:26,1,55,0|0,0:0|0:0,0:0:0:0:
267,95,329286,2,0,L|261:149,1,55,0|0,0:0|0:0,0:0:0:0:
133,50,329554,2,0,P|166:42|212:48,1,55,2|0,0:0|0:0,0:0:0:0:
89,156,329822,1,2,0:0:0:0:
50,127,329956,1,0,0:0:0:0:
32,80,330090,2,0,L|28:0,2,55,8|0|0,0:0|0:0|0:0,0:0:0:0:
271,42,330627,2,0,P|298:36|325:41,1,55,2|0,0:0|0:0,0:0:0:0:
366,213,330895,2,0,L|392:213,4,18.3333333333333,2|0|0|0|0,0:0|0:0|0:0|0:0|0:0,0:0:0:0:
339,209,331163,6,0,L|189:207,1,110,4|0,0:0|0:0,0:0:0:0:
171,308,331565,1,0,0:0:0:0:
201,347,331699,2,0,L|326:350,1,110,2|2,0:0|0:0,0:0:0:0:
432,316,332101,1,0,0:0:0:0:
394,283,332235,2,0,P|376:202|395:158,1,110,8|0,0:0|0:0,0:0:0:0:
421,85,332637,1,0,0:0:0:0:
376,62,332771,2,0,L|223:73,1,110,2|2,0:0|0:0,0:0:0:0:
176,45,333174,1,0,0:0:0:0:
95,82,333308,6,0,P|86:141|124:201,1,110
181,279,333710,1,0,0:0:0:0:
219,248,333844,2,0,L|301:237,1,55,2|0,0:0|0:0,0:0:0:0:
342,338,334112,2,0,L|260:327,1,55,2|0,0:0|0:0,0:0:0:0:
380,245,334380,1,8,0:0:0:0:
468,129,334648,2,0,P|439:80|360:42,1,110,0|2,0:0|0:0,0:0:0:0:
229,93,335184,1,2,0:0:0:0:
185,70,335318,1,0,0:0:0:0:
99,65,335453,54,0,P|70:80|50:125,1,55,4|0,0:0|0:0,0:0:0:0:
169,194,335721,2,0,P|151:173|126:161,1,55,0|0,0:0|0:0,0:0:0:0:
5,235,335989,2,0,P|16:210|37:192,1,55,2|0,0:0|0:0,0:0:0:0:
108,285,336257,1,2,0:0:0:0:
154,300,336391,1,0,0:0:0:0:
201,287,336525,2,0,P|256:274|329:294,1,110,8|0,0:0|0:0,0:0:0:0:
408,332,336927,1,0,0:0:0:0:
448,304,337061,2,0,P|456:224|440:180,1,110,2|2,0:0|0:0,0:0:0:0:
392,88,337463,1,0,0:0:0:0:
355,120,337597,6,0,P|276:139|233:127,1,110,0|0,0:0|0:0,0:0:0:0:
147,62,338000,1,0,0:0:0:0:
99,75,338134,2,0,P|60:152|77:202,1,110,2|2,0:0|0:0,0:0:0:0:
165,312,338536,1,0,0:0:0:0:
192,325,338670,2,0,L|324:311,1,110,8|0,0:0|0:0,0:0:0:0:
349,170,339072,1,0,0:0:0:0:
327,155,339206,2,0,P|273:147|230:178,1,110,2|2,0:0|0:0,0:0:0:0:
192,325,339608,1,0,0:0:0:0:
301,313,339742,22,0,L|433:299,1,110,4|0,0:0|0:0,0:0:0:0:
460,168,340278,1,2,0:0:0:0:
363,59,340547,2,0,P|309:51|255:59,1,110,2|8,0:0|0:0,0:0:0:0:
124,120,341083,2,0,P|116:65|124:11,1,110,0|2,0:0|0:0,0:0:0:0:
244,184,341619,1,2,0:0:0:0:
244,184,341753,1,0,0:0:0:0:
244,184,341887,22,0,P|253:239|246:293,1,110,0|0,0:0|0:0,0:0:0:0:
112,240,342423,1,2,0:0:0:0:
188,120,342691,2,0,P|240:104|293:116,1,110,2|8,0:0|0:0,0:0:0:0:
488,136,343228,2,0,L|480:72,1,55,0|0,0:0|0:0,0:0:0:0:
368,192,343496,2,0,L|374:246,1,55,2|0,0:0|0:0,0:0:0:0:
512,348,343764,2,0,L|504:284,1,55,2|0,0:0|0:0,0:0:0:0:
288,356,344032,70,0,P|340:370|393:357,1,110,4|0,0:0|0:0,0:0:0:0:
232,176,344568,1,2,0:0:0:0:
188,312,344836,1,2,0:0:0:0:
295,232,345104,2,0,P|312:176|297:125,1,110,8|0,0:0|0:0,0:0:0:0:
160,176,345641,1,2,0:0:0:0:
313,319,345909,1,2,0:0:0:0:
313,319,346043,1,0,0:0:0:0:
313,319,346177,70,0,L|258:319,1,55,0|0,0:0|0:0,0:0:0:0:
408,244,346445,2,0,L|462:243,1,55,0|0,0:0|0:0,0:0:0:0:
332,144,346713,2,0,L|276:144,1,55,2|0,0:0|0:0,0:0:0:0:
408,40,346981,2,0,L|464:40,1,55,2|0,0:0|0:0,0:0:0:0:
277,144,347249,2,0,P|222:151|169:139,1,110,8|0,0:0|0:0,0:0:0:0:
68,40,347785,2,0,L|123:40,1,55,2|0,0:0|0:0,0:0:0:0:
169,139,348054,2,0,L|114:139,1,55,2|0,0:0|0:0,0:0:0:0:
24,216,348322,21,4,0:0:0:0:
220,320,348590,1,0,0:0:0:0:
76,368,348858,1,2,0:0:0:0:
196,184,349126,1,2,0:0:0:0:
352,360,349394,1,8,0:0:0:0:
220,320,349662,1,0,0:0:0:0:
420,256,349930,1,2,0:0:0:0:
428,96,350198,1,2,0:0:0:0:
428,96,350332,1,0,0:0:0:0:
428,96,350467,70,0,P|376:82|322:90,1,110,0|0,0:0|0:0,0:0:0:0:
220,220,351003,1,2,0:0:0:0:
112,35,351271,2,0,P|92:86|102:139,1,110,2|8,0:0|0:0,0:0:0:0:
220,220,351807,2,0,P|239:169|229:116,1,110,0|2,0:0|0:0,0:0:0:0:
95,267,352343,1,2,0:0:0:0:
95,267,352477,1,0,0:0:0:0:
95,267,352611,70,0,B|121:315|121:315|169:341,1,110,4|0,0:0|0:0,0:0:0:0:
460,114,353416,1,2,0:0:0:0:
460,114,353550,1,0,0:0:0:0:
460,114,353684,2,0,B|439:63|439:63|395:31,1,110,4|0,0:0|0:0,0:0:0:0:
260,192,354488,1,2,0:0:0:0:
260,192,354622,1,0,0:0:0:0:
260,192,354756,22,0,B|266:245|266:245|300:292,1,110,4|0,0:0|0:0,0:0:0:0:
464,224,355292,2,0,L|460:114,1,110,2|2,0:0|0:0,0:0:0:0:
356,16,355829,1,4,0:0:0:0:
260,192,356097,2,0,L|150:195,1,110,0|2,0:0|0:0,0:0:0:0:
134,176,356454,1,0,0:0:0:0:
118,152,356544,1,2,0:0:0:0:
100,128,356633,2,0,L|77:98,2,36.6666666666667
56,216,356901,70,0,B|69:325,1,110,4|0,0:0|0:0,0:0:0:0:
232,360,357437,1,2,0:0:0:0:
328,256,357705,1,2,0:0:0:0:
328,256,357839,1,0,0:0:0:0:
328,256,357974,2,0,P|381:268|434:257,1,110,8|0,0:0|0:0,0:0:0:0:
380,124,358510,1,2,0:0:0:0:
240,256,358778,1,2,0:0:0:0:
240,256,358912,1,0,0:0:0:0:
240,256,359046,70,0,P|186:268|133:257,1,110,0|0,0:0|0:0,0:0:0:0:
60,136,359582,1,2,0:0:0:0:
192,76,359850,2,0,P|245:63|298:74,1,110,2|8,0:0|0:0,0:0:0:0:
480,192,360386,1,0,0:0:0:0:
248,208,360655,1,2,0:0:0:0:
244,20,360923,1,2,0:0:0:0:
432,52,361191,22,0,L|463:157,1,110,4|0,0:0|0:0,0:0:0:0:
392,280,361727,1,2,0:0:0:0:
256,324,361995,1,2,0:0:0:0:
256,324,362129,1,0,0:0:0:0:
256,324,362263,2,0,L|148:308,1,110,8|0,0:0|0:0,0:0:0:0:
104,172,362799,2,0,L|212:187,1,110,2|2,0:0|0:0,0:0:0:0:
316,232,363202,1,0,0:0:0:0:
316,232,363336,69,0,0:0:0:0:
444,112,363604,1,0,0:0:0:0:
460,256,363872,2,0,L|417:221,1,55,2|0,0:0|0:0,0:0:0:0:
296,104,364140,2,0,L|292:158,1,55,2|0,0:0|0:0,0:0:0:0:
271,293,364408,1,8,0:0:0:0:
80,180,364676,1,0,0:0:0:0:
164,296,364944,2,0,P|217:284|271:293,1,110,2|2,0:0|0:0,0:0:0:0:
392,328,365346,1,0,0:0:0:0:
416,296,365481,70,0,L|412:186,1,110,4|0,0:0|0:0,0:0:0:0:
201,215,366017,1,2,0:0:0:0:
132,52,366285,1,2,0:0:0:0:
132,52,366419,1,0,0:0:0:0:
132,52,366553,1,8,0:0:0:0:
88,176,366821,2,0,L|85:230,1,55,0|0,0:0|0:0,0:0:0:0:
201,215,367089,2,0,L|204:160,1,55,2|0,0:0|0:0,0:0:0:0:
144,297,367357,2,0,L|140:351,1,55,2|0,0:0|0:0,0:0:0:0:
252,95,367625,22,0,P|306:91|356:113,1,110,0|0,0:0|0:0,0:0:0:0:
436,256,368162,1,2,0:0:0:0:
316,308,368430,2,0,P|261:308|211:286,1,110,2|8,0:0|0:0,0:0:0:0:
152,156,368966,1,0,0:0:0:0:
284,216,369234,2,0,L|304:108,1,110,2|2,0:0|0:0,0:0:0:0:
368,24,369636,1,0,0:0:0:0:
216,36,369770,70,0,P|161:35|108:51,1,110,4|0,0:0|0:0,0:0:0:0:
48,136,370172,1,0,0:0:0:0:
48,136,370306,2,0,L|44:245,1,110,2|2,0:0|0:0,0:0:0:0:
156,292,370709,1,0,0:0:0:0:
156,292,370843,2,0,P|210:283|264:293,1,110,8|0,0:0|0:0,0:0:0:0:
388,260,371245,1,0,0:0:0:0:
388,260,371379,2,0,L|398:150,1,110,2|2,0:0|0:0,0:0:0:0:
280,212,371781,1,0,0:0:0:0:
280,212,371915,70,0,B|224:216|224:216|170:208,1,110
108,88,372317,1,0,0:0:0:0:
108,88,372451,2,0,B|164:84|164:84|217:91,1,110,2|2,0:0|0:0,0:0:0:0:
360,72,372853,1,0,0:0:0:0:
360,72,372988,21,10,0:0:0:0:
428,348,373288,1,2,0:0:0:0:
160,244,373586,1,2,0:0:0:0:
440,192,373883,1,2,0:0:0:0:
191,30,374182,70,0,P|138:33|92:80,1,110,4|2,0:0|0:0,0:0:0:0:
109,233,375358,2,0,P|137:238|164:239,1,55,0|0,0:0|0:0,0:0:0:0:
211,165,375946,2,0,P|260:159|280:160,2,55,2|0|0,0:0|0:0|0:0,0:0:0:0:
251,243,376829,1,0,0:0:0:0:
347,142,377123,1,2,0:0:0:0:
237,77,377417,1,0,0:0:0:0:
247,268,377711,2,0,L|251:344,1,55,0|0,0:0|0:0,0:0:0:0:
326,362,378299,1,2,0:0:0:0:
269,194,378593,1,0,0:0:0:0:
145,298,378887,70,0,L|73:297,1,55,0|0,0:0|0:0,0:0:0:0:
0,213,379476,2,0,L|72:212,1,55,2|0,0:0|0:0,0:0:0:0:
141,170,380064,2,0,P|142:117|119:84,1,82.5,0|0,0:0|0:0,0:0:0:0:
116,75,380652,1,2,0:0:0:0:
196,11,380946,1,0,0:0:0:0:
289,102,381240,2,0,B|339:82|408:85|394:121|450:124|522:94,1,220,0|2,0:0|0:0,0:0:0:0:
503,100,383005,1,0,0:0:0:0:
441,30,383299,1,0,0:0:0:0:
463,190,383593,22,0,P|460:234|415:271,1,82.5,4|0,0:0|0:0,0:0:0:0:
411,261,384182,2,0,P|336:254|316:263,1,82.5,2|0,0:0|0:0,0:0:0:0:
308,266,384770,2,0,P|233:273|213:264,1,82.5,0|0,0:0|0:0,0:0:0:0:
206,258,385358,2,0,P|131:251|111:260,1,82.5,2|0,0:0|0:0,0:0:0:0:
104,264,385946,69,0,0:0:0:0:
160,339,386240,1,0,0:0:0:0:
110,174,386534,1,2,0:0:0:0:
32,325,386829,1,0,0:0:0:0:
116,148,387123,70,0,P|131:118|166:93,1,55,0|0,0:0|0:0,0:0:0:0:
234,74,387711,1,2,0:0:0:0:
211,164,388005,1,0,0:0:0:0:
168,15,388299,2,0,L|90:11,1,55,0|0,0:0|0:0,0:0:0:0:
33,73,388887,1,2,0:0:0:0:
146,103,389182,1,0,0:0:0:0:
291,35,389476,2,0,P|340:32|381:48,2,82.5,0|0|0,0:0|0:0|0:0,0:0:0:0:
320,115,390652,22,0,B|353:176|340:220|299:209|289:263|318:316|318:316|324:286|354:258,1,275,0|0,0:0|0:0,0:0:0:0:
475,143,392417,70,0,L|412:138,1,55,0|0,0:0|0:0,0:0:0:0:
265,121,392731,2,0,L|328:114,1,55,0|0,0:0|0:0,0:0:0:0:
352,78,393046,70,0,L|254:78,1,88,0|2,0:0|0:0,0:0:0:0:
169,44,393927,1,0,0:0:0:0:
166,131,394221,2,0,P|203:179|196:265,1,132,0|0,0:0|0:0,0:0:0:0:
158,315,395397,1,0,0:0:0:0:
78,317,395692,1,0,0:0:0:0:
36,249,395986,1,0,0:0:0:0:
55,172,396280,1,0,0:0:0:0:
28,68,396574,2,0,P|23:31|9:7,2,66,2|0|0,0:0|0:0|0:0,0:0:0:0:
135,71,397750,22,0,P|190:54|233:60,1,88,0|2,0:0|0:0,0:0:0:0:
278,118,398633,1,0,0:0:0:0:
349,65,398927,2,0,P|381:62|409:67,1,44,0|0,0:0|0:0,0:0:0:0:
410,71,399368,2,0,P|392:110|396:151,1,66
418,207,400103,1,0,0:0:0:0:
461,272,400397,1,0,0:0:0:0:
444,348,400692,1,0,0:0:0:0:
376,389,400986,1,0,0:0:0:0:
341,269,401280,2,0,L|275:272,1,66,2|0,0:0|0:0,0:0:0:0:
256,278,401868,2,0,P|286:332|287:344,1,66,0|0,0:0|0:0,0:0:0:0:
276,351,402456,70,0,L|394:353,1,110,0|0,0:0|0:0,0:0:0:0:
398,368,403339,1,2,0:0:0:0:
364,239,403633,2,0,B|342:175|386:177|359:104,1,132
226,77,404809,1,0,0:0:0:0:
152,46,405103,1,0,0:0:0:0:
76,70,405397,1,0,0:0:0:0:
50,145,405692,1,0,0:0:0:0:
76,259,405986,2,0,L|78:303,1,44,2|0,0:0|0:0,0:0:0:0:
105,310,406427,2,0,L|154:309,1,44,0|0,0:0|0:0,0:0:0:0:
165,285,406868,70,0,P|203:271|247:270,1,66,0|0,0:0|0:0,0:0:0:0:
279,266,407456,2,0,P|322:266|323:97,1,264,2|0,0:0|0:0,0:0:0:0:
275,156,409515,21,0,0:0:0:0:
195,160,409809,1,0,0:0:0:0:
127,118,410103,1,0,0:0:0:0:
87,49,410397,2,0,L|-14:43,1,88,2|0,0:0|0:0,0:0:0:0:
84,280,411280,38,0,L|82:318,1,22,0|0,0:0|0:0,0:0:0:0:
166,251,411574,2,0,L|164:229,1,22,0|0,0:0|0:0,0:0:0:0:
211,335,411868,70,0,P|269:352|356:332,1,132,0|2,0:0|0:0,0:0:0:0:
436,336,413045,2,0,B|455:280|420:270|442:207,1,132,0|0,0:0|0:0,0:0:0:0:
476,140,414221,1,0,0:0:0:0:
396,139,414515,1,0,0:0:0:0:
340,83,414809,1,0,0:0:0:0:
260,87,415103,1,0,0:0:0:0:
88,136,415397,6,0,P|75:107|72:74,2,66,2|0|0,0:0|0:0|0:0,0:0:0:0:
140,188,416574,1,0,0:0:0:0:
204,141,416868,1,0,0:0:0:0:
283,141,417162,1,0,0:0:0:0:
341,194,417456,1,0,0:0:0:0:
408,153,417750,2,0,P|418:216|378:267,1,132,2|0,0:0|0:0,0:0:0:0:
256,344,418927,53,0,0:0:0:0:
180,368,419221,1,0,0:0:0:0:
103,346,419515,1,0,0:0:0:0:
62,278,419809,1,0,0:0:0:0:
144,236,420103,2,0,L|144:170,2,66,2|0|0,0:0|0:0|0:0,0:0:0:0:
200,292,421280,5,0,0:0:0:0:
256,236,421574,1,0,0:0:0:0:
352,295,421868,2,0,B|388:240|360:172|360:172|420:152|409:87|409:87|330:64|327:127|243:98,1,396,0|0,0:0|0:0,0:0:0:0:
136,244,425986,5,0,0:0:0:0:
96,140,426280,5,0,0:0:0:0:
184,76,426574,54,0,B|240:56|272:84|272:84|316:68|316:68|356:92|392:80,1,220,2|0,0:0|0:0,0:0:0:0:
332,320,430692,53,0,0:0:0:0:
192,320,431067,5,0,0:0:0:0:
260,208,431442,54,0,B|237:169|273:121|273:121|220:132|194:109,1,176,2|4,0:0|0:0,0:0:0:0:
