osu file format v14

[General]
AudioFilename: audio.mp3
AudioLeadIn: 0
PreviewTime: 37389
Countdown: 0
SampleSet: Soft
StackLeniency: 0.7
Mode: 0
LetterboxInBreaks: 0
WidescreenStoryboard: 0

[Editor]
DistanceSpacing: 1
BeatDivisor: 4
GridSize: 32
TimelineZoom: 2.1

[Metadata]
Title:Telecaster B-boy
TitleUnicode:テレキャスタービーボーイ
Artist:Shikai Yue
ArtistUnicode:尸解 ユヱ
Creator:Kyutei
Version:Free and Dead as a Bird
Source:
Tags:Anya_Melfissa Addy2607 3mplify Kuse KuBsNia_ZhoYL_ Chihara_Minori eclipselotus ボーカロイド Vocaloid 3 Surii パンデミック Pandemic japanese pop jpop j-pop iii0303 pino pinomaru09 肉片ちゃん様 Sushi_sapo​ RiN _rinchoco91 Fanfun vtuber_fanfun Vtuber
BeatmapID:2822845
BeatmapSetID:1363530

[Difficulty]
HPDrainRate:5.8
CircleSize:3.8
OverallDifficulty:9
ApproachRate:9.3
SliderMultiplier:1.82
SliderTickRate:1

[Events]
//Background and Video events
0,0,"neko.jpg",0,0
//Break Periods
//Storyboard Layer 0 (Background)
//Storyboard Layer 1 (Fail)
//Storyboard Layer 2 (Pass)
//Storyboard Layer 3 (Foreground)
//Storyboard Layer 4 (Overlay)
//Storyboard Sound Samples

[TimingPoints]
-605,329.67032967033,4,2,1,100,1,0
384,-41.3223140495868,4,2,2,70,0,0
631,-166.666666666667,4,2,2,5,0,0
713,-70.4225352112676,4,2,2,70,0,0
1208,-61.7283950617284,4,2,2,70,0,0
1537,-121.951219512195,4,2,2,70,0,0
1620,-100,4,2,2,5,0,0
1702,-81.9672131147541,4,2,2,70,0,0
1785,-100,4,2,2,5,0,0
1867,-61.7283950617284,4,2,2,70,0,0
1949,-100,4,2,2,5,0,0
2032,-61.7283950617284,4,2,2,70,0,0
2526,-54.9450549450549,4,2,2,70,0,0
2856,-121.951219512195,4,2,2,70,0,0
2938,-100,4,2,2,5,0,0
3021,-81.9672131147541,4,2,2,70,0,0
3103,-100,4,2,2,5,0,0
3186,-61.7283950617284,4,2,2,70,0,0
3268,-100,4,2,2,5,0,0
3351,-70.4225352112676,4,2,2,70,0,0
3845,-81.9672131147541,4,2,2,70,0,0
4175,-121.951219512195,4,2,2,70,0,0
4257,-100,4,2,2,5,0,0
4340,-81.9672131147541,4,2,2,70,0,0
4422,-100,4,2,2,5,0,0
4504,-61.7283950617284,4,2,2,70,0,0
4669,-70.4225352112676,4,2,2,70,0,0
4999,-81.9672131147541,4,2,2,70,0,0
5988,-70.4225352112676,4,2,2,70,0,0
6482,-61.7283950617284,4,2,2,70,0,0
6812,-121.951219512195,4,2,2,70,0,0
6895,-100,4,2,2,5,0,0
6977,-81.9672131147541,4,2,2,70,0,0
7060,-100,4,2,2,5,0,0
7142,-61.7283950617284,4,2,2,70,0,0
7224,-100,4,2,2,5,0,0
7307,-61.7283950617284,4,2,2,70,0,0
7801,-54.9450549450549,4,2,2,70,0,0
8131,-121.951219512195,4,2,2,70,0,0
8213,-100,4,2,2,5,0,0
8296,-81.9672131147541,4,2,2,70,0,0
8378,-100,4,2,2,5,0,0
8461,-61.7283950617284,4,2,2,70,0,0
8543,-100,4,2,2,5,0,0
8625,-70.4225352112676,4,2,2,70,0,0
9120,-81.9672131147541,4,2,2,70,0,0
9449,-121.951219512195,4,2,2,70,0,0
9532,-100,4,2,2,5,0,0
9614,-81.9672131147541,4,2,2,70,0,0
9697,-100,4,2,2,5,0,0
9779,-61.7283950617284,4,2,2,70,0,0
9944,-70.4225352112676,4,2,2,70,0,0
10274,-81.9672131147541,4,2,2,70,0,0
11263,-121.951219512195,4,2,1,50,0,0
12746,-70.4225352112676,4,2,1,50,0,0
13076,-98.0392156862745,4,2,1,50,0,0
13735,-121.951219512195,4,2,1,50,0,0
15218,-61.7283950617284,4,2,1,50,0,0
15713,-54.9450549450549,4,2,1,50,0,0
16537,-121.951219512195,4,2,1,50,0,0
18020,-70.4225352112676,4,2,1,50,0,0
18351,-98.0392156862745,4,2,1,50,0,0
19175,-81.9672131147541,4,2,1,50,0,0
19504,-121.951219512195,4,2,1,50,0,0
20823,-238.095238095238,4,2,1,50,0,0
21318,-81.9672131147541,4,2,1,60,0,0
21812,-61.7283950617284,4,2,1,60,0,0
22307,-75.7575757575758,4,2,1,60,0,0
23131,-61.7283950617284,4,2,1,60,0,0
23296,-54.9450549450549,4,2,1,60,0,0
24614,-81.9672131147541,4,2,1,60,0,0
24697,-81.9672131147541,4,2,1,5,0,0
24779,-81.9672131147541,4,2,1,60,0,0
24944,-98.0392156862745,4,2,1,60,0,0
25768,-61.7283950617284,4,2,1,60,0,0
26015,-70.4225352112676,4,2,1,60,0,0
26263,-54.9450549450549,4,2,1,60,0,0
26921,-121.951219512195,4,2,1,60,0,0
27087,-61.7283950617284,4,2,1,60,0,0
27581,-75.7575757575758,4,2,1,60,0,0
28405,-61.7283950617284,4,2,1,60,0,0
28570,-54.9450549450549,4,2,1,60,0,0
29724,-81.9672131147541,4,2,1,60,0,0
30054,-121.951219512195,4,2,1,60,0,0
31043,-61.7283950617284,4,2,1,60,0,0
31290,-70.4225352112676,4,2,1,60,0,0
31537,-61.7283950617284,4,2,1,60,0,0
31867,-49.5049504950495,4,2,1,60,0,0
32032,-81.9672131147541,4,2,1,60,0,0
32362,-312.5,4,2,1,60,0,0
37471,-81.9672131147541,4,2,1,50,0,0
37636,-54.9450549450549,4,2,2,80,0,1
38296,-81.9672131147541,4,2,2,80,0,1
39614,-98.0392156862745,4,2,2,80,0,1
41592,-70.4225352112676,4,2,2,80,0,1
41922,-45.045045045045,4,2,2,80,0,1
42087,-70.4225352112676,4,2,2,80,0,1
42911,-61.7283950617284,4,2,2,70,0,0
43241,-54.9450549450549,4,2,2,80,0,1
44230,-49.5049504950495,4,2,2,80,0,1
44312,-49.5049504950495,4,2,2,80,0,1
44395,-49.5049504950495,4,2,2,80,0,1
44889,-70.4225352112676,4,2,2,80,0,1
46867,-98.0392156862745,4,2,2,80,0,1
47197,-70.4225352112676,4,2,2,80,0,1
47527,-45.045045045045,4,2,2,80,0,1
47692,-70.4225352112676,4,2,2,80,0,1
48186,-61.7283950617284,4,2,2,80,0,1
49340,-54.9450549450549,4,2,2,80,0,1
50329,-61.7283950617284,4,2,2,80,0,1
52801,-98.0392156862745,4,2,2,80,0,1
53296,-81.9672131147541,4,2,2,70,0,0
53460,-54.9450549450549,4,2,2,80,0,1
54120,-81.967213114754,4,2,2,80,0,1
55438,-98.0392156862745,4,2,2,80,0,1
56263,-81.967213114754,4,2,2,80,0,1
59395,-100,4,2,2,80,0,0

[Colours]
Combo1 : 83,83,83
Combo2 : 238,191,81
Combo3 : 204,204,255
Combo4 : 151,177,240

[HitObjects]
43,350,384,6,0,B|69:334|99:336|99:336|158:304|164:199|106:153|32:179|21:259|76:275,1,330.329990675194,2|0,3:2|0:0,0:0:0:0:
204,352,713,6,0,B|251:381|297:336|275:321|321:273|380:305,1,193.829990239884,6|0,3:2|0:0,0:0:0:0:
431,347,1043,1,8,0:0:0:0:
359,209,1208,2,0,B|367:151|367:151|400:122|400:122|411:67,1,147.420003599121,2|0,0:0|3:0,0:0:0:0:
248,17,1537,6,0,P|257:43|263:66,1,37.3100005693054,2|0,0:0|0:0,0:0:0:0:
177,86,1702,2,0,P|168:57|158:29,1,55.5099977130586,10|0,0:0|0:0,0:0:0:0:
66,59,1867,2,0,P|79:96|90:133,1,73.7100017995606,2|0,0:0|0:0,0:0:0:0:
2,216,2032,6,0,B|54:193|86:235|86:235|79:281|129:301,1,147.420003599121,2|0,3:2|0:0,0:0:0:0:
189,342,2279,1,2,0:0:0:0:
189,361,2362,1,8,0:0:0:0:
284,255,2526,2,0,B|244:228|200:234|200:234|170:190|215:164,1,165.620005559754,2|0,0:0|3:0,0:0:0:0:
308,58,2856,6,0,P|299:84|293:107,1,37.3100005693054,2|0,0:0|0:0,0:0:0:0:
379,127,3021,2,0,P|388:98|398:70,1,55.5099977130586,10|0,0:0|0:0,0:0:0:0:
489,100,3186,2,0,P|476:137|465:174,1,73.7100017995606,2|0,0:0|0:0,0:0:0:0:
499,269,3351,6,0,B|447:240|402:287|423:302|378:346|331:318,1,193.829990239884,2|2,3:2|0:0,0:0:0:0:
284,255,3680,1,8,0:0:0:0:
168,373,3845,2,0,P|142:323|87:287,1,111.019995426117,2|0,0:0|3:0,0:0:0:0:
14,167,4175,6,0,P|19:194|25:216,1,37.3100005693054,2|0,0:0|0:0,0:0:0:0:
103,193,4340,2,0,P|96:163|90:134,1,55.5099977130586,10|0,0:0|0:0,0:0:0:0:
188,179,4504,1,2,0:0:0:0:
193,200,4587,1,8,3:0:0:0:
199,222,4669,6,0,B|268:211|268:211|312:224|312:224|388:206,1,193.829990239884,2|0,3:2|0:0,0:0:0:0:
443,153,4999,1,8,0:0:0:0:
492,330,5164,2,0,P|429:314|383:301,1,111.019995426117,2|0,0:0|3:0,0:0:0:0:
509,361,5493,1,2,0:0:0:0:
387,206,5658,1,10,0:0:0:0:
259,361,5823,1,10,0:0:0:0:
259,361,5905,1,8,0:0:0:0:
259,361,5988,6,0,B|212:390|166:345|188:330|142:282|83:314,1,193.829990239884,6|0,3:2|0:0,0:0:0:0:
31,357,6318,1,8,0:0:0:0:
164,227,6482,2,0,B|174:168|236:158|236:158|205:175|210:217,1,147.420003599121,2|0,0:0|3:0,0:0:0:0:
311,273,6812,6,0,P|306:254|303:236,1,37.3100005693054,2|0,0:0|0:0,0:0:0:0:
387,206,6977,2,0,P|392:233|398:260,1,55.5099977130586,10|0,0:0|0:0,0:0:0:0:
490,253,7142,2,0,P|481:217|474:180,1,73.7100017995606,2|0,0:0|0:0,0:0:0:0:
402,54,7307,6,0,B|358:54|331:31|331:31|288:53|312:100,1,147.420003599121,2|0,3:2|0:0,0:0:0:0:
242,132,7554,1,2,0:0:0:0:
241,145,7636,1,8,0:0:0:0:
169,46,7801,2,0,B|114:25|81:70|81:70|90:113|58:135,1,165.620005559754,2|0,0:0|3:0,0:0:0:0:
102,211,8131,6,0,P|98:229|96:247,1,37.3100005693054,2|0,0:0|0:0,0:0:0:0:
183,269,8296,2,0,P|186:241|191:214,1,55.5099977130586,10|0,0:0|0:0,0:0:0:0:
282,222,8461,2,0,P|276:258|272:295,1,73.7100017995606,2|0,0:0|0:0,0:0:0:0:
435,368,8625,6,0,B|425:282|354:291|354:291|388:310|391:359,1,193.829990239884,2|2,3:2|0:0,0:0:0:0:
313,357,8955,1,8,0:0:0:0:
447,240,9120,2,0,B|441:199|441:199|418:178|418:178|410:140,1,111.019995426117,2|0,0:0|3:0,0:0:0:0:
320,71,9449,6,0,P|315:98|309:120,1,37.3100005693054,2|0,0:0|0:0,0:0:0:0:
228,99,9614,2,0,P|235:69|241:40,1,55.5099977130586,10|0,0:0|0:0,0:0:0:0:
136,137,9778,1,2,0:0:0:0:
140,155,9861,1,8,3:0:0:0:
143,170,9944,6,0,B|202:153|245:211|245:211|236:258|274:284,1,193.829990239884,2|0,3:2|0:0,0:0:0:0:
345,352,10274,2,0,P|370:293|419:261,1,111.019995426117,8|2,0:0|0:0,0:0:0:0:
499,171,10603,6,0,P|505:143|476:112,1,55.5099977130586,8|8,0:0|0:0,0:0:0:0:
416,135,10768,2,0,P|410:163|439:194,1,55.5099977130586,8|8,0:0|0:0,0:0:0:0:
447,55,10933,5,8,3:0:0:0:
426,38,11015,1,8,3:0:0:0:
389,58,11097,1,0,3:0:0:0:
353,31,11180,1,0,3:0:0:0:
333,73,11263,5,6,3:2:0:0:
255,138,11427,1,2,0:0:0:0:
120,49,11592,1,10,0:0:0:0:
64,103,11757,2,0,P|75:156|81:183,1,74.6200011386109,2|0,0:0|3:0,0:0:0:0:
212,307,12087,1,2,0:0:0:0:
154,145,12252,1,10,0:0:0:0:
65,294,12416,1,2,0:0:0:0:
223,189,12581,5,2,3:2:0:0:
293,230,12746,2,0,B|343:221|343:221|375:231|375:231|430:218,1,129.219993493256,2|8,0:0|0:0,0:0:0:0:
269,269,13076,2,0,B|334:257|334:257|376:270|376:270|449:253,1,185.640001133057,2|0,0:0|3:0,0:0:0:0:
508,201,13570,1,8,0:0:0:0:
405,62,13735,5,2,0:0:0:0:
314,98,13900,1,2,3:2:0:0:
273,11,14065,1,2,0:0:0:0:
150,140,14230,1,10,0:0:0:0:
224,217,14395,6,0,B|171:208|148:250|148:250|153:289|121:306,1,149.240002277222,2|2,0:0|0:0,0:0:0:0:
248,185,14889,1,8,0:0:0:0:
329,257,15054,1,2,0:0:0:0:
453,166,15219,6,0,B|485:138|485:138|454:258,1,147.420003599121,2|2,3:2|0:2,0:0:0:0:
438,312,15548,1,8,0:0:0:0:
312,358,15713,2,0,B|273:381|235:344|253:332|216:293|168:319,1,165.620005559754,2|0,0:0|3:0,0:0:0:0:
65,232,16043,1,0,3:0:0:0:
62,211,16125,1,0,3:0:0:0:
60,190,16207,1,8,0:0:0:0:
77,382,16373,1,2,0:0:0:0:
195,238,16537,5,2,3:2:0:0:
244,175,16702,2,0,P|238:129|234:100,1,74.6200011386109,2|10,0:0|0:0,0:0:0:0:
318,25,17032,2,0,B|365:6|397:49|397:49|390:86|428:104,1,149.240002277222,2|2,0:0|0:0,0:0:0:0:
474,42,17526,1,10,0:0:0:0:
351,141,17691,1,2,0:0:0:0:
452,271,17856,5,2,3:2:0:0:
389,322,18021,2,0,B|339:313|339:313|307:323|307:323|252:310,1,129.219993493256,2|8,0:0|0:0,0:0:0:0:
413,361,18351,2,0,B|348:349|348:349|306:362|306:362|233:345,1,185.640001133057,2|0,0:0|3:0,0:0:0:0:
187,283,18845,1,8,0:0:0:0:
147,83,19010,1,2,0:0:0:0:
206,134,19175,6,0,B|248:131|287:153|287:153|336:129|309:78,1,166.529993139176,2|0,3:2|0:0,0:0:0:0:
395,22,19504,2,0,P|406:75|412:102,1,74.6200011386109,10|0,0:0|0:0,0:0:0:0:
493,216,19834,2,0,P|504:163|510:136,1,74.6200011386109,2|0,3:2|0:0,0:0:0:0:
462,235,20164,1,10,0:0:0:0:
368,171,20329,1,2,0:0:0:0:
245,305,20493,5,2,3:2:0:0:
86,197,20658,1,2,0:0:0:0:
36,260,20823,2,0,P|39:278|43:297,1,38.2199988336182,8|2,0:0|0:0,0:0:0:0:
137,97,21318,6,0,P|152:72|135:33,1,55.5099977130586,8|0,0:0|0:0,0:0:0:0:
75,30,21483,2,0,P|59:54|76:93,1,55.5099977130586,8|0,0:0|0:0,0:0:0:0:
176,177,21647,1,0,3:0:0:0:
176,177,21730,1,0,3:0:0:0:
176,177,21812,6,0,B|231:166|231:166|268:177|268:177|330:163,1,147.420003599121,6|2,3:2|0:0,0:0:0:0:
454,296,22142,1,10,0:0:0:0:
403,358,22307,2,0,B|344:392|287:337|314:319|259:260|187:299,1,240.239999266846,2|2,0:0|0:0,0:0:0:0:
59,379,22801,1,10,0:0:0:0:
147,237,22966,1,2,0:0:0:0:
28,147,23131,6,0,P|19:105|5:62,1,73.7100017995606,2|0,3:0|0:0,0:0:0:0:
112,7,23296,2,0,B|166:-11|200:33|200:33|199:73|233:87,1,165.620005559754,2|8,0:0|0:0,0:0:0:0:
367,168,23625,2,0,B|265:199|348:238|238:274,1,165.620005559754,2|0,0:0|3:0,0:0:0:0:
128,318,23955,1,0,3:0:0:0:
137,277,24037,1,0,3:0:0:0:
147,237,24119,1,8,0:0:0:0:
101,351,24285,5,2,0:0:0:0:
239,237,24449,1,2,3:2:0:0:
364,366,24614,2,0,P|390:336|425:313,1,55.5099977130586,2|0,0:0|0:0,0:0:0:0:
462,277,24779,1,10,0:0:0:0:
506,139,24944,2,0,B|441:127|441:127|399:140|399:140|326:123,1,185.640001133057,2|2,0:0|0:0,0:0:0:0:
163,15,25438,1,10,0:0:0:0:
197,175,25603,1,2,0:0:0:0:
40,266,25768,6,0,B|88:249|125:291|125:291|119:327|155:347,1,147.420003599121,2|2,3:2|0:0,0:0:0:0:
219,376,26015,2,0,P|252:361|299:347,1,64.609996746628,0|8,0:0|0:0,0:0:0:0:
407,353,26263,2,0,B|398:275|334:283|334:283|364:300|367:344,1,165.620005559754,2|0,0:0|3:0,0:0:0:0:
453,250,26592,1,0,0:0:0:0:
379,162,26757,5,8,0:0:0:0:
382,145,26811,5,0,3:0:0:0:
385,128,26866,5,0,3:0:0:0:
389,112,26922,6,0,L|397:62,1,37.3100005693054,2|0,3:0|0:0,0:0:0:0:
293,3,27087,6,0,B|238:17|238:17|210:42|210:42|148:55,1,147.420003599121,2|2,3:2|0:0,0:0:0:0:
41,164,27416,1,10,0:0:0:0:
91,220,27581,2,0,B|146:211|201:244|201:244|278:204|229:133,1,240.239999266846,2|2,0:0|0:0,0:0:0:0:
59,241,28076,1,10,0:0:0:0:
189,381,28241,1,2,0:0:0:0:
350,264,28405,6,0,P|359:229|377:194,1,73.7100017995606,2|0,3:2|0:0,0:0:0:0:
471,109,28570,2,0,B|372:79|452:42|343:13,1,165.620005559754,2|8,0:0|0:0,0:0:0:0:
264,116,28900,2,0,B|165:145|245:183|136:212,1,165.620005559754,2|0,0:0|3:0,0:0:0:0:
46,247,29230,1,0,3:0:0:0:
51,212,29312,1,0,3:0:0:0:
55,177,29394,1,8,0:0:0:0:
161,323,29559,5,2,0:0:0:0:
273,206,29724,2,0,B|328:186|364:233|364:233|364:273|399:289,1,166.529993139176,2|0,3:2|0:0,0:0:0:0:
512,223,30054,2,0,P|502:182|491:133,1,74.6200011386109,10|0,0:0|0:0,0:0:0:0:
363,78,30384,2,0,P|370:41|379:5,1,74.6200011386109,2|0,3:2|0:0,0:0:0:0:
383,115,30713,1,10,0:0:0:0:
238,22,30878,1,2,0:0:0:0:
186,83,31043,6,0,B|152:77|114:97|114:97|72:74|104:29,1,147.420003599121,2|2,3:2|0:0,0:0:0:0:
14,73,31290,1,0,0:0:0:0:
16,90,31373,1,8,0:0:0:0:
54,184,31537,6,0,B|184:221|77:271|222:310,1,221.130005398682,2|0,0:0|0:0,0:0:0:0:
314,279,31867,2,0,B|309:238|276:242|276:242|291:251|293:274,1,91.9099981768342,8|8,0:0|0:0,0:0:0:0:
383,332,32032,2,0,B|392:250|458:258|458:258|428:276|424:322,1,166.529993139176,4|0,3:2|0:0,0:0:0:0:
501,322,32362,5,2,3:2:0:0:
484,120,32526,2,0,L|489:177,1,58.24,2|2,0:0|0:0,0:0:0:0:
297,35,33021,5,2,3:2:0:0:
277,242,33186,2,0,L|282:184,1,58.24,2|2,0:0|0:0,0:0:0:0:
203,314,33680,6,0,P|208:330|206:342,1,29.12,2|0,3:2|0:0,0:0:0:0:
130,347,34010,2,0,P|125:331|127:319,1,29.12,8|0,3:0|0:0,0:0:0:0:
282,184,34340,2,0,L|276:241,1,58.24,2|8,3:2|3:0,0:0:0:0:
203,314,34834,5,2,0:0:0:0:
202,324,34916,1,0,0:0:0:0:
201,333,34999,2,0,L|204:366,1,29.12,0|0,3:0|0:0,0:0:0:0:
117,299,35329,5,8,3:0:0:0:
83,230,35493,1,2,0:0:0:0:
235,195,35658,5,2,3:2:0:0:
304,86,35823,1,2,0:0:0:0:
338,184,35988,5,8,3:0:0:0:
192,92,36153,1,2,0:0:0:0:
424,291,36318,5,2,3:0:0:0:
355,325,36482,1,2,0:0:0:0:
465,93,36812,5,2,0:0:0:0:
46,265,37471,6,0,P|64:261|105:278,1,55.5099977130586,2|0,0:0|0:0,0:0:0:0:
159,339,37636,6,0,P|117:231|89:102,1,248.43000833963,6|0,3:2|0:0,0:0:0:0:
310,188,37966,2,0,P|233:157|180:95,1,165.620005559754,10|0,0:0|0:0,0:0:0:0:
499,33,38296,6,0,P|443:33|414:79,1,111.019995426117,2|0,3:2|0:0,0:0:0:0:
398,245,38543,2,0,P|421:194|396:146,1,111.019995426117,2|0,0:0|0:0,0:0:0:0:
259,49,38790,2,0,P|285:92|341:95,1,111.019995426117,2|0,0:0|3:0,0:0:0:0:
235,13,39120,5,2,0:0:0:0:
46,61,39285,1,10,0:0:0:0:
103,248,39449,1,2,0:0:0:0:
205,350,39614,6,0,P|253:343|275:298,1,92.8200005665283,2|0,3:2|0:0,0:0:0:0:
269,148,39861,2,0,P|252:194|280:234,1,92.8200005665283,2|0,0:0|0:0,0:0:0:0:
410,307,40109,2,0,P|380:269|325:271,1,92.8200005665283,2|0,0:0|3:0,0:0:0:0:
448,378,40438,5,2,0:0:0:0:
512,209,40603,1,10,0:0:0:0:
356,125,40768,1,2,0:0:0:0:
359,143,40850,1,2,0:0:0:0:
362,161,40932,1,2,3:2:0:0:
452,37,41098,5,2,0:0:0:0:
279,178,41263,1,10,0:0:0:0:
157,12,41427,1,2,0:0:0:0:
110,74,41592,6,0,B|118:126|118:126|131:150|131:150|139:206,1,129.219993493256,2|0,3:2|0:0,0:0:0:0:
204,261,41840,1,2,0:0:0:0:
219,273,41922,2,0,B|224:223|263:228|263:228|245:239|243:267,1,101.010002466065,8|0,0:0|0:0,0:0:0:0:
118,348,42087,2,0,B|105:234|14:245|14:245|55:270|61:334,1,258.439986986512,2|0,0:0|3:0,0:0:0:0:
51,339,42499,1,0,3:0:0:0:
44,352,42581,1,8,0:0:0:0:
218,273,42746,5,10,0:0:0:0:
218,273,42829,1,8,0:0:0:0:
218,273,42911,2,0,B|261:271|290:288|290:288|337:266|313:231,1,147.420003599121,2|0,3:2|0:0,0:0:0:0:
155,51,43241,6,0,P|113:161|115:293,1,248.43000833963,14|0,0:0|0:0,0:0:0:0:
310,143,43570,2,0,P|247:197|217:273,1,165.620005559754,2|0,3:2|0:0,0:0:0:0:
250,343,43818,1,2,0:0:0:0:
255,357,43900,1,8,0:0:0:0:
443,246,44065,5,2,0:0:0:0:
446,249,44147,1,0,0:0:0:0:
450,253,44230,2,0,B|444:220|444:220|453:198|453:198|447:163,1,91.9099981768342,0|0,3:0|0:0,0:0:0:0:
484,69,44395,5,2,0:0:0:0:
264,0,44559,1,10,0:0:0:0:
360,200,44724,1,2,0:0:0:0:
262,296,44889,6,0,P|199:287|172:230,1,129.219993493256,2|0,3:2|0:0,0:0:0:0:
179,41,45136,2,0,P|199:100|164:152,1,129.219993493256,2|0,0:0|0:0,0:0:0:0:
0,244,45384,1,10,0:0:0:0:
0,244,45466,1,8,0:0:0:0:
0,244,45548,2,0,P|36:196|101:201,1,129.219993493256,4|2,3:2|0:0,0:0:0:0:
200,334,45878,5,10,0:0:0:0:
281,107,46043,1,2,3:2:0:0:
412,309,46208,1,10,0:0:0:0:
390,111,46373,5,2,3:2:0:0:
309,337,46538,1,10,0:0:0:0:
157,146,46703,1,2,3:2:0:0:
345,261,46867,6,0,P|385:215|462:198,1,139.230000849792,2|0,3:2|0:0,0:0:0:0:
484,114,47197,5,8,0:0:0:0:
450,123,47279,1,8,0:0:0:0:
417,114,47361,1,10,0:0:0:0:
390,91,47444,1,8,0:0:0:0:
364,56,47526,5,10,0:0:0:0:
319,20,47609,1,8,0:0:0:0:
267,10,47691,1,8,0:0:0:0:
216,28,47773,1,8,0:0:0:0:
162,89,47856,6,0,P|146:115|156:145,1,64.609996746628,8|8,0:0|0:0,0:0:0:0:
231,157,48021,2,0,P|246:129|236:100,1,64.609996746628,8|8,3:0|3:0,0:0:0:0:
184,217,48186,5,6,3:2:0:0:
393,150,48351,1,2,0:0:0:0:
460,363,48515,1,8,0:0:0:0:
276,209,48680,1,10,0:0:0:0:
279,172,48762,1,8,0:0:0:0:
283,135,48844,5,2,3:2:0:0:
445,5,49010,1,2,0:0:0:0:
399,265,49175,1,8,0:0:0:0:
322,41,49340,6,0,B|261:5|202:62|230:81|173:142|99:101,1,248.43000833963,2|0,0:0|0:0,0:0:0:0:
23,28,49669,1,8,3:0:0:0:
89,297,49834,1,10,0:0:0:0:
105,104,49999,1,10,0:0:0:0:
108,76,50081,1,8,0:0:0:0:
110,48,50163,1,2,3:2:0:0:
253,161,50329,2,0,B|310:152|310:152|347:167|347:167|408:156,1,147.420003599121,2|8,0:0|0:0,0:0:0:0:
496,366,50658,6,0,B|447:326|385:338|385:338|339:278|407:243,1,221.130005398682,2|0,0:0|0:0,0:0:0:0:
459,207,50988,1,0,3:0:0:0:
269,76,51153,1,10,0:0:0:0:
475,0,51318,1,10,0:0:0:0:
466,35,51400,1,8,0:0:0:0:
458,71,51482,5,2,3:2:0:0:
258,223,51647,1,2,0:0:0:0:
170,8,51812,1,10,0:0:0:0:
366,144,51977,1,2,0:0:0:0:
146,287,52142,6,0,B|134:186|54:196|54:196|90:218|95:274,1,221.130005398682,2|0,3:2|0:0,0:0:0:0:
118,362,52471,1,8,0:0:0:0:
244,248,52636,1,2,0:0:0:0:
368,371,52801,2,0,P|396:334|442:324,1,92.8200005665283,2|0,3:2|3:0,0:0:0:0:
503,354,53131,1,8,0:0:0:0:
439,113,53296,6,0,P|421:117|385:93,1,55.5099977130586,8|8,0:0|0:0,0:0:0:0:
319,15,53461,6,0,P|361:123|389:252,1,248.43000833963,6|0,3:2|0:0,0:0:0:0:
170,148,53791,2,0,P|247:179|309:241,1,165.620005559754,10|0,0:0|0:0,0:0:0:0:
0,325,54121,6,0,P|53:321|81:274,1,111.019995426117,2|0,3:2|0:0,0:0:0:0:
84,104,54368,2,0,P|61:152|87:199,1,111.019995426117,2|0,0:0|0:0,0:0:0:0:
232,294,54615,2,0,P|202:249|147:248,1,111.019995426117,2|0,0:0|3:0,0:0:0:0:
268,373,54944,5,2,0:0:0:0:
429,286,55109,1,10,0:0:0:0:
329,141,55274,1,2,0:0:0:0:
213,37,55438,6,0,P|164:43|142:88,1,92.8200005665283,2|0,3:2|0:0,0:0:0:0:
147,237,55686,2,0,P|163:190|135:149,1,92.8200005665283,2|0,0:0|0:0,0:0:0:0:
6,79,55933,2,0,P|35:116|86:113,1,92.8200005665283,2|0,0:0|3:0,0:0:0:0:
238,11,56263,5,2,0:0:0:0:
350,192,56427,1,10,0:0:0:0:
512,30,56592,1,2,0:0:0:0:
253,110,56757,1,2,3:2:0:0:
256,138,56839,1,0,3:0:0:0:
259,166,56921,5,2,3:2:0:0:
105,321,57087,1,10,0:0:0:0:
160,57,57252,1,2,0:0:0:0:
271,226,57416,5,6,3:2:0:0:
0,160,57581,1,2,0:0:0:0:
168,31,57746,5,10,0:0:0:0:
100,354,57911,1,10,0:0:0:0:
100,354,57993,1,8,0:0:0:0:
100,354,58076,1,2,3:2:0:0:
53,71,58241,5,0,0:0:0:0:
278,187,58405,1,8,0:0:0:0:
34,274,58570,1,8,0:0:0:0:
34,274,58653,1,8,0:0:0:0:
34,274,58735,5,6,3:2:0:0:
231,38,58900,1,10,0:0:0:0:
265,338,59065,1,10,0:0:0:0:
53,71,59230,1,10,0:0:0:0:
366,172,59395,1,2,3:2:0:0:
