osu file format v14

[General]
AudioFilename: audio.mp3
AudioLeadIn: 0
PreviewTime: 52320
Countdown: 0
SampleSet: Soft
StackLeniency: 0.7
Mode: 0
LetterboxInBreaks: 0
WidescreenStoryboard: 1

[Editor]
DistanceSpacing: 1.3
BeatDivisor: 4
GridSize: 32
TimelineZoom: 1

[Metadata]
Title:Chiisana Koi no Uta (TV Size)
TitleUnicode:小さな恋のうた (TV Size)
Artist:Shiina Mahiru (CV: Iwami Manaka)
ArtistUnicode:椎名真昼 (CV: 石見舞菜香)
Creator:Sekai
Version:pnky's Hard
Source:お隣の天使様にいつの間にか駄目人間にされていた件
Tags:Sekaii Sekai-nyan Kanui pnky kxlman leomine LeomineXD No Dap No_Dap shioi moeka momoka Mrgglock Jpop Anime J-pop Japanese pop Mahiru Shiina Saeki-san 佐伯さん Saekisan Amane Fujimiya 藤宮周 Otonari no Tenshi-sama ni Itsunomanika Dame Ningen ni Sareteita Ken Tenshi The Angel Next Door Spoils Me Rotten Ending ed Mongol800 Cover
BeatmapID:3983124
BeatmapSetID:1928731

[Difficulty]
HPDrainRate:4
CircleSize:3.5
OverallDifficulty:5
ApproachRate:6.5
SliderMultiplier:1.42
SliderTickRate:1

[Events]
//Background and Video events
Video,0,"my angel mahiru.mp4"
0,0,"tenshi.jpg",0,0
//Break Periods
//Storyboard Layer 0 (Background)
//Storyboard Layer 1 (Fail)
//Storyboard Layer 2 (Pass)
//Storyboard Layer 3 (Foreground)
//Storyboard Layer 4 (Overlay)
//Storyboard Sound Samples

[TimingPoints]
1145,588.235294117647,4,2,1,40,1,0
1145,-111.111111111111,4,2,1,40,0,0
10556,-105.263157894737,4,2,1,50,0,0
21144,588.235294117647,4,2,1,60,1,0
21144,-100,4,2,1,60,0,0
39967,-111.111111111111,4,2,1,65,0,0
48202,-111.111111111111,4,2,1,70,0,0
50555,-111.111111111111,4,2,1,75,0,0
52320,-111.111111111111,4,2,1,45,0,0
52908,588.235294117647,4,2,1,80,1,0
52908,-76.9230769230769,4,2,1,80,0,1
71731,-83.3333333333333,4,2,1,80,0,1
88202,-100,4,2,1,70,0,0

[Colours]
Combo1 : 162,221,214
Combo2 : 224,129,129
Combo3 : 255,164,233
Combo4 : 168,140,242

[HitObjects]
64,170,1145,6,0,P|68:109|136:103,1,127.799996099854,0|2,1:1|2:2,0:0:0:0:
200,49,2027,1,2,2:2:0:0:
265,110,2321,2,0,B|280:153|257:178|241:173|216:205|235:242,1,127.799996099854,2|2,2:2|2:2,0:0:0:0:
364,342,3497,6,0,P|399:327|434:319,1,63.8999980499268,0|0,1:1|0:0,0:0:0:0:
393,236,4086,2,0,P|362:244|333:257,1,63.8999980499268,2|2,2:2|2:2,0:0:0:0:
273,324,4674,1,2,2:2:0:0:
99,367,5262,6,0,P|54:334|59:283,1,95.8499970748902,2|0,2:2|0:0,0:0:0:0:
83,265,5850,2,0,L|96:132,1,127.799996099854,0|2,1:1|2:2,0:0:0:0:
46,62,6733,1,2,2:2:0:0:
125,20,7027,1,2,1:2:0:0:
270,123,7615,6,0,P|303:113|336:108,1,63.8999980499268,2|2,2:2|2:2,0:0:0:0:
410,66,8203,2,0,P|420:99|425:132,1,63.8999980499268,0|0,1:1|0:0,0:0:0:0:
452,163,8644,2,0,P|419:173|386:178,2,63.8999980499268,2|0|0,2:2|0:0|0:0,0:0:0:0:
484,193,9380,1,0,1:1:0:0:
341,301,9968,5,2,1:2:0:0:
266,240,10262,1,2,2:2:0:0:
177,273,10556,2,0,P|159:326|68:330,1,134.899996397781,4|2,1:2|1:2,0:0:0:0:
19,284,11439,1,2,2:2:0:0:
19,284,11733,1,2,1:2:0:0:
173,175,12321,6,0,P|181:139|185:106,1,67.4499981988907,10|2,2:2|2:2,0:0:0:0:
128,32,12909,2,0,P|92:24|59:20,1,67.4499981988907,2|0,1:2|0:0,0:0:0:0:
11,101,13497,1,2,1:2:0:0:
11,101,13792,1,2,2:2:0:0:
55,184,14086,1,2,1:2:0:0:
126,358,14674,6,0,P|164:308|210:309,1,101.174997298336,10|0,2:2|0:0,0:0:0:0:
242,287,15262,2,0,P|305:327|393:334,1,134.899996397781,2|2,1:2|1:2,0:0:0:0:
450,373,16144,1,2,2:2:0:0:
505,285,16439,2,0,P|494:254|488:216,1,67.4499981988907,2|0,1:2|0:0,0:0:0:0:
404,175,17027,2,0,P|394:207|391:240,1,67.4499981988907,10|2,2:2|2:2,0:0:0:0:
482,129,17615,6,0,P|507:90|503:68,1,67.4499981988907,2|0,1:2|0:0,0:0:0:0:
459,55,18056,2,0,P|426:49|398:29,2,67.4499981988907,2|0|0,2:2|0:0|0:0,0:0:0:0:
491,20,18792,1,0,1:1:0:0:
313,83,19380,2,0,P|275:91|232:111,2,67.4499981988907,10|2|0,2:2|2:2|1:1,0:0:0:0:
313,83,21144,6,0,P|271:148|200:157,1,142,4|2,1:2|1:2,0:0:0:0:
128,104,22026,1,2,2:2:0:0:
78,190,22320,2,0,P|114:251|131:333,1,142,2|10,1:2|2:2,0:0:0:0:
224,365,23202,1,2,2:2:0:0:
224,365,23496,6,0,P|240:330|263:302,1,71,2|2,1:2|2:2,0:0:0:0:
349,259,24085,2,0,P|320:232|301:202,1,71,2|2,1:2|2:2,0:0:0:0:
316,107,24673,2,0,P|258:127|161:125,1,142,2|10,1:2|2:2,0:0:0:0:
134,50,25555,5,2,2:2:0:0:
134,50,25702,1,0,0:0:0:0:
134,50,25849,2,0,P|192:30|289:32,1,142,2|2,1:2|1:2,0:0:0:0:
325,119,26732,1,2,2:2:0:0:
325,119,27026,2,0,P|383:139|480:137,1,142,2|10,1:2|2:2,0:0:0:0:
278,214,28202,6,0,P|251:243|245:280,1,71,2|2,1:2|2:2,0:0:0:0:
231,321,28644,2,0,P|192:312|157:325,2,71,2|0|2,2:2|0:0|2:2,0:0:0:0:
264,357,29379,1,0,1:1:0:0:
359,329,29673,1,0,0:0:0:0:
457,301,29967,1,10,2:2:0:0:
457,301,30261,1,2,3:2:0:0:
390,227,30555,6,0,P|358:175|428:140,1,142,2|2,1:2|1:2,0:0:0:0:
493,192,31438,1,2,2:2:0:0:
493,192,31732,1,2,1:2:0:0:
397,17,32320,6,0,P|337:49|322:49,1,71,10|2,2:2|2:2,0:0:0:0:
256,108,32908,2,0,P|221:80|173:76,1,71,2|2,1:2|2:2,0:0:0:0:
149,162,33496,2,0,P|184:190|232:194,1,71,2|2,1:2|2:2,0:0:0:0:
105,82,34085,2,0,P|65:126|69:208,1,142,2|10,1:2|2:2,0:0:0:0:
148,279,34967,5,2,2:2:0:0:
148,279,35114,1,0,0:0:0:0:
148,279,35261,2,0,B|116:361|116:361|162:323,1,142,2|2,1:2|1:2,0:0:0:0:
250,362,36144,1,2,2:2:0:0:
321,292,36438,2,0,P|285:217|307:160,1,142,2|10,1:2|2:2,0:0:0:0:
486,240,37614,6,0,P|478:279|470:330,1,71,2|2,1:2|2:2,0:0:0:0:
430,336,38055,2,0,P|391:328|340:320,2,71,2|0|2,2:2|0:0|2:2,0:0:0:0:
454,379,38791,1,0,1:1:0:0:
308,243,39379,5,10,2:2:0:0:
227,312,39673,1,2,3:2:0:0:
131,264,39967,2,0,P|110:195|137:130,2,127.799996099854,4|2|2,1:2|1:2|1:2,0:0:0:0:
265,145,41732,6,0,P|241:126|209:114,1,63.8999980499268,2|2,1:2|2:2,0:0:0:0:
170,34,42320,2,0,P|117:62|87:68,1,63.8999980499268,2|2,1:2|2:2,0:0:0:0:
69,55,42761,2,0,P|41:2|35:-28,2,63.8999980499268,2|0|0,2:2|0:0|0:0,0:0:0:0:
60,98,43496,1,2,1:2:0:0:
151,252,44085,5,2,1:2:0:0:
71,211,44379,1,2,2:2:0:0:
5,272,44673,2,0,P|11:321|28:334,1,63.8999980499268,2|2,1:2|2:2,0:0:0:0:
55,355,45114,2,0,P|26:366|-13:392,2,63.8999980499268
95,336,45849,1,2,1:2:0:0:
177,370,46144,1,0,0:0:0:0:
252,321,46438,2,0,P|240:288|235:254,1,63.8999980499268,2|2,1:2|2:2,0:0:0:0:
307,197,47026,6,0,P|336:223|378:223,1,63.8999980499268,2|2,1:2|2:2,0:0:0:0:
399,200,47467,2,0,P|415:166|433:136,2,63.8999980499268
432,233,48202,2,0,P|456:307|471:368,2,127.799996099854,4|0|0,1:2|1:1|1:1,0:0:0:0:
312,99,49967,5,2,1:2:0:0:
360,24,50261,1,0,0:0:0:0:
446,48,50555,2,0,P|475:51|512:61,1,63.8999980499268,6|2,1:2|3:2,0:0:0:0:
494,148,51144,2,0,P|463:139|431:136,1,63.8999980499268,2|2,3:2|3:2,0:0:0:0:
394,157,51585,1,0,3:3:0:0:
394,157,51732,1,12,2:2:0:0:
274,294,52908,6,0,P|220:229|120:235,1,184.599991549683,12|8,2:2|2:2,0:0:0:0:
23,168,53790,1,2,1:2:0:0:
85,65,54084,2,0,P|123:96|194:112,1,92.2999957748415,10|2,2:2|1:2,0:0:0:0:
213,76,54525,1,2,1:2:0:0:
321,138,54819,1,2,2:2:0:0:
321,138,54966,1,0,1:1:0:0:
423,59,55260,6,0,B|461:39|461:39|505:73|522:135|478:184,1,184.599991549683,10|8,2:2|2:2,0:0:0:0:
386,222,56143,1,2,1:2:0:0:
486,287,56437,2,0,P|500:321|457:363,1,92.2999957748415,10|2,2:2|1:2,0:0:0:0:
411,378,56878,1,2,1:2:0:0:
307,316,57172,1,2,2:2:0:0:
187,364,57466,6,0,L|83:373,1,92.2999957748415,2|2,3:2|2:2,0:0:0:0:
49,331,57908,1,2,2:2:0:0:
130,243,58202,2,0,L|234:252,1,92.2999957748415,8|2,2:2|1:2,0:0:0:0:
320,182,58790,1,10,2:2:0:0:
298,64,59084,1,0,1:1:0:0:
180,40,59378,1,10,2:2:0:0:
103,133,59672,5,0,1:1:0:0:
103,133,59966,2,0,P|146:138|200:146,1,92.2999957748415,10|2,2:2|2:2,0:0:0:0:
217,149,60408,1,0,0:0:0:0:
239,155,60555,1,10,2:2:0:0:
183,261,60849,1,2,1:2:0:0:
268,344,61143,6,0,P|311:339|365:331,1,92.2999957748415,10|0,2:2|1:1,0:0:0:0:
382,328,61585,1,0,1:1:0:0:
404,322,61732,1,10,2:2:0:0:
485,234,62025,1,2,1:2:0:0:
399,137,62319,6,0,P|395:40|473:45,1,184.599991549683,12|8,2:2|2:2,0:0:0:0:
413,146,63202,1,2,1:2:0:0:
295,168,63496,2,0,P|246:141|205:142,1,92.2999957748415,10|2,2:2|1:2,0:0:0:0:
170,185,63937,1,2,1:2:0:0:
169,308,64231,1,2,2:2:0:0:
169,308,64378,2,0,P|147:320|122:323,1,46.1499978874208,0|2,1:1|2:2,0:0:0:0:
68,306,64672,6,0,P|29:224|51:129,1,184.599991549683,8|8,2:2|2:2,0:0:0:0:
133,51,65555,1,2,1:2:0:0:
227,125,65849,2,0,B|259:112|295:143|329:133,1,92.2999957748415,10|2,2:2|1:2,0:0:0:0:
366,100,66290,1,2,1:2:0:0:
464,168,66584,1,2,2:2:0:0:
360,227,66878,5,2,3:2:0:0:
360,227,67025,2,0,P|339:269|368:324,1,92.2999957748415,8|2,2:2|2:2,0:0:0:0:
370,325,67466,1,0,0:0:0:0:
392,328,67613,1,8,2:2:0:0:
488,256,67908,1,2,1:2:0:0:
428,152,68202,2,0,P|401:92|385:1,1,138.449993662262,10|0,2:2|1:1,0:0:0:0:
327,8,68790,2,0,P|311:57|246:76,1,92.2999957748415,10|0,2:2|1:1,0:0:0:0:
156,31,69378,5,10,2:2:0:0:
89,131,69672,1,2,1:2:0:0:
177,211,69966,2,0,P|200:202|220:197,2,46.1499978874208,10|0|2,2:2|0:0|1:2,0:0:0:0:
86,290,70555,2,0,P|74:337|116:366,1,92.2999957748415,10|0,2:2|1:1,0:0:0:0:
165,355,70996,1,0,1:1:0:0:
165,355,71143,2,0,P|209:338|260:325,1,92.2999957748415,10|2,2:2|1:2,0:0:0:0:
323,241,71731,6,0,P|377:303|476:296,1,170.399994799805,12|8,2:2|2:2,0:0:0:0:
505,203,72613,1,0,1:1:0:0:
437,114,72908,2,0,P|397:129|352:139,1,85.1999973999024,10|0,2:2|1:1,0:0:0:0:
253,180,73496,2,0,P|213:165|168:155,1,85.1999973999024,10|0,2:2|1:1,0:0:0:0:
120,163,73937,5,2,2:2:0:0:
120,163,74084,2,0,P|94:107|179:46,1,170.399994799805,10|8,2:2|2:2,0:0:0:0:
271,12,74966,1,0,1:1:0:0:
345,94,75260,2,0,P|386:89|425:66,1,85.1999973999024,8|0,2:2|1:1,0:0:0:0:
467,32,75702,1,0,0:0:0:0:
467,32,75849,1,10,2:2:0:0:
511,133,76143,1,0,1:1:0:0:
413,185,76437,6,0,P|378:239|387:287,1,85.1999973999024,10|2,2:2|2:2,0:0:0:0:
415,305,76878,1,2,2:2:0:0:
415,305,77025,1,10,2:2:0:0:
330,376,77319,1,0,1:1:0:0:
227,333,77613,2,0,P|198:301|191:260,1,85.1999973999024,8|0,2:2|1:1,0:0:0:0:
274,186,78202,2,0,P|306:129|273:63,1,127.799996099854,10|2,2:2|2:2,0:0:0:0:
239,44,78790,6,0,P|174:75|175:172,1,170.399994799805,10|8,2:2|2:2,0:0:0:0:
70,213,79672,1,0,1:1:0:0:
162,273,79966,2,0,P|173:314|178:366,1,85.1999973999024,8|0,2:2|1:1,0:0:0:0:
235,375,80408,1,0,1:1:0:0:
235,375,80555,2,0,P|276:364|328:359,1,85.1999973999024,10|0,2:2|1:1,0:0:0:0:
355,318,80996,5,0,3:3:0:0:
355,318,81143,2,0,P|352:220|427:209,1,170.399994799805,12|10,2:2|2:2,0:0:0:0:
502,130,82025,1,0,1:1:0:0:
502,130,82172,1,0,0:0:0:0:
502,130,82319,2,0,P|416:112|427:25,1,170.399994799805,10|10,2:2|2:2,0:0:0:0:
299,4,83202,1,2,1:2:0:0:
254,107,83496,5,10,2:2:0:0:
254,107,83790,2,0,P|284:159|309:286,1,170.399994799805,2|2,2:2|1:2,0:0:0:0:
223,335,84672,2,0,P|193:283|168:156,1,170.399994799805,10|8,2:2|2:2,0:0:0:0:
80,126,85555,5,2,1:2:0:0:
80,126,85702,1,0,3:3:0:0:
80,126,85849,2,0,P|68:168|29:191,1,85.1999973999024,10|2,2:2|1:2,0:0:0:0:
1,304,86437,2,0,P|43:293|82:315,1,85.1999973999024,12|2,2:2|1:2,0:0:0:0:
121,354,86878,1,8,2:2:0:0:
121,354,87025,1,10,2:2:0:0:
198,275,87319,1,2,3:2:0:0:
298,321,87613,2,0,P|376:338|491:338,1,170.399994799805,2|6,3:2|1:2,0:0:0:0:
