osu file format v14

[General]
AudioFilename: audio.mp3
AudioLeadIn: 0
PreviewTime: 52320
Countdown: 0
SampleSet: Soft
StackLeniency: 0.7
Mode: 0
LetterboxInBreaks: 0
WidescreenStoryboard: 1

[Editor]
DistanceSpacing: 1
BeatDivisor: 4
GridSize: 32
TimelineZoom: 1

[Metadata]
Title:Chiisana Koi no Uta (TV Size)
TitleUnicode:小さな恋のうた (TV Size)
Artist:Shiina Mahiru (CV: Iwami Manaka)
ArtistUnicode:椎名真昼 (CV: 石見舞菜香)
Creator:Sekai
Version:kxlman's Insane
Source:お隣の天使様にいつの間にか駄目人間にされていた件
Tags:Sekaii Sekai-nyan Kanui pnky kxlman leomine LeomineXD No Dap No_Dap shioi moeka momoka Mrgglock Jpop Anime J-pop Japanese pop Mahiru Shiina Saeki-san 佐伯さん Saekisan Amane Fujimiya 藤宮周 Otonari no Tenshi-sama ni Itsunomanika Dame Ningen ni Sareteita Ken Tenshi The Angel Next Door Spoils Me Rotten Ending ed Mongol800 Cover
BeatmapID:3983120
BeatmapSetID:1928731

[Difficulty]
HPDrainRate:5
CircleSize:3.8
OverallDifficulty:6
ApproachRate:7
SliderMultiplier:1.7
SliderTickRate:1

[Events]
//Background and Video events
Video,0,"my angel mahiru.mp4"
0,0,"tenshi.jpg",0,0
//Break Periods
//Storyboard Layer 0 (Background)
//Storyboard Layer 1 (Fail)
//Storyboard Layer 2 (Pass)
//Storyboard Layer 3 (Foreground)
//Storyboard Layer 4 (Overlay)
//Storyboard Sound Samples

[TimingPoints]
1145,588.235294117647,4,2,1,40,1,0
1145,-166.666666666667,4,2,1,40,0,0
10556,-133.333333333333,4,2,1,50,0,0
21144,588.235294117647,4,2,1,60,1,0
21144,-117.647058823529,4,2,1,60,0,0
39967,-117.647058823529,4,2,1,65,0,0
48202,-117.647058823529,4,2,1,70,0,0
50555,-117.647058823529,4,2,1,75,0,0
52320,-117.647058823529,4,2,1,45,0,0
52908,588.235294117647,4,2,1,80,1,0
52908,-100,4,2,1,80,0,1
88202,-100,4,2,1,70,0,0

[Colours]
Combo1 : 162,221,214
Combo2 : 224,129,129
Combo3 : 255,164,233
Combo4 : 168,140,242

[HitObjects]
428,77,1145,6,0,L|418:130,1,50.9999984436036,0|2,1:1|2:2,0:0:0:0:
377,197,1733,1,2,2:2:0:0:
377,197,2027,1,2,2:2:0:0:
318,124,2321,2,0,P|280:95|223:91,1,101.999996887207,2|2,2:2|2:2,0:0:0:0:
162,139,3203,1,2,2:2:0:0:
162,139,3497,6,0,L|153:190,1,50.9999984436036,0|0,1:1|0:0,0:0:0:0:
102,256,4086,1,2,2:2:0:0:
102,256,4380,1,2,2:2:0:0:
171,314,4674,2,0,B|225:307|220:328|280:324,1,101.999996887207,2|2,2:2|2:2,0:0:0:0:
350,313,5556,1,2,2:2:0:0:
350,313,5850,6,0,L|357:262,1,50.9999984436036,0|2,1:1|2:2,0:0:0:0:
405,195,6439,1,2,2:2:0:0:
405,195,6733,1,2,2:2:0:0:
332,127,7027,2,0,B|290:119|290:119|278:106|278:106|237:99,1,101.999996887207,2|2,1:2|2:2,0:0:0:0:
139,108,7909,1,2,2:2:0:0:
139,108,8203,6,0,L|128:50,1,50.9999984436036,0|0,1:1|0:0,0:0:0:0:
116,31,8644,1,2,2:2:0:0:
116,31,8792,2,0,P|92:21|67:19,1,50.9999984436036,0|0,1:1|0:0,0:0:0:0:
0,98,9380,2,0,L|19:200,1,101.999996887207,0|2,1:1|1:2,0:0:0:0:
40,282,10262,1,2,2:2:0:0:
124,210,10556,6,0,P|152:195|186:199,1,63.7500024318696,4|2,1:2|2:2,0:0:0:0:
261,267,11144,1,2,1:2:0:0:
261,267,11439,1,2,2:2:0:0:
314,366,11733,2,0,P|361:366|400:340,1,95.6250036478044,2|0,1:2|0:0,0:0:0:0:
421,315,12321,2,0,L|432:250,1,63.7500024318696,10|2,2:2|2:2,0:0:0:0:
331,161,12909,6,0,L|342:223,1,63.7500024318696,2|0,1:2|0:0,0:0:0:0:
413,120,13497,1,2,1:2:0:0:
413,120,13792,1,2,2:2:0:0:
248,179,14086,2,0,L|153:162,1,95.6250036478044,2|0,1:2|0:0,0:0:0:0:
77,146,14674,1,10,2:2:0:0:
77,146,15262,6,0,L|65:208,1,63.7500024318696,2|0,1:2|0:0,0:0:0:0:
75,313,15850,1,2,1:2:0:0:
75,313,16144,1,2,2:2:0:0:
170,258,16439,2,0,B|237:246|237:246|246:259|263:270,1,95.6250036478044,2|0,1:2|0:0,0:0:0:0:
306,201,17027,2,0,L|317:135,1,63.7500024318696,10|2,2:2|2:2,0:0:0:0:
418,52,17615,5,2,1:2:0:0:
468,162,17909,1,0,0:0:0:0:
468,162,18203,2,0,P|436:164|408:150,1,63.7500024318696,0|0,1:1|0:0,0:0:0:0:
296,71,18792,2,0,L|284:137,1,63.7500024318696,0|0,1:1|0:0,0:0:0:0:
221,212,19380,1,10,2:2:0:0:
169,124,19674,1,2,2:2:0:0:
112,257,19968,2,0,P|50:267|-1:233,1,127.500004863739,0|2,1:1|2:2,0:0:0:0:
257,132,21144,6,0,L|328:119,1,72.2500013780594,4|2,1:2|2:2,0:0:0:0:
425,63,21732,1,2,1:2:0:0:
321,28,22026,1,2,2:2:0:0:
404,139,22320,2,0,P|446:106|501:108,1,108.375002067089,2|0,1:2|0:0,0:0:0:0:
512,136,22908,2,0,L|499:207,1,72.2500013780594,10|2,2:2|2:2,0:0:0:0:
406,300,23496,5,2,1:2:0:0:
403,172,23791,1,2,2:2:0:0:
500,286,24085,1,2,1:2:0:0:
512,136,24379,1,2,2:2:0:0:
343,240,24673,2,0,B|300:232|300:232|286:216|286:216|242:209,1,108.375002067089,2|0,1:2|0:0,0:0:0:0:
208,200,25261,2,0,L|194:271,1,72.2500013780594,10|2,2:2|2:2,0:0:0:0:
118,353,25849,5,2,1:2:0:0:
95,249,26144,1,2,2:2:0:0:
122,371,26438,1,2,1:2:0:0:
194,270,26732,1,2,2:2:0:0:
3,285,27026,2,0,L|24:173,1,108.375002067089,2|0,1:2|0:0,0:0:0:0:
35,141,27614,2,0,P|69:123|108:126,1,72.2500013780594,10|2,2:2|2:2,0:0:0:0:
232,170,28202,6,0,L|244:97,1,72.2500013780594,2|2,1:2|2:2,0:0:0:0:
251,70,28644,1,2,2:2:0:0:
251,70,28791,2,0,P|285:52|324:55,1,72.2500013780594,0|0,1:1|0:0,0:0:0:0:
414,165,29379,2,0,P|378:165|346:148,1,72.2500013780594,0|0,1:1|0:0,0:0:0:0:
493,105,29967,1,10,2:2:0:0:
451,243,30261,1,2,3:2:0:0:
403,80,30555,6,0,L|331:67,1,72.2500013780594,2|2,1:2|2:2,0:0:0:0:
209,102,31144,1,2,1:2:0:0:
299,170,31438,1,2,2:2:0:0:
257,31,31732,2,0,P|210:0|153:2,1,108.375002067089,2|0,1:2|0:0,0:0:0:0:
126,17,32320,2,0,L|112:88,1,72.2500013780594,10|2,2:2|2:2,0:0:0:0:
109,205,32908,5,2,1:2:0:0:
226,142,33202,1,2,2:2:0:0:
180,272,33496,1,2,1:2:0:0:
144,127,33791,1,2,2:2:0:0:
191,301,34085,2,0,L|300:282,1,108.375002067089,2|0,1:2|0:0,0:0:0:0:
330,278,34673,2,0,L|343:206,1,72.2500013780594,10|2,2:2|2:2,0:0:0:0:
362,94,35261,5,2,1:2:0:0:
257,142,35555,1,2,2:2:0:0:
302,18,35849,1,2,1:2:0:0:
374,134,36144,1,2,2:2:0:0:
212,59,36438,2,0,P|167:29|104:35,1,108.375002067089,2|0,1:2|0:0,0:0:0:0:
81,50,37026,2,0,L|94:121,1,72.2500013780594,10|2,2:2|2:2,0:0:0:0:
143,247,37614,6,0,P|178:247|210:230,1,72.2500013780594,2|2,1:2|2:2,0:0:0:0:
233,206,38055,1,2,2:2:0:0:
233,206,38202,2,0,L|304:192,1,72.2500013780594,0|0,1:1|0:0,0:0:0:0:
428,180,38791,2,0,L|414:251,1,72.2500013780594,0|0,1:1|0:0,0:0:0:0:
339,370,39379,1,10,2:2:0:0:
310,224,39673,1,2,3:2:0:0:
441,341,39967,6,0,P|476:341|508:324,1,72.2500013780594,4|0,1:2|0:0,0:0:0:0:
512,187,40555,1,2,1:2:0:0:
452,266,40849,1,2,2:2:0:0:
391,145,41144,2,0,L|319:132,1,72.2500013780594,2|0,1:2|0:0,0:0:0:0:
150,152,41732,1,2,1:2:0:0:
280,218,42026,1,2,2:2:0:0:
251,54,42320,6,0,L|238:125,1,72.2500013780594,2|2,1:2|2:2,0:0:0:0:
233,154,42761,1,2,2:2:0:0:
233,154,42908,2,0,P|197:154|165:137,1,72.2500013780594,0|0,1:1|0:0,0:0:0:0:
31,229,43496,2,0,L|108:215,1,72.2500013780594,2|0,1:2|0:0,0:0:0:0:
249,246,44085,1,2,1:2:0:0:
141,335,44379,1,2,2:2:0:0:
196,168,44673,6,0,P|227:151|263:151,1,72.2500013780594,2|2,1:2|2:2,0:0:0:0:
381,216,45261,1,0,1:1:0:0:
341,80,45555,1,0,0:0:0:0:
288,231,45849,2,0,L|302:308,1,72.2500013780594,2|0,1:2|0:0,0:0:0:0:
373,175,46438,1,2,1:2:0:0:
218,165,46732,1,2,2:2:0:0:
382,272,47026,6,0,L|459:258,1,72.2500013780594,2|2,1:2|2:2,0:0:0:0:
484,259,47467,1,0,0:0:0:0:
484,259,47614,2,0,P|500:290|500:326,1,72.2500013780594,0|0,1:1|0:0,0:0:0:0:
300,300,48202,2,0,L|286:229,1,72.2500013780594,4|0,1:2|0:0,0:0:0:0:
206,96,48791,1,0,1:1:0:0:
156,243,49085,1,2,2:2:0:0:
90,69,49379,6,0,L|103:139,1,72.2500013780594,0|0,1:1|0:0,0:0:0:0:
259,235,49967,2,0,P|294:235|326:218,1,72.2500013780594,2|0,1:2|0:0,0:0:0:0:
421,97,50555,1,6,1:2:0:0:
455,271,50849,1,2,3:2:0:0:
268,154,51144,1,2,3:2:0:0:
512,146,51438,1,2,3:2:0:0:
512,146,51585,1,0,3:3:0:0:
512,146,51732,1,12,2:2:0:0:
84,66,52908,6,0,L|98:148,1,85,12|0,2:2|0:0,0:0:0:0:
147,300,53496,1,8,2:2:0:0:
208,142,53790,1,2,1:2:0:0:
38,241,54084,1,10,2:2:0:0:
234,136,54378,1,2,1:2:0:0:
234,136,54525,1,2,1:2:0:0:
234,136,54672,1,8,2:2:0:0:
11,106,54966,1,0,1:1:0:0:
223,261,55260,6,0,B|313:252|297:299|393:291,1,170,10|8,2:2|2:2,0:0:0:0:
332,170,56143,1,2,1:2:0:0:
248,350,56437,1,10,2:2:0:0:
467,274,56731,1,2,1:2:0:0:
467,274,56878,1,2,1:2:0:0:
467,274,57025,1,8,2:2:0:0:
245,174,57319,1,0,1:1:0:0:
372,375,57613,5,8,2:2:0:0:
372,375,57760,1,2,2:2:0:0:
372,375,57908,2,0,L|386:290,1,85,2|8,2:2|2:2,0:0:0:0:
368,128,58496,1,2,1:2:0:0:
235,271,58790,2,0,P|193:277|155:260,1,85,10|0,2:2|1:1,0:0:0:0:
13,115,59378,2,0,L|27:199,1,85,10|0,2:2|1:1,0:0:0:0:
122,364,59966,5,10,2:2:0:0:
206,195,60260,1,2,2:2:0:0:
5,305,60555,1,10,2:2:0:0:
101,136,60849,1,2,1:2:0:0:
227,328,61143,2,0,L|316:312,1,85,10|0,2:2|1:1,0:0:0:0:
467,179,61731,2,0,L|383:164,1,85,10|2,2:2|1:2,0:0:0:0:
126,54,62319,6,0,B|80:22|80:22|100:135,1,170,12|8,2:2|2:2,0:0:0:0:
157,269,63202,1,2,1:2:0:0:
2,119,63496,1,10,2:2:0:0:
206,124,63790,1,2,1:2:0:0:
206,124,63937,1,2,1:2:0:0:
206,124,64084,1,8,2:2:0:0:
55,321,64378,5,0,1:1:0:0:
55,321,64525,1,2,2:2:0:0:
55,321,64672,2,0,L|85:150,1,170,8|8,2:2|2:2,0:0:0:0:
190,11,65555,1,2,1:2:0:0:
206,214,65849,1,10,2:2:0:0:
39,79,66143,1,2,1:2:0:0:
39,79,66290,1,2,1:2:0:0:
39,79,66437,2,0,L|82:71,1,42.5,8|2,2:2|2:2,0:0:0:0:
346,33,66731,5,0,1:1:0:0:
346,33,66878,1,2,3:2:0:0:
346,33,67025,2,0,B|292:51|292:51|314:169,1,170,8|8,2:2|2:2,0:0:0:0:
385,323,67908,1,2,1:2:0:0:
512,159,68202,2,0,L|428:143,1,85,10|0,2:2|1:1,0:0:0:0:
249,264,68790,2,0,L|332:248,1,85,10|0,2:2|1:1,0:0:0:0:
159,151,69378,5,10,2:2:0:0:
149,324,69672,1,2,1:2:0:0:
277,154,69966,1,10,2:2:0:0:
79,227,70260,1,2,1:2:0:0:
160,16,70555,2,0,L|175:103,1,85,10|0,2:2|1:1,0:0:0:0:
184,132,70996,1,0,1:1:0:0:
184,132,71143,1,10,2:2:0:0:
315,337,71437,5,2,1:2:0:0:
315,337,71584,1,0,3:3:0:0:
315,337,71731,2,0,P|396:351|460:299,1,170,12|8,2:2|2:2,0:0:0:0:
473,122,72613,1,0,1:1:0:0:
473,122,72760,1,2,0:0:0:0:
473,122,72908,1,10,2:2:0:0:
372,271,73202,1,0,1:1:0:0:
377,51,73496,1,10,2:2:0:0:
494,219,73790,1,0,1:1:0:0:
261,134,74084,6,0,L|177:119,1,85,10|0,2:2|0:0,0:0:0:0:
153,118,74525,1,0,0:0:0:0:
153,118,74672,1,8,2:2:0:0:
28,202,74966,1,0,1:1:0:0:
111,28,75260,1,8,2:2:0:0:
159,202,75555,1,0,1:1:0:0:
278,27,75849,2,0,P|316:9|357:16,1,85,10|0,2:2|1:1,0:0:0:0:
512,230,76437,6,0,B|422:221|438:268|342:260,1,170,10|10,2:2|2:2,0:0:0:0:
221,135,77319,1,0,1:1:0:0:
372,181,77613,1,8,2:2:0:0:
194,252,77908,1,0,1:1:0:0:
194,252,78055,1,0,1:1:0:0:
194,252,78202,1,10,2:2:0:0:
289,77,78496,1,0,1:1:0:0:
355,288,78790,6,0,L|438:273,1,85,10|0,2:2|0:0,0:0:0:0:
466,271,79231,1,0,0:0:0:0:
466,271,79378,1,8,2:2:0:0:
290,188,79672,1,0,1:1:0:0:
373,384,79966,1,8,2:2:0:0:
449,179,80260,1,0,1:1:0:0:
449,179,80408,1,0,1:1:0:0:
449,179,80555,1,10,2:2:0:0:
249,287,80849,1,0,1:1:0:0:
512,322,81143,6,0,L|428:307,1,85,12|0,2:2|0:0,0:0:0:0:
269,143,81731,2,0,L|352:128,1,85,10|0,2:2|1:1,0:0:0:0:
225,301,82319,1,10,2:2:0:0:
162,129,82613,1,0,1:1:0:0:
350,226,82908,1,10,2:2:0:0:
142,115,83202,1,2,1:2:0:0:
321,315,83496,6,0,P|362:321|400:304,1,85,10|2,2:2|2:2,0:0:0:0:
510,150,84084,1,8,2:2:0:0:
299,125,84378,1,2,1:2:0:0:
299,125,84525,1,0,0:0:0:0:
299,125,84672,1,10,2:2:0:0:
456,247,84966,1,0,1:1:0:0:
407,16,85260,2,0,L|392:100,1,85,8|2,2:2|1:2,0:0:0:0:
242,258,85849,5,10,2:2:0:0:
239,49,86143,1,2,1:2:0:0:
414,218,86437,1,12,2:2:0:0:
327,0,86731,1,2,1:2:0:0:
327,0,86878,1,8,2:2:0:0:
327,0,87025,1,10,2:2:0:0:
168,172,87319,1,2,3:2:0:0:
450,122,87613,2,0,L|365:108,1,85,2|0,3:2|3:3,0:0:0:0:
46,110,88202,5,6,1:2:0:0:
