osu file format v14

[General]
AudioFilename: audio.mp3
AudioLeadIn: 0
PreviewTime: 52320
Countdown: 0
SampleSet: Soft
StackLeniency: 0.7
Mode: 0
LetterboxInBreaks: 0
WidescreenStoryboard: 1

[Editor]
Bookmarks: 6439,48791
DistanceSpacing: 1.4
BeatDivisor: 8
GridSize: 32
TimelineZoom: 1.6

[Metadata]
Title:Chiisana Koi no Uta (TV Size)
TitleUnicode:小さな恋のうた (TV Size)
Artist:Shiina Mahiru (CV: Iwami Manaka)
ArtistUnicode:椎名真昼 (CV: 石見舞菜香)
Creator:Sekai
Version:My Angel Mahiru <3
Source:お隣の天使様にいつの間にか駄目人間にされていた件
Tags:Sekaii Sekai-nyan Kanui pnky kxlman leomine LeomineXD No Dap No_Dap shioi moeka momoka Mrgglock Jpop Anime J-pop Japanese pop Mahiru Shiina Saeki-san 佐伯さん Saekisan Amane Fujimiya 藤宮周 Otonari no Tenshi-sama ni Itsunomanika Dame Ningen ni Sareteita Ken Tenshi The Angel Next Door Spoils Me Rotten Ending ed Mongol800 Cover
BeatmapID:3983122
BeatmapSetID:1928731

[Difficulty]
HPDrainRate:5.5
CircleSize:4
OverallDifficulty:7.5
ApproachRate:8.2
SliderMultiplier:2
SliderTickRate:1

[Events]
//Background and Video events
Video,0,"my angel mahiru.mp4"
0,0,"tenshi.jpg",0,0
//Break Periods
//Storyboard Layer 0 (Background)
//Storyboard Layer 1 (Fail)
//Storyboard Layer 2 (Pass)
//Storyboard Layer 3 (Foreground)
//Storyboard Layer 4 (Overlay)
//Storyboard Sound Samples

[TimingPoints]
1145,588.235294117647,4,2,1,40,1,0
1145,-133.333333333333,4,2,1,40,0,0
10556,-117.647058823529,4,2,1,50,0,0
21144,588.235294117647,4,2,1,60,1,0
39967,-111.111111111111,4,2,1,65,0,0
48202,-111.111111111111,4,2,1,70,0,0
50555,-111.111111111111,4,2,1,75,0,0
52320,-111.111111111111,4,2,1,45,0,0
52908,588.235294117647,4,2,1,80,1,0
52908,-90.9090909090909,4,2,1,80,0,1
88202,-100,4,2,1,70,0,0

[Colours]
Combo1 : 162,221,214
Combo2 : 224,129,129
Combo3 : 255,164,233
Combo4 : 168,140,242

[HitObjects]
134,108,1145,6,0,P|172:96|214:115,1,75.0000028610231,0|2,1:1|2:2,0:0:0:0:
305,58,1733,2,0,P|317:96|298:138,1,75.0000028610231,2|2,2:2|2:2,0:0:0:0:
322,236,2321,2,0,P|274:222|227:208,1,75.0000028610231,2|0,2:2|0:0,0:0:0:0:
154,213,2909,2,0,P|143:255|163:288,1,75.0000028610231,2|2,2:2|2:2,0:0:0:0:
295,313,3497,6,0,B|360:303|339:357|414:344,1,112.500004291535,0|0,1:1|0:0,0:0:0:0:
426,349,4086,2,0,P|440:313|428:279,1,75.0000028610231,2|2,2:2|2:2,0:0:0:0:
401,189,4674,2,0,P|385:155|405:112,1,75.0000028610231,2|0,2:2|0:0,0:0:0:0:
433,33,5262,1,2,2:2:0:0:
395,121,5556,1,2,2:2:0:0:
251,44,5850,6,0,P|289:32|327:53,1,75.0000028610231,0|2,1:1|2:2,0:0:0:0:
316,133,6439,2,0,P|278:145|240:124,1,75.0000028610231,2|2,2:2|2:2,0:0:0:0:
158,52,7027,2,0,B|120:40|120:40|75:55,1,75.0000028610231,2|0,1:2|0:0,0:0:0:0:
88,138,7615,2,0,B|127:152|127:152|161:140,1,75.0000028610231,2|2,2:2|2:2,0:0:0:0:
262,213,8203,6,0,B|207:198|227:245|144:226,1,112.500004291535,0|2,1:1|2:2,0:0:0:0:
131,240,8792,2,0,P|114:286|130:313,1,75.0000028610231,0|0,1:1|0:0,0:0:0:0:
241,357,9380,2,0,P|258:311|242:284,1,75.0000028610231,0|0,1:1|0:0,0:0:0:0:
334,226,9968,1,2,1:2:0:0:
377,319,10262,1,2,2:2:0:0:
408,207,10556,6,0,P|369:200|329:235,1,85.0000016212464,4|2,1:2|2:2,0:0:0:0:
393,113,11144,2,0,P|400:70|409:18,1,85.0000016212464,2|2,1:2|2:2,0:0:0:0:
244,52,11733,2,0,P|285:43|328:68,1,85.0000016212464,2|0,1:2|0:0,0:0:0:0:
216,143,12321,1,10,2:2:0:0:
147,26,12615,1,2,2:2:0:0:
216,143,12909,6,0,P|156:151|82:162,1,127.50000243187,2|0,1:2|0:0,0:0:0:0:
54,163,13497,2,0,B|39:205|39:205|68:244,1,85.0000016212464,2|2,1:2|2:2,0:0:0:0:
148,326,14086,2,0,B|172:293|172:293|157:251,1,85.0000016212464,2|0,1:2|0:0,0:0:0:0:
59,291,14674,1,10,2:2:0:0:
131,180,14968,1,0,0:0:0:0:
245,279,15262,6,0,P|201:271|147:332,1,127.50000243187,2|0,1:2|0:0,0:0:0:0:
224,351,15850,1,2,1:2:0:0:
256,195,16144,1,2,2:2:0:0:
328,264,16439,2,0,P|285:271|238:280,1,85.0000016212464,2|0,1:2|0:0,0:0:0:0:
344,349,17027,1,10,2:2:0:0:
309,192,17321,1,2,2:2:0:0:
344,349,17615,6,0,P|393:342|431:273,1,127.50000243187,2|2,1:2|2:2,0:0:0:0:
426,245,18203,2,0,P|408:206|425:167,1,85.0000016212464,0|0,1:1|0:0,0:0:0:0:
426,93,18792,2,0,P|440:131|422:168,1,85.0000016212464,0|0,1:1|0:0,0:0:0:0:
426,93,19380,2,0,P|411:54|429:17,1,85.0000016212464,10|2,2:2|2:2,0:0:0:0:
284,72,19968,6,0,P|239:64|109:41,1,170.000003242493,0|2,1:1|0:0,0:0:0:0:
77,246,20850,5,2,2:2:0:0:
77,246,20997,1,0,0:0:0:0:
77,246,21144,2,0,P|129:226|170:191,1,100,4|2,1:2|2:2,0:0:0:0:
256,176,21585,1,0,0:0:0:0:
305,300,21732,2,0,P|254:280|196:274,1,100,2|2,1:2|2:2,0:0:0:0:
126,339,22173,1,0,0:0:0:0:
77,246,22320,2,0,P|87:160|98:79,1,150,2|0,1:2|0:0,0:0:0:0:
98,60,22908,1,10,2:2:0:0:
0,133,23202,1,2,2:2:0:0:
161,167,23496,6,0,P|205:175|249:136,1,100,2|2,1:2|2:2,0:0:0:0:
214,36,23938,1,0,0:0:0:0:
331,118,24085,2,0,P|287:110|243:149,1,100,2|2,1:2|2:2,0:0:0:0:
242,257,24526,1,0,0:0:0:0:
242,257,24673,2,0,P|287:238|383:200,1,150,2|0,1:2|0:0,0:0:0:0:
412,185,25261,1,10,2:2:0:0:
421,310,25555,1,2,2:2:0:0:
496,167,25849,6,0,P|446:155|410:188,1,100,2|2,1:2|2:2,0:0:0:0:
421,310,26291,1,0,0:0:0:0:
327,201,26438,2,0,P|377:213|413:180,1,100,2|2,1:2|2:2,0:0:0:0:
391,75,26879,1,0,0:0:0:0:
391,75,27026,2,0,P|334:69|232:61,1,150,2|0,1:2|0:0,0:0:0:0:
213,59,27614,1,10,2:2:0:0:
170,175,27908,1,2,2:2:0:0:
63,57,28202,6,0,B|42:111|42:111|71:143,1,100,2|2,1:2|2:2,0:0:0:0:
170,175,28644,1,2,2:2:0:0:
70,142,28791,2,0,B|90:191|90:191|62:228,1,100,0|0,1:1|0:0,0:0:0:0:
5,324,29233,1,2,2:2:0:0:
5,324,29379,2,0,P|65:310|159:284,1,150,0|0,1:1|0:0,0:0:0:0:
185,278,29967,1,10,2:2:0:0:
294,359,30261,1,2,3:2:0:0:
342,233,30555,6,0,P|297:241|275:293,1,100,2|2,1:2|2:2,0:0:0:0:
392,317,30996,1,0,0:0:0:0:
434,219,31144,2,0,P|417:182|358:155,1,100,2|2,1:2|2:2,0:0:0:0:
260,135,31585,1,0,0:0:0:0:
260,135,31732,2,0,P|272:85|358:44,1,150,2|0,1:2|0:0,0:0:0:0:
391,52,32320,1,10,2:2:0:0:
366,155,32614,1,2,2:2:0:0:
207,51,32908,6,0,P|173:43|124:82,1,100,2|2,1:2|2:2,0:0:0:0:
127,174,33349,1,0,0:0:0:0:
34,170,33496,2,0,P|-1:136|0:87,1,100,2|2,1:2|2:2,0:0:0:0:
127,174,33938,1,0,0:0:0:0:
127,174,34085,2,0,P|93:219|33:300,1,150,2|0,1:2|0:0,0:0:0:0:
17,322,34673,1,10,2:2:0:0:
1,207,34967,1,2,2:2:0:0:
151,294,35261,6,0,P|216:307|265:317,1,100,2|2,1:2|2:2,0:0:0:0:
337,348,35702,1,0,0:0:0:0:
348,244,35849,2,0,P|299:212|256:229,1,100,2|2,1:2|2:2,0:0:0:0:
136,209,36291,1,0,0:0:0:0:
136,209,36438,2,0,P|160:158|206:65,1,150,2|0,1:2|0:0,0:0:0:0:
217,39,37026,1,10,2:2:0:0:
97,68,37320,1,2,2:2:0:0:
249,128,37614,6,0,P|297:134|333:101,1,100,2|2,1:2|2:2,0:0:0:0:
387,18,38055,1,2,2:2:0:0:
301,14,38202,2,0,P|252:7|216:40,1,100,0|0,1:1|0:0,0:0:0:0:
159,122,38644,1,2,2:2:0:0:
255,144,38791,2,0,P|303:150|339:117,1,100,0|0,1:1|0:0,0:0:0:0:
494,119,39379,1,10,2:2:0:0:
417,197,39673,1,2,3:2:0:0:
316,46,39967,6,0,P|264:59|185:81,1,134.999995880127,4|0,1:2|0:0,0:0:0:0:
159,92,40555,2,0,B|147:142|147:142|180:167,1,89.9999972534181,2|2,1:2|2:2,0:0:0:0:
105,296,41144,2,0,P|121:243|100:213,1,89.9999972534181,2|0,1:2|0:0,0:0:0:0:
175,339,41732,1,2,1:2:0:0:
43,253,42026,1,2,2:2:0:0:
175,339,42320,6,0,P|212:308|252:278,1,89.9999972534181,2|2,1:2|2:2,0:0:0:0:
339,310,42761,1,2,2:2:0:0:
339,310,42908,2,0,P|329:264|350:222,1,89.9999972534181,0|0,1:1|0:0,0:0:0:0:
348,110,43496,2,0,P|376:162|339:230,1,134.999995880127,2|0,1:2|0:0,0:0:0:0:
293,168,44085,2,0,P|240:154|203:145,1,89.9999972534181,2|2,1:2|2:2,0:0:0:0:
80,40,44673,6,0,P|104:81|82:130,1,89.9999972534181,2|2,1:2|2:2,0:0:0:0:
97,199,45114,1,0,0:0:0:0:
97,199,45261,2,0,P|78:150|104:109,1,89.9999972534181,0|0,1:1|0:0,0:0:0:0:
111,316,45849,2,0,P|132:263|87:193,1,134.999995880127,2|0,1:2|0:0,0:0:0:0:
111,316,46438,2,0,P|159:336|202:313,1,89.9999972534181,2|2,1:2|2:2,0:0:0:0:
289,193,47026,6,0,P|306:244|324:290,1,89.9999972534181,2|2,1:2|2:2,0:0:0:0:
408,367,47467,1,0,0:0:0:0:
408,367,47614,2,0,P|424:321|443:277,1,89.9999972534181,0|0,1:1|0:0,0:0:0:0:
490,152,48202,2,0,P|452:175|395:154,1,89.9999972534181,4|0,1:2|0:0,0:0:0:0:
266,95,48791,2,0,P|304:72|361:93,1,89.9999972534181,0|2,1:1|2:2,0:0:0:0:
498,69,49379,2,0,P|508:117|484:157,1,89.9999972534181,0|0,1:1|0:0,0:0:0:0:
254,179,49967,2,0,P|247:140|268:91,1,89.9999972534181,2|0,1:2|0:0,0:0:0:0:
106,24,50555,6,0,P|116:54|108:81,1,44.999998626709,6|0,1:2|0:0,0:0:0:0:
6,166,50849,2,0,P|4:144|13:124,1,44.999998626709,2|0,3:2|0:0,0:0:0:0:
164,165,51144,2,0,P|134:175|107:167,1,44.999998626709,2|0,3:2|0:0,0:0:0:0:
34,323,51438,5,2,3:2:0:0:
6,166,51585,1,0,3:3:0:0:
136,261,51732,1,12,2:2:0:0:
136,261,52320,6,0,P|146:239|140:275,1,134.999995880127,2|0,2:2|0:0,0:0:0:0:
252,346,52835,1,2,0:0:0:0:
252,346,52908,2,0,P|299:336|370:325,1,110.000003356934,12|0,0:0|0:0,0:0:0:0:
343,235,53349,1,0,0:0:0:0:
437,298,53496,2,0,P|444:339|446:365,1,55.0000016784668,8|0,2:2|0:0,0:0:0:0:
505,253,53790,2,0,P|508:225|513:198,1,55.0000016784668,2|0,1:2|0:0,0:0:0:0:
512,89,54084,6,0,P|442:95|406:98,1,82.5000025177003,10|0,2:2|0:0,0:0:0:0:
407,102,54378,1,2,0:2:0:0:
280,50,54525,2,0,P|296:81|302:109,1,55.0000016784668,2|8,1:2|2:2,0:0:0:0:
181,85,54819,1,2,2:2:0:0:
205,222,54966,2,0,P|212:195|225:171,1,55.0000016784668,2|0,1:2|0:0,0:0:0:0:
74,211,55260,6,0,P|96:250|136:313,1,110.000003356934,10|0,2:2|0:0,0:0:0:0:
205,222,55702,1,0,0:0:0:0:
237,316,55849,2,0,P|270:300|298:297,1,55.0000016784668,8|0,2:2|0:0,0:0:0:0:
333,202,56143,2,0,P|368:234|376:251,1,55.0000016784668,2|0,1:2|0:0,0:0:0:0:
508,117,56437,6,0,P|470:132|424:129,1,82.5000025177003,10|0,2:2|0:0,0:0:0:0:
401,118,56731,1,2,0:2:0:0:
468,0,56878,2,0,P|459:30|458:54,1,55.0000016784668,2|8,1:2|2:2,0:0:0:0:
411,171,57172,2,0,P|409:143|400:117,1,55.0000016784668,2|0,2:2|1:1,0:0:0:0:
268,37,57466,6,0,P|324:29|345:18,1,55.0000016784668,2|8,0:2|2:2,0:0:0:0:
260,140,57760,1,2,2:2:0:0:
174,73,57908,2,0,P|168:31|175:13,1,55.0000016784668,2|0,2:2|0:0,0:0:0:0:
81,153,58202,2,0,P|121:160|162:166,1,82.5000025177003,8|0,2:2|0:0,0:0:0:0:
193,172,58496,2,0,P|193:206|179:228,1,55.0000016784668,2|0,1:2|0:0,0:0:0:0:
193,358,58790,6,0,P|226:344|295:314,1,110.000003356934,10|0,2:2|1:1,0:0:0:0:
427,311,59231,1,0,1:1:0:0:
364,221,59378,2,0,P|356:259|358:283,1,55.0000016784668,10|0,2:2|0:0,0:0:0:0:
453,210,59672,2,0,P|457:183|447:155,1,55.0000016784668,0|0,1:1|0:0,0:0:0:0:
411,33,59966,6,0,P|382:61|366:81,1,55.0000016784668,10|0,2:2|0:0,0:0:0:0:
253,154,60260,2,0,P|276:110|280:71,1,82.5000025177003,2|0,2:2|0:0,0:0:0:0:
271,44,60555,2,0,P|240:35|214:21,1,55.0000016784668,10|0,2:2|0:0,0:0:0:0:
129,124,60849,2,0,P|160:115|186:101,1,55.0000016784668,2|0,1:2|0:0,0:0:0:0:
137,231,61143,6,0,P|89:214|26:210,1,110.000003356934,10|0,2:2|1:1,0:0:0:0:
62,313,61584,1,0,1:1:0:0:
137,231,61731,2,0,P|145:265|147:290,1,55.0000016784668,10|0,2:2|0:0,0:0:0:0:
146,379,62025,1,2,1:2:0:0:
62,313,62172,1,0,3:3:0:0:
229,272,62319,6,0,B|293:278|266:313|338:312,1,110.000003356934,12|0,2:2|0:0,0:0:0:0:
416,356,62760,1,0,0:0:0:0:
446,244,62908,2,0,P|422:239|392:255,1,55.0000016784668,8|0,2:2|0:0,0:0:0:0:
287,207,63202,2,0,P|321:197|337:173,1,55.0000016784668,2|0,1:2|0:0,0:0:0:0:
439,61,63496,6,0,P|430:104|415:177,1,110.000003356934,10|2,2:2|0:2,0:0:0:0:
294,47,63937,2,0,P|325:45|354:61,1,55.0000016784668,2|8,1:2|2:2,0:0:0:0:
255,148,64231,1,2,2:2:0:0:
166,74,64378,2,0,P|163:43|173:17,1,55.0000016784668,0|2,1:1|2:2,0:0:0:0:
255,148,64672,6,0,B|206:162|206:162|194:180|194:180|144:190,1,110.000003356934,8|0,2:2|0:0,0:0:0:0:
58,149,65113,1,0,0:0:0:0:
49,251,65260,2,0,P|83:263|115:274,1,55.0000016784668,8|0,2:2|0:0,0:0:0:0:
189,340,65555,2,0,P|163:350|139:364,1,55.0000016784668,2|0,1:2|0:0,0:0:0:0:
289,359,65849,6,0,P|272:330|276:303,1,55.0000016784668,10|0,2:2|0:0,0:0:0:0:
308,215,66143,1,2,0:2:0:0:
378,281,66290,2,0,P|377:308|362:330,1,55.0000016784668,2|8,1:2|2:2,0:0:0:0:
308,215,66584,2,0,P|319:177|326:151,1,55.0000016784668,2|0,2:2|1:1,0:0:0:0:
338,58,66878,1,2,0:2:0:0:
220,130,67025,6,0,B|278:130|260:167|326:161,1,110.000003356934,8|2,2:2|2:2,0:0:0:0:
234,40,67466,1,0,0:0:0:0:
138,103,67613,2,0,P|129:131|136:161,1,55.0000016784668,8|0,2:2|0:0,0:0:0:0:
37,228,67908,2,0,P|43:188|37:175,1,55.0000016784668,2|0,1:2|0:0,0:0:0:0:
27,40,68202,6,0,P|69:30|144:18,1,110.000003356934,10|0,2:2|1:1,0:0:0:0:
229,54,68643,1,0,1:1:0:0:
154,144,68790,2,0,P|117:132|71:117,1,82.5000025177003,10|0,2:2|0:0,0:0:0:0:
50,124,69084,2,0,P|36:160|39:183,1,55.0000016784668,0|0,1:1|0:0,0:0:0:0:
57,323,69378,6,0,P|81:304|115:295,1,55.0000016784668,10|0,2:2|0:0,0:0:0:0:
185,241,69672,2,0,P|197:265|188:310,1,55.0000016784668,2|2,1:2|2:2,0:0:0:0:
288,236,69966,2,0,P|329:223|376:208,1,82.5000025177003,10|0,2:2|0:0,0:0:0:0:
396,204,70260,2,0,P|396:165|392:148,1,55.0000016784668,2|0,1:2|0:0,0:0:0:0:
381,18,70555,6,0,P|349:33|321:36,1,55.0000016784668,10|0,2:2|0:0,0:0:0:0:
219,16,70849,2,0,P|210:43|216:71,1,55.0000016784668,0|0,1:1|1:1,0:0:0:0:
214,216,71143,1,10,2:2:0:0:
214,68,71290,1,0,0:0:0:0:
140,142,71437,1,2,1:2:0:0:
287,142,71584,1,0,3:3:0:0:
120,62,71731,6,0,P|76:68|3:77,1,110.000003356934,12|0,2:2|0:0,0:0:0:0:
214,140,72172,1,0,0:0:0:0:
219,16,72319,2,0,P|263:22|336:31,1,110.000003356934,8|0,2:2|1:1,0:0:0:0:
454,143,72760,5,2,0:0:0:0:
454,143,72834,1,2,0:0:0:0:
454,143,72908,2,0,P|403:142|361:172,1,82.5000025177003,10|0,2:2|0:0,0:0:0:0:
349,173,73202,2,0,P|318:174|280:157,1,55.0000016784668,0|0,1:1|1:1,0:0:0:0:
222,59,73496,2,0,P|235:102|228:125,1,55.0000016784668,10|0,2:2|0:0,0:0:0:0:
164,206,73790,2,0,P|192:190|228:196,1,55.0000016784668,0|2,1:1|2:2,0:0:0:0:
350,289,74084,6,0,P|321:283|243:267,1,110.000003356934,10|0,2:2|0:0,0:0:0:0:
349,173,74525,1,0,0:0:0:0:
424,264,74672,2,0,P|430:290|422:323,1,55.0000016784668,8|0,2:2|0:0,0:0:0:0:
512,240,74966,2,0,P|506:213|512:186,1,55.0000016784668,0|0,1:1|0:0,0:0:0:0:
499,57,75260,6,0,P|473:75|441:96,1,55.0000016784668,8|0,2:2|0:0,0:0:0:0:
356,163,75555,2,0,P|366:128|360:82,1,82.5000025177003,0|0,1:1|0:0,0:0:0:0:
343,51,75849,2,0,B|316:54|286:37|286:37|271:60|232:69,1,110.000003356934,10|0,2:2|1:1,0:0:0:0:
151,42,76290,1,0,3:3:0:0:
94,150,76437,6,0,P|143:157|208:164,1,110.000003356934,10|2,2:2|2:2,0:0:0:0:
288,271,76878,1,2,2:2:0:0:
162,335,77025,2,0,P|156:287|200:240,1,110.000003356934,10|0,2:2|1:1,0:0:0:0:
288,271,77466,1,0,0:0:0:0:
273,128,77613,6,0,P|283:162|290:183,1,55.0000016784668,8|0,2:2|0:0,0:0:0:0:
409,104,77908,2,0,P|378:106|361:121,1,55.0000016784668,0|0,1:1|1:1,0:0:0:0:
484,201,78202,2,0,P|488:146|491:91,1,110.000003356934,10|0,2:2|1:1,0:0:0:0:
439,15,78643,1,2,2:2:0:0:
360,121,78790,6,0,P|321:113|245:95,1,110.000003356934,10|0,2:2|0:0,0:0:0:0:
156,65,79231,1,0,0:0:0:0:
151,164,79378,2,0,P|159:190|163:222,1,55.0000016784668,8|0,2:2|0:0,0:0:0:0:
246,300,79672,2,0,P|255:272|275:243,1,55.0000016784668,0|0,1:1|0:0,0:0:0:0:
448,284,79966,6,0,P|392:291|320:298,1,110.000003356934,8|0,2:2|1:1,0:0:0:0:
284,153,80408,1,0,1:1:0:0:
159,262,80555,2,0,P|213:256|268:249,1,110.000003356934,10|0,2:2|1:1,0:0:0:0:
184,354,80996,1,0,3:3:0:0:
69,274,81143,6,0,P|54:241|80:172,1,110.000003356934,12|0,2:2|0:0,0:0:0:0:
28,71,81584,1,0,0:0:0:0:
144,66,81731,2,0,P|189:101|192:159,1,110.000003356934,10|0,2:2|1:1,0:0:0:0:
159,262,82172,1,0,0:0:0:0:
275,154,82319,6,0,B|316:141|316:141|344:146|344:146|390:134,1,110.000003356934,10|0,2:2|1:1,0:0:0:0:
473,97,82760,1,0,1:1:0:0:
452,198,82908,2,0,P|455:214|445:252,1,55.0000016784668,10|0,2:2|0:0,0:0:0:0:
381,136,83202,2,0,P|372:107|381:80,1,55.0000016784668,2|0,1:2|0:0,0:0:0:0:
300,226,83496,6,0,P|263:230|236:237,1,55.0000016784668,10|0,2:2|0:0,0:0:0:0:
162,319,83790,2,0,P|173:292|154:232,1,82.5000025177003,2|0,2:2|0:0,0:0:0:0:
141,218,84084,2,0,P|128:188|133:158,1,55.0000016784668,8|0,2:2|0:0,0:0:0:0:
90,73,84378,2,0,P|121:65|149:73,1,55.0000016784668,2|0,1:2|0:0,0:0:0:0:
315,54,84672,6,0,P|286:88|236:146,1,110.000003356934,10|0,2:2|1:1,0:0:0:0:
239,259,85113,1,0,1:1:0:0:
125,219,85260,2,0,P|112:189|117:159,1,55.0000016784668,8|0,2:2|0:0,0:0:0:0:
85,55,85555,2,0,P|116:47|144:55,1,55.0000016784668,2|0,1:2|3:3,0:0:0:0:
317,2,85849,6,0,P|324:26|307:62,1,55.0000016784668,10|0,2:2|0:0,0:0:0:0:
271,165,86143,2,0,P|299:152|331:158,1,55.0000016784668,2|0,1:2|0:0,0:0:0:0:
479,171,86437,6,0,P|438:151|427:106,1,82.5000025177003,12|0,2:2|0:0,0:0:0:0:
429,75,86731,1,2,1:2:0:0:
388,227,86878,1,8,2:2:0:0:
271,165,87025,6,0,P|315:166|352:205,1,82.5000025177003,10|0,2:2|0:0,0:0:0:0:
388,227,87319,2,0,P|364:251|351:276,1,55.0000016784668,2|0,3:2|0:0,0:0:0:0:
204,367,87613,2,0,P|214:335|212:310,1,55.0000016784668,2|0,3:2|0:0,0:0:0:0:
98,184,87908,2,0,P|134:187|163:176,1,55.0000016784668,0|0,3:3|0:0,0:0:0:0:
291,86,88202,5,6,1:2:0:0:
