osu file format v14

[General]
AudioFilename: audio.mp3
AudioLeadIn: 0
PreviewTime: 52320
Countdown: 0
SampleSet: Soft
StackLeniency: 0.7
Mode: 0
LetterboxInBreaks: 0
WidescreenStoryboard: 0

[Editor]
DistanceSpacing: 1.2
BeatDivisor: 4
GridSize: 32
TimelineZoom: 1.1

[Metadata]
Title:Chiisana Koi no Uta (TV Size)
TitleUnicode:小さな恋のうた (TV Size)
Artist:Shiina Mahiru (CV: Iwami Manaka)
ArtistUnicode:椎名真昼 (CV: 石見舞菜香)
Creator:Sekai
Version:Mrgglock's Normal
Source:お隣の天使様にいつの間にか駄目人間にされていた件
Tags:Sekaii Sekai-nyan Kanui pnky kxlman leomine LeomineXD No Dap No_Dap shioi moeka momoka Mrgglock Jpop Anime J-pop Japanese pop Mahiru Shiina Saeki-san 佐伯さん Saekisan Amane Fujimiya 藤宮周 Otonari no Tenshi-sama ni Itsunomanika Dame Ningen ni Sareteita Ken Tenshi The Angel Next Door Spoils Me Rotten Ending ed Mongol800 Cover
BeatmapID:3983121
BeatmapSetID:1928731

[Difficulty]
HPDrainRate:3
CircleSize:3
OverallDifficulty:4
ApproachRate:5
SliderMultiplier:1.5
SliderTickRate:1

[Events]
//Background and Video events
Video,0,"my angel mahiru.mp4"
0,0,"tenshi.jpg",0,0
//Break Periods
//Storyboard Layer 0 (Background)
//Storyboard Layer 1 (Fail)
//Storyboard Layer 2 (Pass)
//Storyboard Layer 3 (Foreground)
//Storyboard Layer 4 (Overlay)
//Storyboard Sound Samples

[TimingPoints]
1145,588.235294117647,4,2,1,40,1,0
1145,-125,4,2,1,40,0,0
10556,-111.111111111111,4,2,1,50,0,0
21144,588.235294117647,4,2,1,60,1,0
30555,-111.111111111111,4,2,1,60,0,0
39967,-100,4,2,1,65,0,0
48202,-100,4,2,1,70,0,0
50555,-100,4,2,1,75,0,0
52320,-100,4,2,1,45,0,0
52908,588.235294117647,4,2,1,80,1,0
52908,-90.9090909090909,4,2,1,80,0,1
88202,-90.9090909090909,4,2,1,70,0,0

[Colours]
Combo1 : 162,221,214
Combo2 : 224,129,129
Combo3 : 255,164,233
Combo4 : 168,140,242

[HitObjects]
512,90,1145,6,0,B|468:81|468:81|443:97|443:97|389:86,1,120,0|2,1:1|2:2,0:0:0:0:
282,2,2321,1,2,2:2:0:0:
1,68,3497,2,0,L|10:191,1,120,0|2,1:1|2:2,0:0:0:0:
22,331,4674,1,2,2:2:0:0:
267,180,5850,6,0,B|246:142|246:142|276:55,1,120,0|2,1:1|2:2,0:0:0:0:
386,31,7027,2,0,L|398:150,1,120,2|2,1:2|2:2,0:0:0:0:
485,265,8203,2,0,P|468:294|437:306,1,60,0|0,1:1|0:0,0:0:0:0:
374,320,8792,2,0,P|339:320|314:299,1,60,0|0,1:1|0:0,0:0:0:0:
270,252,9380,2,0,P|252:222|257:189,1,60,0|0,1:1|0:0,0:0:0:0:
281,131,9968,1,2,1:2:0:0:
166,16,10556,6,0,L|97:8,1,67.4999979400635,4|2,1:2|2:2,0:0:0:0:
30,52,11144,2,0,B|16:86|16:86|28:120,2,67.4999979400635,2|2|2,1:2|2:2|1:2,0:0:0:0:
150,160,12321,1,10,2:2:0:0:
164,321,12909,2,0,L|234:329,1,67.4999979400635,2|0,1:2|0:0,0:0:0:0:
285,268,13497,2,0,L|351:259,2,67.4999979400635,2|2|2,1:2|2:2|1:2,0:0:0:0:
334,113,14674,1,10,2:2:0:0:
496,124,15262,6,0,P|505:89|491:40,1,67.4999979400635,2|0,1:2|0:0,0:0:0:0:
437,13,15850,2,0,L|370:6,2,67.4999979400635,2|2|2,1:2|2:2|1:2,0:0:0:0:
330,135,17027,1,10,2:2:0:0:
170,108,17615,2,0,L|177:210,1,101.249996910095,2|2,1:2|2:2,0:0:0:0:
157,287,18350,1,0,0:0:0:0:
35,302,18792,2,0,L|40:234,1,67.4999979400635,0|0,1:1|0:0,0:0:0:0:
11,158,19380,1,10,2:2:0:0:
41,83,19674,1,2,2:2:0:0:
120,68,19968,5,0,1:1:0:0:
324,371,21144,6,0,P|328:335|309:300,1,75,4|2,1:2|2:2,0:0:0:0:
256,230,21732,1,2,1:2:0:0:
267,140,22026,1,2,2:2:0:0:
351,109,22320,2,0,P|386:103|421:123,1,75,2|0,1:2|0:0,0:0:0:0:
470,195,22908,1,10,2:2:0:0:
394,358,23496,6,0,L|304:369,1,75,2|2,1:2|2:2,0:0:0:0:
285,283,24085,2,0,P|275:250|299:200,2,75,2|2|2,1:2|2:2|1:2,0:0:0:0:
133,380,25261,1,10,2:2:0:0:
0,257,25849,6,0,L|19:151,1,75,2|2,1:2|2:2,0:0:0:0:
86,130,26438,1,2,1:2:0:0:
31,58,26732,1,2,2:2:0:0:
106,8,27026,2,0,P|150:8|187:36,1,75,2|0,1:2|0:0,0:0:0:0:
200,109,27614,1,10,2:2:0:0:
171,286,28202,5,2,1:2:0:0:
263,272,28496,1,2,2:2:0:0:
263,272,28644,2,0,L|336:286,1,75,2|0,2:2|0:0,0:0:0:0:
393,362,29232,2,0,P|430:370|488:320,1,112.5,2|0,2:2|0:0,0:0:0:0:
509,240,29967,1,10,2:2:0:0:
440,182,30261,1,2,3:2:0:0:
503,117,30555,6,0,L|516:30,1,67.4999979400635,2|2,1:2|2:2,0:0:0:0:
442,11,31144,2,0,P|407:21|389:58,2,67.4999979400635,2|2|2,1:2|2:2|1:2,0:0:0:0:
358,149,32320,1,10,2:2:0:0:
199,182,32908,6,0,L|125:195,1,67.4999979400635,2|2,1:2|2:2,0:0:0:0:
95,120,33496,2,0,B|84:88|84:88|97:37,2,67.4999979400635,2|2|2,1:2|2:2|1:2,0:0:0:0:
0,252,34673,1,10,2:2:0:0:
104,375,35261,6,0,L|185:386,1,67.4999979400635,2|2,1:2|2:2,0:0:0:0:
224,323,35849,2,0,P|232:293|219:243,2,67.4999979400635,2|2|2,1:2|2:2|1:2,0:0:0:0:
374,383,37026,1,10,2:2:0:0:
343,224,37614,6,0,L|355:116,1,101.249996910095,2|2,1:2|2:2,0:0:0:0:
417,73,38349,1,0,0:0:0:0:
491,105,38644,2,0,L|502:205,1,101.249996910095,2|0,2:2|0:0,0:0:0:0:
441,259,39379,1,10,2:2:0:0:
488,324,39673,1,2,3:2:0:0:
420,368,39967,6,0,L|345:361,1,75,4|0,1:2|0:0,0:0:0:0:
278,300,40555,2,0,L|271:225,1,75,2|2,1:2|2:2,0:0:0:0:
295,134,41144,1,2,1:2:0:0:
170,3,41732,1,2,1:2:0:0:
41,129,42320,6,0,P|71:169|66:247,1,112.5,2|2,1:2|2:2,0:0:0:0:
33,309,43055,1,0,0:0:0:0:
92,377,43349,2,0,L|218:360,1,112.5
292,347,44085,1,2,1:2:0:0:
202,190,44673,6,0,P|223:163|222:81,1,112.5,2|0,1:2|0:0,0:0:0:0:
296,33,45408,1,0,0:0:0:0:
376,74,45702,2,0,L|366:193,1,112.5
302,249,46438,1,2,1:2:0:0:
479,276,47026,6,0,P|502:238|482:161,1,112.5,2|0,1:2|0:0,0:0:0:0:
505,84,47761,1,0,0:0:0:0:
448,20,48055,1,0,0:0:0:0:
448,20,48202,2,0,L|357:28,1,75,4|0,1:2|0:0,0:0:0:0:
305,86,48791,2,0,L|231:79,1,75,0|2,1:1|2:2,0:0:0:0:
143,101,49379,6,0,P|127:144|136:175,1,75,0|0,1:1|0:0,0:0:0:0:
200,231,49967,2,0,P|215:274|207:304,1,75,2|0,1:2|0:0,0:0:0:0:
279,356,50555,1,6,1:2:0:0:
315,273,50849,1,2,3:2:0:0:
392,225,51144,1,2,3:2:0:0:
481,236,51438,2,0,L|485:273,1,37.5,2|0,3:2|3:3,0:0:0:0:
491,317,51732,5,12,2:2:0:0:
251,1,52908,6,0,P|259:93|196:156,1,165.000005035401,12|8,2:2|2:2,0:0:0:0:
122,178,53790,1,2,1:2:0:0:
105,275,54084,2,0,P|143:294|200:280,1,82.5000025177003,10|2,2:2|1:2,0:0:0:0:
226,269,54525,1,2,1:2:0:0:
308,321,54819,2,0,L|315:222,1,82.5000025177003,2|0,2:2|0:0,0:0:0:0:
354,210,55260,5,10,2:2:0:0:
272,29,55849,1,8,2:2:0:0:
365,0,56143,1,2,1:2:0:0:
446,56,56437,2,0,P|478:95|476:137,1,82.5000025177003,10|2,2:2|1:2,0:0:0:0:
455,168,56878,2,0,L|460:211,1,41.2500012588501,2|8,1:2|2:2,0:0:0:0:
464,258,57172,1,2,2:2:0:0:
449,359,57466,1,2,3:2:0:0:
449,359,57613,6,0,B|398:332|398:332|283:368,1,165.000005035401,8|8,2:2|2:2,0:0:0:0:
224,295,58496,1,2,1:2:0:0:
293,222,58790,2,0,P|319:192|317:133,1,82.5000025177003,10|0,2:2|1:1,0:0:0:0:
310,52,59378,1,10,2:2:0:0:
114,63,59966,5,10,2:2:0:0:
50,139,60260,1,2,2:2:0:0:
115,213,60555,2,0,P|101:254|68:274,1,82.5000025177003,10|2,2:2|1:2,0:0:0:0:
102,366,61143,2,0,L|188:373,1,82.5000025177003,10|0,2:2|1:1,0:0:0:0:
246,292,61731,2,0,L|327:285,1,82.5000025177003,10|2,2:2|1:2,0:0:0:0:
371,319,62172,1,0,0:0:0:0:
371,319,62319,6,0,P|452:304|478:231,1,165.000005035401,12|8,2:2|2:2,0:0:0:0:
456,136,63202,1,2,1:2:0:0:
501,45,63496,2,0,L|418:38,1,82.5000025177003,10|2,2:2|1:2,0:0:0:0:
369,32,63937,1,2,1:2:0:0:
277,70,64231,2,0,B|258:101|258:101|276:154,1,82.5000025177003,2|2,2:2|2:2,0:0:0:0:
292,189,64672,5,8,2:2:0:0:
191,359,65260,1,8,2:2:0:0:
112,298,65555,1,2,1:2:0:0:
17,328,65849,2,0,L|11:226,1,82.5000025177003,10|2,2:2|1:2,0:0:0:0:
39,204,66290,2,0,L|47:142,1,41.2500012588501,2|8,1:2|2:2,0:0:0:0:
23,118,66584,1,2,2:2:0:0:
95,50,66878,1,2,3:2:0:0:
95,50,67025,6,0,P|125:79|243:48,1,165.000005035401,8|8,2:2|2:2,0:0:0:0:
309,124,67908,1,2,1:2:0:0:
239,193,68202,2,0,L|250:274,1,82.5000025177003,10|0,2:2|1:1,0:0:0:0:
275,370,68790,1,10,2:2:0:0:
437,261,69378,5,10,2:2:0:0:
483,173,69672,1,2,1:2:0:0:
418,97,69966,2,0,P|368:105|341:142,1,82.5000025177003,10|2,2:2|1:2,0:0:0:0:
334,225,70555,2,0,P|295:250|235:240,1,82.5000025177003,10|0,2:2|1:1,0:0:0:0:
194,175,71143,2,0,P|155:151|96:161,1,82.5000025177003,10|2,2:2|1:2,0:0:0:0:
83,184,71584,1,0,3:3:0:0:
83,184,71731,5,12,2:2:0:0:
33,99,72025,1,0,0:0:0:0:
83,13,72319,2,0,L|179:24,1,82.5000025177003,8|0,2:2|1:1,0:0:0:0:
263,13,72908,2,0,P|280:54|271:94,1,82.5000025177003,10|0,2:2|1:1,0:0:0:0:
211,167,73496,1,10,2:2:0:0:
302,342,74084,5,10,2:2:0:0:
369,269,74378,1,0,0:0:0:0:
459,308,74672,2,0,L|474:211,1,82.5000025177003,8|0,2:2|1:1,0:0:0:0:
504,133,75260,1,8,2:2:0:0:
307,97,75849,2,0,P|269:97|233:68,1,82.5000025177003,10|0,2:2|1:1,0:0:0:0:
147,23,76437,6,0,L|138:104,1,82.5000025177003,10|2,2:2|2:2,0:0:0:0:
94,122,76878,1,2,0:0:0:0:
94,122,77025,2,0,L|103:203,1,82.5000025177003,10|0,2:2|1:1,0:0:0:0:
78,299,77613,1,8,2:2:0:0:
154,362,77908,1,0,1:1:0:0:
234,303,78202,1,10,2:2:0:0:
420,370,78790,5,10,2:2:0:0:
444,274,79084,1,0,0:0:0:0:
373,204,79378,2,0,L|385:101,1,82.5000025177003,8|0,2:2|1:1,0:0:0:0:
286,96,79966,2,0,P|244:103|209:77,1,82.5000025177003,8|0,2:2|1:1,0:0:0:0:
139,16,80555,2,0,P|97:9|62:35,1,82.5000025177003,10|0,2:2|1:1,0:0:0:0:
42,75,80996,1,0,3:3:0:0:
42,75,81143,5,12,2:2:0:0:
89,161,81437,1,0,0:0:0:0:
23,235,81731,2,0,L|33:323,1,82.5000025177003,10|0,2:2|1:1,0:0:0:0:
105,383,82319,1,10,2:2:0:0:
273,344,82908,2,0,L|282:262,1,82.5000025177003,10|2,2:2|1:2,0:0:0:0:
255,166,83496,5,10,2:2:0:0:
350,137,83790,2,0,P|401:139|426:165,1,82.5000025177003,2|8,2:2|2:2,0:0:0:0:
466,247,84378,1,2,1:2:0:0:
406,326,84672,2,0,L|303:315,1,82.5000025177003,10|0,2:2|1:1,0:0:0:0:
238,367,85260,1,8,2:2:0:0:
64,271,85849,5,10,2:2:0:0:
109,184,86143,2,0,L|25:172,1,82.5000025177003,2|12,1:2|2:2,0:0:0:0:
3,76,86731,2,0,L|8:35,1,41.2500012588501,2|8,1:2|2:2,0:0:0:0:
47,4,87025,1,10,2:2:0:0:
135,49,87319,1,2,3:2:0:0:
225,9,87613,2,0,P|265:6|300:27,1,82.5000025177003,2|0,3:2|3:3,0:0:0:0:
354,110,88202,5,6,1:2:0:0:
