osu file format v14

[General]
AudioFilename: audio.mp3
AudioLeadIn: 0
PreviewTime: 142391
Countdown: 0
SampleSet: Soft
StackLeniency: 0.4
Mode: 0
LetterboxInBreaks: 0
WidescreenStoryboard: 0

[Editor]
Bookmarks: 19815,45078,98762,142973,154025,168236,196657,221920,259815,291394,322973
DistanceSpacing: 1.7
BeatDivisor: 4
GridSize: 4
TimelineZoom: 1.6

[Metadata]
Title:Kamado Tanjiro no Uta
TitleUnicode:竈門炭治郎のうた
Artist:Shiina Go feat. Nakagawa Nami
ArtistUnicode:椎名豪 feat. 中川奈美
Creator:KwAIMSuckASFuk
Version:A Bond that Can't be Severed
Source:鬼滅の刃
Tags:Blade of Demon Destruction Demon Slayer Kimetsu no Yaiba oni anime japanese ost insert song
BeatmapID:2155643
BeatmapSetID:1030790

[Difficulty]
HPDrainRate:5
CircleSize:4.3
OverallDifficulty:7
ApproachRate:8
SliderMultiplier:1.4
SliderTickRate:1

[Events]
//Background and Video events
0,0,"bg.jpg",0,0
//Break Periods
2,45078,60127
//Storyboard Layer 0 (Background)
//Storyboard Layer 1 (Fail)
//Storyboard Layer 2 (Pass)
//Storyboard Layer 3 (Foreground)
//Storyboard Layer 4 (Overlay)
//Storyboard Sound Samples

[TimingPoints]
878,789.473684210526,4,2,1,70,1,0
19825,-250,4,2,11,70,0,0
20614,-250,4,2,12,70,0,0
21404,-250,4,2,13,70,0,0
22983,-250,4,2,14,70,0,0
23772,-250,4,2,15,70,0,0
24562,-250,4,2,16,70,0,0
26141,-250,4,2,17,70,0,0
26930,-250,4,2,18,70,0,0
27720,-250,4,2,19,70,0,0
29299,-250,4,2,20,70,0,0
30088,-250,4,2,21,70,0,0
30877,-250,4,2,22,70,0,0
31667,-250,4,2,23,70,0,0
32456,-100,4,2,24,70,0,0
33246,-100,4,2,12,70,0,0
33443,-100,4,2,25,70,0,0
33641,-100,4,2,26,70,0,0
33838,-100,4,2,27,70,0,0
34035,-100,4,2,28,70,0,0
34430,-100,4,2,31,70,0,0
34627,-100,4,2,29,70,0,0
35220,-100,4,2,21,70,0,0
35614,-100,4,2,47,70,0,0
36996,-100,4,2,15,70,0,0
37193,-100,4,2,31,70,0,0
37785,-100,4,2,32,70,0,0
38180,-100,4,2,33,70,0,0
38575,-100,4,2,31,70,0,0
38772,-100,4,2,34,70,0,0
39562,-100,4,2,18,70,0,0
40154,-100,4,2,35,70,0,0
40351,-100,4,2,36,70,0,0
40943,-100,4,2,1,5,0,0
41141,-100,4,2,37,70,0,0
41930,-100,4,2,38,70,0,0
42720,-100,4,2,21,70,0,0
42917,-100,4,2,39,70,0,0
43114,-100,4,2,40,70,0,0
43312,-100,4,2,35,70,0,0
43509,-100,4,2,41,70,0,0
43904,-100,4,2,25,70,0,0
44299,-100,4,2,42,70,0,0
60877,-100,4,2,43,70,0,0
61470,-100,4,2,44,70,0,0
61667,-100,4,2,39,70,0,0
62062,-100,4,2,37,70,0,0
62259,-100,4,2,44,70,0,0
62456,-100,4,2,25,70,0,0
62851,-100,4,2,37,70,0,0
63049,-100,4,2,44,70,0,0
63246,-100,4,2,39,70,0,0
64035,-100,4,2,45,70,0,0
64627,-100,4,2,46,70,0,0
64825,-100,4,2,25,70,0,0
65220,-100,4,2,44,70,0,0
65417,-100,4,2,46,70,0,0
65614,-100,4,2,45,70,0,0
66009,-100,4,2,44,70,0,0
66206,-100,4,2,46,70,0,0
66404,-100,4,2,35,70,0,0
66799,-100,4,2,44,70,0,0
66996,-100,4,2,46,70,0,0
67193,-100,4,2,56,70,0,0
67785,-100,4,2,39,70,0,0
67983,-100,4,2,31,70,0,0
68377,-100,4,2,44,70,0,0
68575,-100,4,2,39,70,0,0
68772,-100,4,2,26,70,0,0
69167,-100,4,2,44,70,0,0
69562,-100,4,2,31,70,0,0
69956,-100,4,2,44,70,0,0
70351,-100,4,2,48,70,0,0
70549,-100,4,2,49,70,0,0
70746,-100,4,2,50,70,0,0
70943,-100,4,2,51,70,0,0
71141,-100,4,2,39,70,0,0
71535,-100,4,2,51,70,0,0
71733,-100,4,2,39,70,0,0
71930,-100,4,2,31,70,0,0
72325,-100,4,2,51,70,0,0
72720,-100,4,2,52,70,0,0
73114,-100,4,2,51,70,0,0
73509,-100,4,2,43,70,0,0
74299,-100,4,2,39,70,0,0
75088,-100,4,2,25,70,0,0
75285,-100,4,2,49,70,0,0
75483,-100,4,2,37,70,0,0
75680,-100,4,2,44,70,0,0
75877,-100,4,2,39,70,0,0
76272,-100,4,2,55,70,0,0
76667,-100,4,2,45,70,0,0
77259,-100,4,2,46,70,0,0
77456,-100,4,2,25,70,0,0
77851,-100,4,2,44,70,0,0
78049,-100,4,2,46,70,0,0
78246,-100,4,2,26,70,0,0
78641,-100,4,2,44,70,0,0
79035,-100,4,2,26,70,0,0
79430,-100,4,2,35,70,0,0
79627,-100,4,2,44,70,0,0
79825,-100,4,2,56,70,0,0
80417,-100,4,2,39,70,0,0
80614,-100,4,2,31,70,0,0
81009,-100,4,2,44,70,0,0
81206,-100,4,2,39,70,0,0
81404,-100,4,2,26,70,0,0
81799,-100,4,2,44,70,0,0
82193,-100,4,2,31,70,0,0
82588,-100,4,2,44,70,0,0
82983,-100,4,2,48,70,0,0
83575,-100,4,2,51,70,0,0
83772,-100,4,2,39,70,0,0
84562,-100,4,2,52,70,0,0
84956,-100,4,2,51,70,0,0
85351,-100,4,2,57,70,0,0
85746,-100,4,2,51,70,0,0
86141,-100,4,2,58,70,0,0
87325,-100,4,2,59,70,0,0
88114,-100,4,2,39,70,0,0
88312,-100,4,2,37,70,0,0
88509,-100,4,2,26,70,0,0
88706,-100,4,2,35,70,0,0
88904,-100,4,2,27,70,0,0
89101,-100,4,2,44,70,0,0
89299,-100,4,2,60,70,0,0
89693,-100,4,2,1,5,0,0
89891,-100,4,2,61,70,0,0
91075,-100,4,2,62,70,0,0
91667,-100,4,2,39,70,0,0
92062,-100,4,2,1,70,0,0
92259,-66.6666666666667,4,2,63,70,0,0
92325,-100,4,2,30,70,0,0
92391,-100,4,2,64,70,0,0
92456,-100,4,2,65,70,0,0
95614,-100,4,2,66,70,0,0
97193,-100,4,2,1,40,0,0
98772,-40,4,2,1,80,0,0
99562,-66.6666666666667,4,2,1,70,0,0
100351,-66.6666666666667,4,2,1,70,0,0
101141,-50,4,2,1,70,0,0
104693,-33.3333333333333,4,2,1,70,0,0
105088,-50,4,2,1,80,0,0
105877,-40,4,2,1,80,0,0
106667,-100,4,2,1,70,0,0
107456,-40,4,2,1,80,0,0
108246,-100,4,2,1,70,0,0
109035,-40,4,2,1,80,0,0
109825,-66.6666666666667,4,2,1,70,0,0
111404,-66.6666666666667,4,2,67,70,0,0
111535,-66.6666666666667,4,2,12,70,0,0
111667,-66.6666666666667,4,2,15,70,0,0
111799,-66.6666666666667,4,2,67,70,0,0
111930,-66.6666666666667,4,2,12,70,0,0
112062,-66.6666666666667,4,2,15,70,0,0
112193,-50,4,2,67,70,0,0
112325,-66.6666666666667,4,2,12,70,0,0
112456,-66.6666666666667,4,2,15,70,0,0
112588,-66.6666666666667,4,2,67,70,0,0
112720,-66.6666666666667,4,2,12,70,0,0
112851,-66.6666666666667,4,2,15,70,0,0
112983,-50,4,2,67,70,0,0
113114,-50,4,2,12,70,0,0
113246,-50,4,2,15,70,0,0
113377,-50,4,2,67,70,0,0
113509,-50,4,2,12,70,0,0
113641,-50,4,2,15,70,0,0
113772,-50,4,2,67,70,0,0
113904,-50,4,2,12,70,0,0
114035,-50,4,2,15,70,0,0
114167,-50,4,2,67,70,0,0
114299,-50,4,2,12,70,0,0
114430,-50,4,2,15,70,0,0
114562,-50,4,2,68,70,0,0
114693,-66.6666666666667,4,2,12,70,0,0
114825,-66.6666666666667,4,2,15,70,0,0
114956,-66.6666666666667,4,2,68,70,0,0
115088,-66.6666666666667,4,2,12,70,0,0
115220,-66.6666666666667,4,2,15,70,0,0
115351,-66.6666666666667,4,2,69,70,0,0
115483,-66.6666666666667,4,2,12,70,0,0
115614,-66.6666666666667,4,2,72,70,0,0
115746,-66.6666666666667,4,2,69,70,0,0
115877,-66.6666666666667,4,2,12,70,0,0
116009,-66.6666666666667,4,2,72,70,0,0
116141,-66.6666666666667,4,2,67,70,0,0
116272,-66.6666666666667,4,2,12,70,0,0
116404,-66.6666666666667,4,2,15,70,0,0
116535,-66.6666666666667,4,2,67,70,0,0
116667,-66.6666666666667,4,2,12,70,0,0
116799,-66.6666666666667,4,2,15,70,0,0
116930,-66.6666666666667,4,2,67,70,0,0
117062,-66.6666666666667,4,2,12,70,0,0
117193,-66.6666666666667,4,2,15,70,0,0
117325,-66.6666666666667,4,2,67,70,0,0
117456,-66.6666666666667,4,2,12,70,0,0
117588,-66.6666666666667,4,2,15,70,0,0
117720,-50,4,2,18,70,0,0
117851,-50,4,2,70,70,0,0
117983,-50,4,2,71,70,0,0
118114,-50,4,2,18,70,0,0
118246,-50,4,2,70,70,0,0
118377,-66.6666666666667,4,2,71,70,0,0
118509,-50,4,2,18,70,0,0
118641,-66.6666666666667,4,2,70,70,0,0
118772,-66.6666666666667,4,2,71,70,0,0
118904,-66.6666666666667,4,2,18,70,0,0
119035,-66.6666666666667,4,2,70,70,0,0
119167,-66.6666666666667,4,2,71,70,0,0
119299,-50,4,2,73,70,0,0
119430,-50,4,2,70,70,0,0
119562,-50,4,2,72,70,0,0
119693,-50,4,2,73,70,0,0
119825,-50,4,2,70,70,0,0
119956,-50,4,2,72,70,0,0
120088,-50,4,2,93,70,0,0
120220,-50,4,2,70,70,0,0
120351,-50,4,2,72,70,0,0
120483,-50,4,2,73,70,0,0
120614,-50,4,2,70,70,0,0
120746,-50,4,2,72,70,0,0
120877,-50,4,2,95,70,0,0
121009,-50,4,2,12,70,0,0
121141,-50,4,2,72,70,0,0
121272,-50,4,2,91,70,0,0
121667,-50,4,2,92,70,0,0
122062,-50,4,2,1,60,0,0
124825,-100,4,2,1,60,0,0
129956,-66.6666666666667,4,2,1,60,0,0
130351,-50,4,2,1,70,0,0
136667,-40,4,2,1,80,0,0
142588,-66.6666666666667,4,2,1,70,0,0
142983,-50,4,2,1,70,0,1
148509,-40,4,2,1,70,0,1
149299,-50,4,2,1,70,0,1
155614,-33.3333333333333,4,2,1,70,0,1
156404,-50,4,2,1,70,0,1
157193,-50,4,2,1,70,0,1
158772,-33.3333333333333,4,2,1,70,0,1
161930,-50,4,2,1,70,0,1
165088,-40,4,2,1,80,0,1
166272,-66.6666666666667,4,2,1,80,0,1
166371,-66.6666666666667,4,2,1,5,0,1
168246,-66.6666666666667,4,2,74,70,0,0
168838,-66.6666666666667,4,2,35,70,0,0
169035,-66.6666666666667,4,2,15,70,0,0
169233,-66.6666666666667,4,2,72,70,0,0
169430,-66.6666666666667,4,2,21,70,0,0
169627,-66.6666666666667,4,2,51,70,0,0
169825,-66.6666666666667,4,2,75,70,0,0
170220,-66.6666666666667,4,2,26,70,0,0
170614,-66.6666666666667,4,2,15,70,0,0
170812,-66.6666666666667,4,2,72,70,0,0
171206,-66.6666666666667,4,2,44,70,0,0
171404,-66.6666666666667,4,2,76,70,0,0
171799,-66.6666666666667,4,2,26,70,0,0
172193,-66.6666666666667,4,2,77,70,0,0
172588,-66.6666666666667,4,2,26,70,0,0
172983,-66.6666666666667,4,2,25,70,0,0
173377,-66.6666666666667,4,2,35,70,0,0
173575,-66.6666666666667,4,2,51,70,0,0
173772,-66.6666666666667,4,2,78,70,0,0
173970,-66.6666666666667,4,2,1,5,0,0
174167,-66.6666666666667,4,2,44,70,0,0
174562,-66.6666666666667,4,2,79,70,0,0
175154,-66.6666666666667,4,2,1,5,0,0
175351,-66.6666666666667,4,2,80,70,0,0
175549,-66.6666666666667,4,2,30,70,0,0
175943,-66.6666666666667,4,2,51,70,0,0
176141,-66.6666666666667,4,2,94,70,0,0
176535,-66.6666666666667,4,2,35,70,0,0
176930,-66.6666666666667,4,2,30,70,0,0
177325,-66.6666666666667,4,2,72,70,0,0
177720,-66.6666666666667,4,2,81,70,0,0
178114,-66.6666666666667,4,2,37,70,0,0
178509,-66.6666666666667,4,2,82,70,0,0
178904,-66.6666666666667,4,2,25,70,0,0
179299,-66.6666666666667,4,2,83,70,0,0
179693,-66.6666666666667,4,2,57,70,0,0
180088,-66.6666666666667,4,2,27,70,0,0
180187,-66.6666666666667,4,2,84,70,0,0
180285,-66.6666666666667,4,2,21,70,0,0
180384,-66.6666666666667,4,2,72,70,0,0
180483,-50,4,2,15,70,0,0
180680,-50,4,2,72,70,0,0
180877,-66.6666666666667,4,2,85,70,0,0
181470,-66.6666666666667,4,2,35,70,0,0
181667,-66.6666666666667,4,2,15,70,0,0
181864,-66.6666666666667,4,2,72,70,0,0
182259,-66.6666666666667,4,2,51,70,0,0
182456,-66.6666666666667,4,2,75,70,0,0
182851,-66.6666666666667,4,2,26,70,0,0
183246,-66.6666666666667,4,2,12,70,0,0
183443,-66.6666666666667,4,2,71,70,0,0
183838,-66.6666666666667,4,2,44,70,0,0
184035,-66.6666666666667,4,2,76,70,0,0
184430,-66.6666666666667,4,2,26,70,0,0
184825,-66.6666666666667,4,2,77,70,0,0
185022,-66.6666666666667,4,2,86,70,0,0
185417,-66.6666666666667,4,2,44,70,0,0
185614,-66.6666666666667,4,2,25,70,0,0
186009,-66.6666666666667,4,2,35,70,0,0
186404,-66.6666666666667,4,2,78,70,0,0
186799,-66.6666666666667,4,2,44,70,0,0
187193,-66.6666666666667,4,2,79,70,0,0
187785,-66.6666666666667,4,2,1,5,0,0
187983,-66.6666666666667,4,2,80,70,0,0
188180,-66.6666666666667,4,2,30,70,0,0
188575,-66.6666666666667,4,2,51,70,0,0
188772,-66.6666666666667,4,2,39,70,0,0
189167,-66.6666666666667,4,2,35,70,0,0
189562,-66.6666666666667,4,2,30,70,0,0
189956,-66.6666666666667,4,2,49,70,0,0
190351,-50,4,2,1,70,0,0
195088,-40,4,2,1,70,0,0
196272,-66.6666666666667,4,2,1,70,0,0
196667,-50,4,2,1,70,0,1
199825,-50,4,2,1,70,0,1
202193,-40,4,2,1,70,0,1
202983,-50,4,2,1,70,0,1
209299,-33.3333333333333,4,2,1,70,0,1
210088,-50,4,2,1,70,0,1
212456,-33.3333333333333,4,2,1,70,0,1
215614,-50,4,2,1,70,0,1
218772,-40,4,2,1,80,0,1
219956,-66.6666666666667,4,2,1,80,0,1
220055,-66.6666666666667,4,2,1,5,0,1
221930,-66.6666666666667,4,2,1,60,0,0
225877,-58.8235294117647,4,2,1,60,0,0
228246,-52.6315789473684,4,2,1,60,0,0
231404,-47.6190476190476,4,2,1,60,0,0
234167,-50,4,2,1,70,0,0
234562,-100,4,2,1,60,0,0
245614,-66.6666666666667,4,2,1,60,0,0
248772,-100,4,2,1,60,0,0
255285,-66.6666666666667,4,2,1,60,0,0
256272,-100,4,2,1,60,0,0
259825,-100,4,2,86,70,0,0
260220,-100,4,2,44,70,0,0
260614,-100,4,2,21,70,0,0
261206,-100,4,2,1,5,0,0
261404,-100,4,2,21,70,0,0
261799,-100,4,2,21,70,0,0
262193,-100,4,2,72,70,0,0
262588,-100,4,2,15,70,0,0
262983,-100,4,2,87,70,0,0
263377,-100,4,2,44,70,0,0
263772,-100,4,2,39,70,0,0
264167,-100,4,2,44,70,0,0
264364,-100,4,2,1,70,0,0
264562,-100,4,2,35,70,0,0
264956,-100,4,2,31,70,0,0
265351,-100,4,2,26,70,0,0
266141,-100,4,2,88,70,0,0
266535,-100,4,2,37,70,0,0
266930,-100,4,2,88,70,0,0
267522,-100,4,2,1,5,0,0
267720,-100,4,2,84,70,0,0
268114,-100,4,2,21,70,0,0
268509,-100,4,2,72,70,0,0
268904,-100,4,2,27,70,0,0
269299,-100,4,2,89,70,0,0
270088,-100,4,2,90,70,0,0
270877,-100,4,2,1,70,0,0
272456,-100,4,2,1,70,0,0
278772,-50,4,2,1,70,0,0
285088,-40,4,2,1,80,0,0
291009,-66.6666666666667,4,2,1,80,0,0
291404,-50,4,2,1,80,0,1
296930,-40,4,2,1,80,0,1
297720,-50,4,2,1,80,0,1
304035,-33.3333333333333,4,2,1,80,0,1
304825,-50,4,2,1,80,0,1
307193,-33.3333333333333,4,2,1,80,0,1
308772,-33.3333333333333,4,2,1,90,0,1
310351,-25,4,2,1,70,0,0
311535,-100,4,2,1,70,0,0
312325,-50,4,2,1,70,0,0
313509,-33.3333333333333,4,2,1,80,0,1
315088,-50,4,2,1,80,0,1
315483,-50,4,2,1,70,0,1
319825,-40,4,2,1,70,0,1
321009,-66.6666666666667,4,2,1,70,0,1
321108,-66.6666666666667,4,2,1,5,0,1
322884,-66.6666666666667,4,2,1,70,0,0

[Colours]
Combo1 : 255,128,128
Combo2 : 191,135,233
Combo3 : 255,159,207
Combo4 : 128,128,192

[HitObjects]
152,264,19825,6,0,P|188:257|211:260,2,56,2|2|2,0:2|0:2|0:2,0:2:0:0:
385,173,22983,2,0,P|352:189|341:206,2,56,2|2|2,0:2|0:2|0:2,0:2:0:0:
177,82,26141,2,0,P|185:106|181:143,2,56,2|2|2,0:2|0:2|0:2,0:2:0:0:
138,298,29299,2,0,P|117:280|105:252,2,56,2|2|2,0:2|0:2|0:2,0:2:0:0:
138,298,31667,1,2,0:2:0:0:
284,231,32456,6,0,P|369:222|448:217,1,140,2|2,2:2|0:2,0:2:0:0:
478,162,33443,2,0,P|481:133|485:113,2,35,2|2|2,0:2|0:2|0:2,0:2:0:0:
446,59,34035,1,2,0:2:0:0:
256,44,34430,1,2,0:2:0:0:
327,15,34627,2,0,P|330:70|328:132,1,105,2|2,0:2|0:2,0:2:0:0:
388,173,35614,5,2,0:2:0:0:
157,194,36996,1,2,0:2:0:0:
123,126,37193,1,2,0:2:0:0:
107,317,37785,2,0,P|105:268|101:226,2,70,2|2|2,0:2|0:2|0:2,0:2:0:0:
168,369,38772,5,2,0:2:0:0:
240,340,39562,1,2,0:2:0:0:
474,290,40154,1,2,0:2:0:0:
411,241,40351,2,0,P|406:187|401:127,1,105,2|0,0:2|0:2,0:2:0:0:
445,69,41141,1,2,0:2:0:0:
221,87,41930,6,0,P|266:75|234:145,1,140,2|2,0:2|0:2,0:2:0:0:
200,180,42917,1,2,0:2:0:0:
133,149,43114,1,2,0:2:0:0:
62,167,43312,1,2,0:2:0:0:
10,79,43509,2,0,P|14:17|15:-15,2,70,2|2|2,0:2|0:2|0:2,0:2:0:0:
166,222,60877,5,2,0:2:0:0:
356,139,61470,1,2,0:2:0:0:
294,97,61667,2,0,P|295:41|296:3,1,70,2|2,0:2|0:2,0:2:0:0:
224,8,62259,1,2,0:2:0:0:
155,35,62456,1,2,0:2:0:0:
81,18,62851,2,0,P|85:47|85:77,2,35,2|2|2,0:2|0:2|0:2,0:2:0:0:
237,209,64035,5,2,0:2:0:0:
396,152,64627,1,2,0:2:0:0:
455,199,64825,2,0,P|456:258|453:291,1,70,2|2,0:2|0:2,0:2:0:0:
404,324,65417,1,2,0:2:0:0:
330,309,65614,1,2,0:2:0:0:
256,337,66009,2,0,P|258:309|259:286,2,35,2|2|2,0:2|0:2|0:2,0:2:0:0:
286,116,66799,2,0,P|287:133|288:150,1,35,2|2,0:2|0:2,0:2:0:0:
237,209,67193,5,2,0:2:0:0:
60,92,67785,1,2,0:2:0:0:
112,37,67983,2,0,P|170:31|204:28,1,70,2|2,0:2|0:2,0:2:0:0:
255,16,68575,1,2,0:2:0:0:
325,44,68772,1,2,0:2:0:0:
396,18,69167,2,0,P|436:10|478:20,2,70,2|2|2,0:2|0:2|0:2,0:2:0:0:
360,182,70351,6,0,L|362:225,1,35,2|2,0:2|0:2,0:2:0:0:
389,288,70746,2,0,L|387:331,1,35,2|2,0:2|0:2,0:2:0:0:
326,375,71141,1,2,0:2:0:0:
256,337,71535,2,0,L|258:287,2,35,2|2|2,0:2|0:2|0:2,0:2:0:0:
97,271,72325,1,2,0:2:0:0:
107,117,72720,2,0,P|157:111|190:110,1,70,2|2,0:2|0:2,0:2:0:0:
378,31,73509,6,0,P|371:96|376:176,2,140,2|2|2,0:2|0:2|0:2,0:2:0:0:
284,70,75285,2,0,L|279:137,2,35,2|2|2,0:2|0:2|0:2,0:2:0:0:
276,190,75877,2,0,P|233:185|191:179,1,70,2|2,0:2|0:2,0:2:0:0:
16,350,76667,6,0,P|90:314|96:272,1,105,2|2,0:2|0:2,0:2:0:0:
61,233,77456,1,2,0:2:0:0:
98,33,77851,2,0,L|94:90,1,35,2|2,0:2|0:2,0:2:0:0:
243,57,78246,2,0,P|199:48|169:66,1,70,2|2,0:2|0:2,0:2:0:0:
181,152,79035,2,0,P|225:161|255:143,1,70,2|2,0:2|0:2,0:2:0:0:
297,211,79627,1,2,0:2:0:0:
370,188,79825,5,2,0:2:0:0:
278,353,80417,1,2,0:2:0:0:
202,367,80614,2,0,P|200:309|197:278,1,70,2|2,0:2|0:2,0:2:0:0:
146,242,81206,1,2,0:2:0:0:
75,268,81404,1,2,0:2:0:0:
10,229,81799,2,0,P|14:184|18:137,2,70,2|2|2,0:2|0:2|0:2,0:2:0:0:
137,24,82983,6,0,P|200:59|238:53,1,105,2|2,0:2|0:2,0:2:0:0:
294,20,83772,1,2,0:2:0:0:
460,106,84364,1,2,0:2:0:0:
398,146,84562,2,0,P|401:205|401:242,2,70,2|2|2,0:2|0:2|0:2,0:2:0:0:
355,277,85746,1,2,0:2:0:0:
283,253,86141,5,2,0:2:0:0:
211,227,87325,1,2,0:2:0:0:
136,209,88114,1,2,0:2:0:0:
95,273,88312,1,2,0:2:0:0:
142,330,88509,2,0,L|143:364,2,35,2|2|2,0:2|0:2|0:2,0:2:0:0:
213,303,89101,1,2,0:2:0:0:
280,346,89299,6,0,P|314:347|346:334,1,70,2|0,0:2|0:2,0:2:0:0:
434,185,89891,2,0,P|426:258|428:319,2,105,2|2|2,0:2|0:2|0:2,0:2:0:0:
289,151,91667,1,2,0:2:0:0:
144,252,92062,1,0,0:0:0:0:
218,286,92259,2,0,L|221:258,3,17.500000667572,2|2|2|2,0:2|0:2|0:2|0:2,0:2:0:0:
70,62,95614,5,2,0:2:0:0:
256,192,97193,12,0,98575,0:2:0:0:
72,274,98772,6,0,B|127:222|128:158|128:158|142:238|215:250,1,262.5,12|0,0:2|0:2,0:2:0:0:
331,131,99562,2,0,B|277:121|227:164|227:164|232:123|261:103,1,157.500006008148,2|0,3:2|0:2,0:2:0:0:
61,185,100351,2,0,P|71:244|124:273,1,105.000004005432,2|0,0:2|0:2,0:2:0:0:
137,361,100943,1,0,0:2:0:0:
230,327,101141,2,0,B|264:288|238:230|238:230|220:236|206:250,1,140,0|0,3:2|0:2,0:2:0:0:
154,169,101733,1,2,0:2:0:0:
238,150,101930,6,0,B|281:136|308:169|308:169|305:206|342:232|342:232|335:187|356:165,1,210,2|0,3:2|0:2,0:2:0:0:
426,95,102720,2,0,B|416:139|374:146|374:146|344:125|302:144|302:144|345:160|354:189,1,210,2|0,0:2|0:2,0:2:0:0:
379,284,103509,2,0,B|345:253|360:213|360:213|393:197|398:152|398:152|362:181|332:174,1,210,2|0,0:2|0:2,0:2:0:0:
221,120,104299,2,0,P|188:107|144:128,1,70,0|0,3:2|0:2,0:2:0:0:
189,293,104693,6,0,B|203:238|203:238|184:176,1,105.000004005432,8|0,0:2|0:2,0:2:0:0:
43,82,105088,6,0,P|0:154|87:129,1,210,6|0,3:2|0:2,0:2:0:0:
295,160,105877,2,0,B|315:125|296:79|296:79|237:81|219:121,1,175,10|0,0:2|0:2,0:2:0:0:
335,383,106667,6,0,P|296:379|296:322,1,105,2|0,3:2|0:2,0:2:0:0:
297,242,107456,6,0,B|241:192|148:266|232:307|185:340|185:340|185:278|114:261,1,262.5,14|0,0:2|0:2,0:2:0:0:
50,78,108246,6,0,P|59:124|120:125,1,105,2|0,3:2|0:2,0:2:0:0:
197,40,109035,6,0,B|208:79|185:116|185:116|240:68|330:97|327:185,1,262.5,14|0,0:2|0:2,0:2:0:0:
423,312,109825,6,0,P|418:259|325:276,1,157.500006008148,2|0,3:2|0:2,0:2:0:0:
221,285,110614,2,0,L|98:281,1,105.000004005432,6|2,0:2|0:2,0:2:0:0:
136,54,111404,6,0,P|117:58|90:52,2,35.0000013351441,6|2|2,0:2|0:2|0:2,0:2:0:0:
213,75,111799,2,0,P|194:71|167:77,2,35.0000013351441,2|2|2,0:2|0:2|0:2,0:2:0:0:
309,57,112193,2,0,B|336:80|336:80|339:116|321:155,1,93.3333333333333,2|2,0:0|0:0,0:0:0:0:
299,167,112588,2,0,L|304:212,2,35.0000013351441,2|2|2,0:0|0:0|0:0,0:0:0:0:
416,296,112983,6,0,B|420:320|459:309|459:309|459:273|433:270,1,93.3333333333333,2|2,0:2|0:2,0:2:0:0:
313,336,113377,2,0,B|291:347|313:380|313:380|348:369|342:344,1,93.3333333333333,2|2,0:2|0:2,0:2:0:0:
245,263,113772,2,0,B|227:245|202:277|202:277|223:306|246:294,1,93.3333333333333,2|2,0:2|0:2,0:2:0:0:
299,167,114167,2,0,B|309:145|271:131|271:131|250:160|269:178,1,93.3333333333333,2|2,0:2|0:2,0:2:0:0:
388,191,114562,6,0,B|404:158|441:146|441:146|474:154,1,93.3333333333333,2|2,0:2|0:2,0:2:0:0:
487,171,114956,2,0,L|483:136,2,35.0000013351441,2|2|2,0:2|0:2|0:2,0:2:0:0:
502,100,115351,2,0,L|506:61,2,35.0000013351441,2|2|2,0:2|0:2|0:2,0:2:0:0:
436,23,115746,2,0,P|405:48|363:41,1,70.0000026702882,2|2,0:2|0:2,0:2:0:0:
343,32,116141,6,0,P|344:62|339:86,2,35.0000013351441,2|2|2,0:2|0:2|0:2,0:2:0:0:
271,74,116535,2,0,P|256:100|240:118,2,35.0000013351441,2|2|2,0:2|0:2|0:2,0:2:0:0:
184,71,116930,2,0,P|158:86|135:94,2,35.0000013351441,2|2|2,0:2|0:2|0:2,0:2:0:0:
111,23,117325,2,0,P|81:24|57:18,2,35.0000013351441,2|2|2,0:2|0:2|0:2,0:2:0:0:
70,122,117720,6,0,P|78:145|86:179,2,46.6666666666667,2|2|2,0:2|0:2|0:2,0:2:0:0:
174,195,118114,2,0,P|166:218|157:266,2,46.6666666666667,2|2|2,0:2|0:2|0:2,0:2:0:0:
33,308,118509,2,0,B|65:290|65:290|101:292|136:328,1,93.3333333333333,2|2,0:2|0:2,0:2:0:0:
153,337,118904,2,0,L|187:331,2,35.0000013351441,2|2|2,0:2|0:2|0:2,0:2:0:0:
283,306,119299,6,0,B|271:367|323:356|291:302,1,93.3333333333333,2|2,0:2|0:2,0:2:0:0:
236,229,119693,2,0,B|189:188|172:238|235:237,1,93.3333333333333,2|2,0:2|0:2,0:2:0:0:
325,227,120088,2,0,B|383:206|348:167|317:222,1,93.3333333333333,2|2,0:2|0:2,0:2:0:0:
283,306,120483,2,0,B|271:367|323:356|291:302,1,93.3333333333333,2|2,0:2|0:2,0:2:0:0:
236,229,120877,6,0,P|209:232|181:239,2,46.6666666666667,2|2|2,0:2|0:2|0:2,0:2:0:0:
268,151,121272,1,2,0:2:0:0:
392,274,121667,1,2,0:2:0:0:
239,350,122062,2,0,P|210:316|160:305,1,70,0|0,0:2|0:2,0:2:0:0:
47,260,122456,6,0,P|100:221|182:322,1,210,0|0,0:2|0:2,0:2:0:0:
274,184,123246,2,0,P|282:141|269:104,1,70,0|0,3:2|0:2,0:2:0:0:
165,69,123641,2,0,P|159:102|157:124,2,35,2|0|0,0:2|0:2|0:2,0:2:0:0:
275,116,124035,5,12,0:2:0:0:
343,94,124430,1,0,0:2:0:0:
417,69,124825,2,0,P|416:138|417:167,1,70,2|0,0:2|0:2,0:2:0:0:
418,233,125614,2,0,P|358:197|333:184,1,70,2|0,0:2|0:2,0:2:0:0:
275,151,126404,2,0,P|335:117|359:102,1,70,2|0,0:2|0:2,0:2:0:0:
184,201,127193,6,0,B|118:199|126:254|38:237,2,140,2|0|0,3:2|0:2|0:2,0:2:0:0:
236,259,129562,1,2,3:2:0:0:
380,120,129956,2,0,P|392:155|389:184,1,52.5000020027161,2|0,0:2|0:2,0:2:0:0:
310,73,130351,6,0,P|372:38|441:60,2,140,6|0|2,3:2|3:2|0:2,0:2:0:0:
160,196,131535,2,0,P|173:151|158:103,1,70,2|0,3:2|0:2,0:2:0:0:
46,31,131930,2,0,P|59:114|62:191,2,140,2|0|2,3:2|3:2|0:2,0:2:0:0:
48,328,133114,2,0,P|28:302|55:310,1,70,2|0,3:2|0:2,0:2:0:0:
169,340,133509,6,0,P|236:361|298:326,1,140,2|0,3:2|3:2,0:2:0:0:
314,137,134299,2,0,P|262:184|261:255,1,140,2|0,0:2|0:2,0:2:0:0:
343,255,134891,1,2,0:2:0:0:
405,312,135088,1,2,3:2:0:0:
433,52,135483,2,0,P|426:88|402:111,1,70,2|2,0:2|3:2,0:2:0:0:
313,136,135877,2,0,P|383:146|452:158,1,140,6|0,3:2|0:2,0:2:0:0:
142,225,136667,6,0,B|95:239|73:195|73:195|101:137|157:172,1,175,8|8,0:2|0:2,0:2:0:0:
250,296,137456,2,0,B|258:353|202:359|202:359|161:320|207:272,1,175,8|8,0:2|0:2,0:2:0:0:
353,226,138246,2,0,B|411:237|399:292|399:292|354:322|317:262,1,175,8|8,0:2|0:2,0:2:0:0:
321,104,139035,2,0,B|353:58|396:86|396:86|411:137|343:155,1,175,8|8,0:2|0:2,0:2:0:0:
261,194,139627,1,2,0:2:0:0:
72,152,139825,6,0,P|54:103|65:69,1,87.5,12|0,0:2|0:2,0:2:0:0:
191,53,140220,1,2,0:2:0:0:
182,199,140417,1,2,0:2:0:0:
40,277,140614,2,0,B|74:227|122:245|122:245|84:292|122:358,1,175,8|0,0:2|0:2,0:2:0:0:
314,291,141206,1,0,3:2:0:0:
249,347,141404,2,0,P|224:299|240:240,1,87.5,0|0,3:2|0:2,0:2:0:0:
338,99,141799,1,10,0:2:0:0:
387,212,141996,1,2,0:2:0:0:
275,32,142193,5,8,0:2:0:0:
225,197,142391,1,8,0:2:0:0:
109,79,142588,2,0,P|103:53|118:16,1,52.5000020027161,2|0,3:2|0:2,0:2:0:0:
116,216,142983,6,0,P|82:238|33:234,1,70,4|0,3:1|0:2,0:2:0:0:
40,342,143377,2,0,P|108:312|177:325,1,140,2|8,0:2|0:2,0:2:0:0:
204,84,144167,1,2,0:2:0:0:
212,0,144364,1,2,0:2:0:0:
96,55,144562,2,0,P|101:130|112:233,1,140,0|0,3:2|0:2,0:2:0:0:
206,204,145154,1,0,0:2:0:0:
330,126,145351,2,0,B|271:144|279:77|203:84,1,140,8|0,0:2|0:2,0:2:0:0:
304,295,146141,6,0,P|326:343|360:356,1,70,6|0,3:2|0:2,0:2:0:0:
512,306,146535,2,0,P|444:276|375:289,1,140,2|8,0:2|0:2,0:2:0:0:
15,219,147325,1,2,0:2:0:0:
37,133,147522,1,2,0:2:0:0:
91,268,147720,2,0,B|111:267|140:314|140:314|155:264|206:249,1,140,0|0,3:2|0:2,0:2:0:0:
354,88,148509,2,0,B|388:81|411:60|411:60|408:98|428:129,1,131.25,10|0,0:2|0:2,0:2:0:0:
427,198,148904,2,0,B|415:230|422:261|422:261|391:239|354:241,1,131.25,2|0,0:2|0:2,0:2:0:0:
287,207,149299,6,0,B|264:175|231:168|231:168|270:151|285:122,2,140,6|0|8,3:2|0:2|0:2,0:2:0:0:
117,272,150483,2,0,P|125:250|121:187,1,70,2|0,0:2|0:2,0:2:0:0:
9,147,150877,2,0,P|32:147|91:124,1,70,2|0,3:2|0:2,0:2:0:0:
104,16,151272,2,0,P|110:38|150:87,1,70,2|0,3:2|0:2,0:2:0:0:
263,52,151667,2,0,P|243:65|209:118,1,70,10|0,0:2|0:2,0:2:0:0:
290,186,152062,1,2,0:2:0:0:
367,208,152259,1,0,0:2:0:0:
278,273,152456,6,0,B|124:288,2,140,4|0|8,3:2|0:2|0:2,0:2:0:0:
278,273,153641,2,0,P|284:313|257:360,1,70,2|0,0:2|0:2,0:2:0:0:
194,247,154035,2,0,P|156:232|129:185,1,70,2|0,3:2|0:2,0:2:0:0:
266,185,154430,2,0,P|297:159|351:159,1,70,2|0,0:2|0:2,0:2:0:0:
269,21,154825,1,8,0:2:0:0:
268,67,154956,1,8,0:2:0:0:
230,96,155088,1,8,0:2:0:0:
187,82,155220,2,0,P|163:87|119:68,2,46.6666666666667,0|0|0,3:2|0:2|0:2,0:2:0:0:
107,174,155614,6,0,B|56:150|46:99|46:99|51:166|-3:222,1,210.000008010865,4|0,3:1|0:2,0:2:0:0:
15,202,156404,1,10,0:2:0:0:
16,280,156601,1,2,0:2:0:0:
87,323,156799,2,0,P|124:300|131:249,1,70,2|0,0:2|0:2,0:2:0:0:
221,152,157193,2,0,B|221:230|271:211|259:314,1,140,2|2,3:2|0:2,0:2:0:0:
304,159,157785,1,0,0:2:0:0:
360,225,157983,2,0,P|327:283|260:283,1,140,10|2,0:2|0:2,0:2:0:0:
35,258,158772,6,0,B|49:331|100:290|134:366,1,157.500006008148,6|0,3:2|0:2,0:2:0:0:
135,370,159167,2,0,B|103:286|159:285|142:217,1,157.500006008148,2|0,3:2|0:2,0:2:0:0:
221,184,159562,2,0,B|275:125|214:101|262:33,1,157.500006008148,10|0,0:2|0:2,0:2:0:0:
259,36,159956,2,0,P|204:81|155:70,1,105.000004005432,2|0,0:2|0:2,0:2:0:0:
123,326,160351,5,6,3:2:0:0:
221,184,160549,1,2,0:2:0:0:
59,241,160746,1,10,0:2:0:0:
264,353,160943,5,2,0:2:0:0:
309,203,161141,1,8,0:2:0:0:
123,326,161338,2,0,B|182:330|217:281|217:281|268:256|313:300,1,210.000008010865,4|0,3:2|0:2,0:2:0:0:
370,236,161930,6,0,B|388:201|363:168|363:168|310:173|299:235,1,140,12|0,3:2|0:2,0:2:0:0:
57,220,162720,1,10,0:2:0:0:
8,299,162917,1,2,0:2:0:0:
57,373,163114,2,0,P|98:369|134:332,1,70,2|0,0:2|0:2,0:2:0:0:
206,161,163509,2,0,P|153:227|172:290,2,140,6|0|8,3:2|3:2|0:2,0:2:0:0:
446,147,164693,2,0,P|475:135|512:126,1,70,2|0,3:2|0:2,0:2:0:0:
428,52,165088,6,0,B|329:101|344:20|253:65,2,175,12|0|8,0:2|3:2|0:2,0:2:0:0:
428,52,166272,6,0,B|431:85|396:113|396:113|452:119|482:165|482:165|485:201|456:225|456:225|410:180|358:179|358:179|315:182|298:226|348:257|367:211,1,472.500018024445,12|0,0:2|0:2,0:2:0:0:
483,375,168246,6,0,P|460:299|410:344,1,157.500006008148,2|2,0:2|0:2,0:2:0:0:
337,333,169035,1,2,0:2:0:0:
270,369,169233,1,2,0:2:0:0:
271,297,169430,2,0,P|271:262|273:236,1,52.5000020027161,2|2,0:2|0:2,0:2:0:0:
165,126,169825,2,0,P|102:131|40:133,2,105.000004005432,2|2|2,0:2|0:2|0:2,0:2:0:0:
216,73,170812,1,2,0:2:0:0:
444,166,171206,1,2,0:2:0:0:
472,97,171404,6,0,P|423:92|376:134,1,105.000004005432,2|2,0:2|0:2,0:2:0:0:
245,318,172193,2,0,P|239:266|235:214,2,105.000004005432,2|2|2,0:2|0:2|0:2,0:2:0:0:
248,132,173377,1,2,0:2:0:0:
178,160,173575,1,2,0:2:0:0:
115,115,173772,2,0,P|112:82|105:36,1,52.5000020027161,2|0,0:2|0:2,0:2:0:0:
73,180,174167,1,2,0:2:0:0:
36,351,174562,6,0,P|59:275|109:320,1,157.500006008148,2|0,0:2|0:2,0:2:0:0:
157,360,175351,1,2,0:2:0:0:
230,335,175549,1,2,0:2:0:0:
359,259,175943,1,2,0:2:0:0:
430,274,176141,2,0,P|432:210|436:145,2,105.000004005432,2|2|2,0:2|0:2|0:2,0:2:0:0:
486,116,177325,1,2,0:2:0:0:
349,154,177720,6,0,P|297:151|216:144,1,105.000004005432,2|2,0:2|0:2,0:2:0:0:
138,216,178509,2,0,P|86:219|5:226,1,105.000004005432,2|2,0:2|0:2,0:2:0:0:
52,348,179299,5,2,0:2:0:0:
169,361,179693,1,2,0:2:0:0:
242,230,180088,2,0,L|204:232,3,26.2500010013581,2|2|2|2,0:2|0:2|0:2|0:2,0:2:0:0:
148,207,180483,2,0,P|104:200|62:194,1,70,2|2,0:2|0:2,0:2:0:0:
46,41,180877,6,0,P|18:98|93:88,1,157.500006008148,6|2,0:2|0:2,0:2:0:0:
136,44,181667,1,2,0:2:0:0:
210,50,181864,1,2,0:2:0:0:
258,228,182259,1,2,0:2:0:0:
189,249,182456,2,0,P|185:190|181:126,2,105.000004005432,2|2|2,0:2|0:2|0:2,0:2:0:0:
110,133,183443,1,2,0:2:0:0:
50,359,183838,1,2,0:2:0:0:
14,292,184035,6,0,P|71:286|122:327,1,105.000004005432,2|2,0:2|0:2,0:2:0:0:
291,338,184825,1,2,0:2:0:0:
220,370,185022,2,0,P|215:308|209:247,1,105.000004005432,2|2,0:2|0:2,0:2:0:0:
267,192,185614,2,0,P|328:175|378:206,2,105.000004005432,2|2|2,0:2|0:2|0:2,0:2:0:0:
439,192,186799,1,2,0:2:0:0:
466,41,187193,6,0,P|494:98|419:88,1,157.500006008148,2|0,0:2|0:2,0:2:0:0:
372,46,187983,1,2,0:2:0:0:
299,43,188180,1,2,0:2:0:0:
113,151,188575,1,2,0:2:0:0:
183,144,188772,2,0,P|187:87|198:20,2,105.000004005432,2|2|10,0:2|0:2|0:2,0:2:0:0:
122,15,189956,1,2,0:2:0:0:
75,232,190351,6,0,P|139:259|206:216,1,140,6|0,3:2|0:2,0:2:0:0:
202,108,191141,1,10,0:2:0:0:
197,228,191535,1,2,0:2:0:0:
428,261,191930,2,0,P|364:234|297:277,1,140,2|0,3:2|0:2,0:2:0:0:
305,264,192720,2,0,L|311:177,1,70,10|0,0:2|0:2,0:2:0:0:
407,153,193114,1,2,0:2:0:0:
489,177,193312,1,2,0:2:0:0:
351,94,193509,6,0,B|281:84|296:147|189:127,2,140,10|0|10,0:2|3:2|0:2,0:2:0:0:
5,179,194693,2,0,P|17:212|69:240,1,70,2|0,3:2|0:2,0:2:0:0:
126,176,195088,6,0,B|94:130|111:53|111:53|76:71|87:121,2,175,14|0|10,0:2|3:2|0:2,0:2:0:0:
206,242,196075,1,0,0:2:0:0:
149,331,196272,2,0,P|124:319|108:290,1,52.5000020027161,2|0,3:2|0:2,0:2:0:0:
293,149,196667,6,0,P|328:160|375:152,1,70,4|0,3:1|0:2,0:2:0:0:
512,221,197062,2,0,P|442:204|382:247,1,140,2|8,0:2|0:2,0:2:0:0:
78,381,197851,1,2,0:2:0:0:
21,312,198049,1,2,0:2:0:0:
184,374,198246,2,0,P|172:276|173:217,1,140,0|0,3:2|0:2,0:2:0:0:
260,97,198838,1,0,0:2:0:0:
91,80,199035,2,0,P|125:133|210:132,1,140,8|0,0:2|0:2,0:2:0:0:
296,315,199825,6,0,P|301:349|309:384,1,70,6|0,3:2|0:2,0:2:0:0:
239,250,200220,2,0,P|309:233|369:276,1,140,2|8,0:2|0:2,0:2:0:0:
284,22,201009,1,2,0:2:0:0:
299,104,201206,1,2,0:2:0:0:
425,80,201404,2,0,P|393:62|316:73,1,70,0|0,3:2|0:2,0:2:0:0:
265,161,201799,2,0,P|296:127|289:72,1,70,0|0,0:2|0:2,0:2:0:0:
120,190,202193,2,0,B|143:224|176:219|176:219|192:176|149:141,1,131.25,10|0,0:2|0:2,0:2:0:0:
166,84,202588,2,0,B|184:46|163:20|163:20|117:27|109:82,1,131.25,2|0,0:2|0:2,0:2:0:0:
48,94,202983,6,0,B|6:97|-8:127|-8:127|23:164|75:143,2,140,6|0|8,3:2|0:2|0:2,0:2:0:0:
227,339,204167,2,0,P|227:359|215:335,1,70,2|0,0:2|0:2,0:2:0:0:
297,275,204562,2,0,P|320:296|394:302,1,70,2|0,3:2|0:2,0:2:0:0:
510,258,204956,2,0,P|487:237|413:231,1,70,2|0,0:2|0:2,0:2:0:0:
396,159,205351,2,0,P|375:182|369:256,1,70,10|0,0:2|0:2,0:2:0:0:
412,375,205745,2,0,P|433:352|439:278,1,70,2|0,0:2|0:2,0:2:0:0:
356,307,206141,6,0,B|194:318,2,140,4|0|10,3:2|0:2|0:2,0:2:0:0:
375,48,207325,1,2,0:2:0:0:
393,74,207456,1,2,0:2:0:0:
423,84,207588,1,2,0:2:0:0:
455,76,207720,5,2,3:2:0:0:
431,0,207917,1,8,0:2:0:0:
425,174,208114,1,0,3:2:0:0:
425,174,208509,2,0,P|390:195|340:180,1,70,8|0,0:2|0:2,0:2:0:0:
252,157,208904,2,0,P|291:130|329:138,1,70,0|0,0:2|0:2,0:2:0:0:
293,358,209299,6,0,B|331:286|280:230|280:230|226:261|244:318,1,210.000008010865,4|0,3:1|0:2,0:2:0:0:
36,99,210088,1,10,0:2:0:0:
6,173,210285,1,2,0:2:0:0:
70,236,210483,2,0,P|102:199|102:162,1,70,2|0,0:2|0:2,0:2:0:0:
307,153,210877,2,0,P|275:131|204:197,1,140,2|2,3:2|0:2,0:2:0:0:
246,323,211470,1,0,0:2:0:0:
320,285,211667,2,0,B|324:250|297:214|297:214|289:178|316:134,1,140,10|2,0:2|0:2,0:2:0:0:
80,96,212456,6,0,B|96:45|159:25|159:25|236:46,1,157.500006008148,6|0,3:2|0:2,0:2:0:0:
205,37,212851,2,0,B|215:89|189:115|189:115|148:119|120:163,1,157.500006008148,2|0,3:2|0:2,0:2:0:0:
144,224,213246,2,0,B|180:263|165:327|165:327|109:384,1,157.500006008148,10|0,0:2|0:2,0:2:0:0:
132,360,213641,2,0,B|81:342|73:304|73:304|89:269,1,105.000004005432,2|0,0:2|0:2,0:2:0:0:
340,253,214035,5,6,3:2:0:0:
224,374,214233,1,2,0:2:0:0:
246,175,214430,1,10,0:2:0:0:
429,374,214627,5,2,0:2:0:0:
282,311,214825,1,8,0:2:0:0:
501,263,215022,2,0,B|392:275|431:169|319:179,1,210.000008010865,4|0,3:2|0:2,0:2:0:0:
190,81,215614,6,0,P|215:147|238:93,1,140,4|0,3:2|0:2,0:2:0:0:
128,321,216404,1,10,0:2:0:0:
189,380,216601,1,2,0:2:0:0:
275,367,216799,2,0,P|317:341|332:310,1,70,2|0,0:2|0:2,0:2:0:0:
235,200,217193,2,0,L|239:272,1,70,6|0,3:2|0:2,0:2:0:0:
379,59,217588,5,8,0:2:0:0:
417,50,217720,1,8,0:2:0:0:
449,71,217851,1,8,0:2:0:0:
464,107,217983,1,8,0:2:0:0:
450,146,218114,1,8,0:2:0:0:
414,165,218246,1,8,0:2:0:0:
379,156,218377,2,0,L|322:161,2,46.6666666666667,0|0|0,3:2|3:2|3:2,0:2:0:0:
217,108,218772,6,0,B|307:114|288:44|387:61,2,175,12|0|8,0:2|3:2|0:2,0:2:0:0:
217,108,219956,6,0,B|244:195|179:190|178:270|178:270|139:141|43:131|-5:178|42:266|109:203,1,472.500018024445,12|0,0:2|0:2,0:2:0:0:
100,295,221930,5,6,0:2:0:0:
115,55,222522,1,2,0:2:0:0:
189,29,222720,2,0,L|187:88,2,52.5000020027161,2|2|0,3:2|3:2|0:2,0:2:0:0:
266,109,223312,1,2,0:2:0:0:
315,49,223509,2,0,L|382:42,2,52.5000020027161,2|2|0,3:2|3:2|0:2,0:2:0:0:
450,158,224101,1,2,0:2:0:0:
373,174,224299,2,0,L|376:104,2,52.5000020027161,2|0|0,3:2|3:2|0:2,0:2:0:0:
310,281,224891,1,2,0:2:0:0:
266,217,225088,6,0,L|195:226,2,52.5000020027161,2|2|0,3:2|3:2|0:2,0:2:0:0:
155,289,225680,1,2,0:2:0:0:
100,235,225877,2,0,L|110:154,2,59.5000011348725,2|2|0,3:2|3:2|0:2,0:2:0:0:
24,115,226470,1,2,0:2:0:0:
90,81,226667,2,0,L|79:22,2,59.5000011348725,2|2|0,3:2|3:2|0:2,0:2:0:0:
232,17,227259,1,2,0:2:0:0:
289,109,227456,1,2,3:2:0:0:
225,188,227654,1,2,3:2:0:0:
271,283,227851,2,0,L|308:288,3,29.7500005674362,2|2|2|2,0:2|0:2|0:2|0:2,0:2:0:0:
212,326,228246,6,0,L|123:336,2,66.4999982242585,6|2|0,3:2|3:2|0:2,0:2:0:0:
61,280,228838,1,2,0:2:0:0:
112,224,229035,2,0,L|183:236,2,66.4999982242585,2|2|0,3:2|3:2|0:2,0:2:0:0:
248,98,229627,1,2,0:2:0:0:
176,69,229825,2,0,L|169:162,2,66.4999982242585,2|2|0,3:2|3:2|0:2,0:2:0:0:
393,117,230417,1,2,0:2:0:0:
318,107,230614,2,0,L|324:41,2,66.4999982242585,2|2|0,3:2|3:2|0:2,0:2:0:0:
476,113,231206,1,2,0:2:0:0:
455,189,231404,6,0,L|361:193,2,73.4999977569581,2|2|0,3:2|3:2|0:2,0:2:0:0:
504,334,231996,1,2,0:2:0:0:
430,336,232193,2,0,L|445:244,2,73.4999977569581,2|0|0,3:2|3:2|0:2,0:2:0:0:
320,262,232785,1,2,0:2:0:0:
238,223,232983,1,2,3:2:0:0:
269,70,233180,1,2,3:2:0:0:
349,109,233377,2,0,L|362:201,1,73.4999977569581,2|0,0:2|0:2,0:2:0:0:
238,223,233772,6,0,L|193:218,3,36.749998878479,2|2|2|2,3:2|3:2|3:2|3:2,0:2:0:0:
154,155,234167,2,0,L|110:163,3,35,10|10|10|10,0:2|0:2|0:2|0:2,0:2:0:0:
72,103,234562,5,6,3:2:0:0:
72,103,234759,2,0,P|87:197|87:204,1,70,2|0,3:2|0:2,0:2:0:0:
28,235,235351,1,2,3:2:0:0:
28,235,235549,2,0,P|18:265|14:317,1,70,2|0,3:2|0:2,0:2:0:0:
76,365,236141,2,0,P|140:345|205:334,1,105,2|0,3:2|0:2,0:2:0:0:
255,352,236930,2,0,L|260:308,2,35,2|0|0,3:2|3:2|0:2,0:2:0:0:
332,366,237522,1,2,0:2:0:0:
338,283,237720,5,2,3:2:0:0:
338,283,237917,2,0,P|380:272|430:289,1,70,2|0,3:2|0:2,0:2:0:0:
487,288,238509,1,2,3:2:0:0:
487,288,238706,2,0,P|477:244|449:204,1,70,2|0,3:2|0:2,0:2:0:0:
396,96,239299,2,0,P|398:147|383:222,1,105,2|0,3:2|0:2,0:2:0:0:
321,149,240088,2,0,L|278:142,2,35,2|2|0,3:2|3:2|0:2,0:2:0:0:
275,213,240680,1,2,0:2:0:0:
186,206,240877,5,2,3:2:0:0:
186,206,241075,2,0,P|190:157|203:106,1,70,2|0,3:2|0:2,0:2:0:0:
133,60,241667,1,2,3:2:0:0:
133,60,241864,2,0,P|119:104|113:141,1,70,2|0,3:2|0:2,0:2:0:0:
71,196,242456,2,0,P|86:243|90:324,1,105,2|0,3:2|0:2,0:2:0:0:
15,335,243246,2,0,L|25:286,2,35,2|2|0,3:2|3:2|0:2,0:2:0:0:
107,374,243838,1,2,0:2:0:0:
183,344,244035,5,2,3:2:0:0:
183,344,244233,2,0,P|238:331|274:328,1,70,2|0,3:2|0:2,0:2:0:0:
303,254,244825,1,2,3:2:0:0:
303,254,245022,2,0,P|243:252|206:262,1,70,2|0,3:2|0:2,0:2:0:0:
375,218,245614,6,0,B|388:285|386:357,2,105.000004005432,2|0|2,3:2|0:2|0:2,0:2:0:0:
90,82,246799,2,0,P|114:91|140:91,1,52.5000020027161,2|0,0:2|0:2,0:2:0:0:
233,61,247193,6,0,P|165:106|71:93,1,157.500006008148,6|0,3:2|0:2,0:2:0:0:
14,25,247983,1,2,0:2:0:0:
91,102,248377,1,2,0:2:0:0:
13,245,248772,2,0,P|14:190|20:148,2,70,2|2|2,0:2|0:2|0:2,0:2:0:0:
64,302,249759,1,2,0:2:0:0:
135,276,249956,2,0,P|154:264|179:261,1,35,2|0,0:2|0:2,0:2:0:0:
280,361,250351,6,0,P|246:310|268:227,1,140,2|0,0:2|0:2,0:2:0:0:
229,47,251535,2,0,P|203:40|176:35,1,35,2|0,0:2|0:2,0:2:0:0:
98,25,251930,2,0,P|132:76|110:159,1,140,2|0,0:2|0:2,0:2:0:0:
101,366,253114,2,0,P|90:340|63:319,1,35,2|0,0:2|0:2,0:2:0:0:
5,268,253509,6,0,P|75:263|171:252,1,140,2|0,0:2|0:2,0:2:0:0:
299,170,254693,2,0,P|303:196|298:227,1,35,2|0,0:2|0:2,0:2:0:0:
248,263,255088,5,2,0:2:0:0:
386,371,255351,2,0,P|433:373|462:376,2,70.0000026702882,2|2|2,0:2|0:2|0:2,0:2:0:0:
401,30,256272,2,0,P|412:46|444:66,1,35,2|0,0:2|0:2,0:2:0:0:
495,130,256667,6,0,P|434:136|350:139,1,140,2|0,0:2|0:2,0:2:0:0:
252,11,258246,2,0,P|265:48|255:90,2,70,2|2|2,0:2|0:2|0:2,0:2:0:0:
193,115,259430,1,2,0:2:0:0:
202,186,259825,5,6,0:2:0:0:
269,216,260220,1,2,0:2:0:0:
196,280,260614,2,0,P|134:276|62:289,1,105,2|0,0:2|0:2,0:2:0:0:
22,290,261404,2,0,P|13:333|27:368,1,70,2|2,0:2|0:2,0:2:0:0:
165,371,262193,2,0,P|126:359|83:378,1,70,2|2,0:2|0:2,0:2:0:0:
234,340,262983,5,2,0:2:0:0:
304,363,263377,1,2,0:2:0:0:
372,337,263772,1,2,0:2:0:0:
463,179,264167,2,0,L|465:137,2,35,2|0|2,0:2|0:2|0:2,0:2:0:0:
400,218,264956,1,2,0:2:0:0:
330,196,265351,1,2,0:2:0:0:
131,45,266141,5,2,0:2:0:0:
78,92,266535,1,2,0:2:0:0:
88,164,266930,2,0,P|86:226|77:280,1,105,2|0,0:2|0:2,0:2:0:0:
52,333,267720,2,0,P|84:349|127:332,1,70,2|2,0:2|0:2,0:2:0:0:
208,344,268509,2,0,P|217:320|208:267,1,70,2|2,0:2|0:2,0:2:0:0:
142,248,269299,5,2,0:2:0:0:
286,219,270088,1,2,0:2:0:0:
272,356,270877,2,0,L|354:348,1,70,2|0,0:2|0:2,0:2:0:0:
411,309,271470,1,0,0:2:0:0:
361,254,271667,2,0,L|354:204,1,35,2|0,0:2|0:2,0:2:0:0:
440,182,272062,2,0,L|447:132,1,35,0|0,0:2|0:2,0:2:0:0:
397,60,272456,5,4,3:2:0:0:
223,158,273246,2,0,L|130:168,1,70,2|0,0:2|3:2,0:2:0:0:
93,116,274035,1,2,3:2:0:0:
46,276,274825,2,0,P|38:301|43:326,1,35,2|0,0:2|0:2,0:2:0:0:
98,377,275220,2,0,P|106:352|101:327,1,35,2|0,0:2|0:2,0:2:0:0:
171,307,275614,5,2,3:2:0:0:
341,346,276404,2,0,L|417:335,1,70,2|0,0:2|3:2,0:2:0:0:
464,279,277193,1,0,3:2:0:0:
421,215,277391,1,0,0:2:0:0:
477,162,277588,2,0,L|481:116,1,35,0|0,0:2|0:2,0:2:0:0:
404,26,277983,5,8,0:2:0:0:
305,21,278180,1,8,0:2:0:0:
278,115,278377,2,0,L|282:161,1,35,0|0,3:2|0:2,0:2:0:0:
234,262,278772,6,0,P|293:243|366:293,2,140,6|0|8,3:2|3:2|0:2,0:2:0:0:
114,339,279956,2,0,P|113:299|91:263,1,70,2|0,0:2|0:2,0:2:0:0:
21,268,280351,1,2,3:2:0:0:
18,96,280746,2,0,P|53:115|95:114,1,70,2|0,0:2|0:2,0:2:0:0:
125,50,281141,1,10,0:2:0:0:
311,1,281535,2,0,P|282:28|278:99,1,70,2|0,0:2|0:2,0:2:0:0:
335,180,281930,6,0,B|402:178|392:244|525:206,2,140,6|2|8,3:2|0:2|0:2,0:2:0:0:
228,214,283114,1,2,0:2:0:0:
204,324,283509,1,2,3:2:0:0:
178,154,283904,2,0,P|194:113|175:74,1,70,2|0,3:2|0:2,0:2:0:0:
60,72,284299,2,0,P|87:106|130:109,1,70,10|0,0:2|0:2,0:2:0:0:
129,34,284693,1,2,0:2:0:0:
97,267,285088,6,0,B|130:261|157:283|157:283|203:275|211:242|211:242|170:245|154:213,1,175,10|10,0:2|0:2,0:2:0:0:
134,64,285877,2,0,B|150:92|138:125|138:125|159:167|193:164|193:164|178:126|203:101,1,175,10|10,0:2|0:2,0:2:0:0:
339,37,286667,2,0,B|317:61|282:58|282:58|248:92|262:124|262:124|293:98|325:114,1,175,10|10,0:2|0:2,0:2:0:0:
427,223,287456,2,0,B|398:209|389:175|389:175|346:154|321:177|321:177|355:199|350:234,1,175,10|10,0:2|0:2,0:2:0:0:
315,309,288049,1,2,0:2:0:0:
188,284,288246,6,0,P|136:274|108:234,1,87.5,8|0,0:2|0:2,0:2:0:0:
261,128,288641,1,2,0:2:0:0:
267,246,288838,1,2,0:2:0:0:
189,98,289035,5,10,0:2:0:0:
59,87,289233,2,0,B|111:89|141:30|141:30|187:11|227:33,1,175,10|8,0:2|0:2,0:2:0:0:
375,82,289825,1,0,3:2:0:0:
261,128,290022,1,0,3:2:0:0:
348,331,290220,1,10,0:2:0:0:
374,176,290417,1,2,0:2:0:0:
223,323,290614,2,0,P|196:264|210:227,1,87.5,8|0,0:2|0:2,0:2:0:0:
272,79,291009,2,0,P|273:105|260:129,1,52.5000020027161,2|0,3:2|0:2,0:2:0:0:
8,154,291404,6,0,P|42:151|74:165,1,70,4|0,3:1|0:2,0:2:0:0:
111,275,291799,2,0,P|95:306|68:327,1,70,2|0,0:2|0:2,0:2:0:0:
19,252,292193,1,10,0:2:0:0:
228,89,292588,1,2,0:2:0:0:
180,158,292785,1,2,0:2:0:0:
315,223,292983,2,0,P|310:113|317:56,1,140,0|0,3:2|0:2,0:2:0:0:
357,0,293575,1,0,0:2:0:0:
484,112,293772,2,0,B|441:116|426:150|426:150|429:108|397:80,1,140,8|0,0:2|0:2,0:2:0:0:
316,320,294562,6,0,P|311:352|331:393,1,70,6|0,3:2|0:2,0:2:0:0:
486,322,294956,2,0,P|465:277|435:262,1,70,2|0,0:2|0:2,0:2:0:0:
402,342,295351,1,10,0:2:0:0:
58,174,295746,1,2,0:2:0:0:
43,94,295943,1,2,0:2:0:0:
170,137,296141,2,0,P|172:200|153:284,1,140,0|0,3:2|0:2,0:2:0:0:
378,117,296930,2,0,B|403:113|453:78|396:24|368:81|371:108,1,131.25,10|0,0:2|0:2,0:2:0:0:
346,196,297325,2,0,B|334:220|339:281|416:257|380:205|355:193,1,131.25,2|0,0:2|0:2,0:2:0:0:
289,133,297720,6,0,B|272:111|209:81|197:171|264:158|283:140,2,140,6|0|8,3:2|0:2|0:2,0:2:0:0:
33,178,298904,2,0,P|52:206|99:219,1,70,2|0,0:2|0:2,0:2:0:0:
208,363,299299,2,0,P|208:328|190:299,1,70,2|0,3:2|0:2,0:2:0:0:
56,328,299693,2,0,P|89:318|111:291,1,70,2|0,0:2|0:2,0:2:0:0:
291,237,300088,2,0,P|258:225|224:233,1,70,10|0,0:2|0:2,0:2:0:0:
332,304,300483,1,2,0:2:0:0:
409,292,300680,1,2,0:2:0:0:
430,152,300877,6,0,B|398:185|360:178|360:178|334:149|277:145,1,140,4|0,3:2|0:2,0:2:0:0:
157,73,301470,1,0,3:2:0:0:
224,18,301667,2,0,P|234:67|239:109,1,70,8|0,0:2|0:2,0:2:0:0:
131,186,302062,6,0,P|173:163|202:160,2,46.6666666666667,0|0|0,3:2|3:2|3:2,0:2:0:0:
114,286,302456,1,8,0:2:0:0:
146,317,302588,1,0,3:2:0:0:
190,327,302720,1,0,3:2:0:0:
232,312,302851,1,4,3:2:0:0:
423,240,303246,1,8,0:2:0:0:
410,229,303377,1,0,3:2:0:0:
394,224,303509,1,0,3:2:0:0:
375,228,303641,2,0,L|378:274,2,46.6666666666667,0|0|0,3:2|0:2|0:2,0:2:0:0:
372,143,304035,6,0,P|334:85|330:174,1,210.000008010865,4|0,3:1|0:2,0:2:0:0:
0,15,304825,1,10,0:2:0:0:
64,70,305022,1,2,0:2:0:0:
10,137,305220,2,0,P|13:172|20:212,1,70,2|0,0:2|0:2,0:2:0:0:
220,200,305614,2,0,B|190:182|157:177|157:177|119:195|90:226,1,140,2|2,3:2|0:2,0:2:0:0:
168,306,306206,1,0,0:2:0:0:
102,351,306404,2,0,B|80:313|88:283|88:283|112:241|93:208,1,140,10|2,0:2|0:2,0:2:0:0:
427,287,307193,6,0,B|387:269|346:301|346:301|304:304|285:266,1,157.500006008148,6|0,3:2|0:2,0:2:0:0:
288,271,307588,2,0,B|259:219|287:182|287:182|294:215|326:233,1,157.500006008148,2|0,3:2|0:2,0:2:0:0:
363,162,307983,2,0,B|398:136|391:84|391:84|409:46|452:49,1,157.500006008148,10|0,0:2|0:2,0:2:0:0:
446,48,308377,2,0,B|498:62|501:85|501:85|480:102|460:90,1,105.000004005432,2|0,3:2|0:2,0:2:0:0:
219,67,308772,5,6,3:2:0:0:
322,231,308970,1,2,0:2:0:0:
323,35,309167,1,10,0:2:0:0:
110,140,309364,5,2,0:2:0:0:
301,142,309562,1,8,0:2:0:0:
189,333,309759,2,0,P|215:198|172:124,1,210.000008010865,6|0,3:2|0:2,0:2:0:0:
94,64,310351,5,2,0:2:0:0:
382,310,311535,5,8,0:2:0:0:
480,254,311733,1,4,3:2:0:0:
480,254,312127,1,8,0:2:0:0:
472,151,312325,2,0,P|409:155|375:154,1,70,0|0,3:2|0:2,0:2:0:0:
305,57,312720,5,8,0:2:0:0:
305,96,312851,1,8,0:2:0:0:
305,132,312983,1,8,0:2:0:0:
306,170,313114,2,0,L|309:253,1,70,0|0,3:2|0:2,0:2:0:0:
179,101,313509,6,0,B|129:154|59:133|59:133|59:157|75:170|75:170|99:162|133:171,1,210.000008010865,12|0,0:2|0:2,0:2:0:0:
203,314,314101,2,0,B|180:243|232:193|232:193|213:181|193:189|193:189|188:214|163:238,1,210.000008010865,12|0,0:2|0:2,0:2:0:0:
92,255,314693,2,0,P|73:288|111:264,1,105.000004005432,12|0,0:2|0:2,0:2:0:0:
290,276,315088,6,0,B|373:258|338:338|456:298,1,140,12|0,0:2|0:2,0:2:0:0:
499,122,315877,2,0,B|473:202|421:132|396:254,1,140,8|0,0:2|0:2,0:2:0:0:
485,256,316667,5,4,3:1:0:0:
406,219,317062,1,0,0:2:0:0:
316,239,317456,2,0,P|302:199|272:174,1,70,10|0,0:2|0:2,0:2:0:0:
173,111,317851,2,0,P|226:110|268:93,1,70,2|0,0:2|0:2,0:2:0:0:
412,12,318246,2,0,P|353:47|333:113,2,140,6|0|8,3:2|3:2|0:2,0:2:0:0:
262,206,319430,2,0,P|220:199|175:194,1,70,0|0,3:2|0:2,0:2:0:0:
183,300,319825,6,0,B|227:278|227:278|299:307|275:388,2,175,12|0|8,0:2|3:2|0:2,0:2:0:0:
290,47,321009,6,0,B|350:-6|423:80|345:143|267:87|267:87|213:49|136:84|146:152|146:152|157:216|203:202|194:170|169:160,1,498.750019025803,12|2,0:2|0:2,0:2:0:0:
