osu file format v14

[General]
AudioFilename: audio.mp3
AudioLeadIn: 0
PreviewTime: 240410
Countdown: 0
SampleSet: Soft
StackLeniency: 0.7
Mode: 0
LetterboxInBreaks: 0
WidescreenStoryboard: 0

[Editor]
DistanceSpacing: 0.8
BeatDivisor: 4
GridSize: 4
TimelineZoom: 1.5

[Metadata]
Title:My Spring
TitleUnicode:My Spring
Artist:Shihori
ArtistUnicode:しほり
Creator:Rishe
Version:Romance
Source:ワルキューレロマンツェ More & More
Tags:Walkure Romanze More & More
BeatmapID:1363833
BeatmapSetID:643385

[Difficulty]
HPDrainRate:8
CircleSize:4
OverallDifficulty:9
ApproachRate:9.2
SliderMultiplier:1.8
SliderTickRate:1

[Events]
//Background and Video events
0,0,"Untitled.jpg",0,0
//Break Periods
2,131944,133077
2,198610,206840
2,217276,219744
//Storyboard Layer 0 (Background)
//Storyboard Layer 1 (Fail)
//Storyboard Layer 2 (Pass)
//Storyboard Layer 3 (Foreground)
//Storyboard Sound Samples

[TimingPoints]
26411,333.333333333333,4,2,1,60,1,0
26911,-100,4,2,1,60,0,0
38411,-133.333333333333,4,2,1,60,0,0
39744,-133.333333333333,4,2,1,45,0,0
49077,-105.263157894737,4,2,2,50,0,0
59744,-117.64705882353,4,2,1,40,0,0
65077,-95.2380952380954,4,2,1,55,0,0
68911,-95.2380952380954,4,2,2,55,0,0
70410,-90.9090909090909,4,2,1,60,0,1
89077,-200,4,2,1,60,0,0
90410,-153.846153846154,4,2,1,60,0,0
90744,-125,4,2,1,60,0,0
91744,-100,4,2,1,60,0,0
101577,-100,4,2,1,25,0,0
101744,-100,4,2,1,35,0,0
101910,-100,4,2,1,45,0,0
102077,-100,4,2,1,50,0,0
102410,-111.111111111111,4,2,2,50,0,0
123744,-111.111111111111,4,2,1,40,0,0
129410,-111.111111111111,4,2,1,40,0,0
129744,-111.111111111111,4,2,1,45,0,0
130077,-111.111111111111,4,2,1,50,0,0
130410,-111.111111111111,4,2,1,55,0,0
130744,-111.111111111111,4,2,1,55,0,0
131077,-111.111111111111,4,2,1,55,0,0
131410,-111.111111111111,4,2,1,60,0,0
131744,-200,4,2,1,50,0,0
134077,-142.857142857143,4,2,1,50,0,0
134410,-90.9090909090909,4,2,1,60,0,1
152744,-133.333333333333,4,2,1,60,0,0
154410,-117.647058823529,4,2,2,60,0,0
155744,-125,4,2,1,45,0,0
168577,-125,4,2,2,45,0,0
168994,-125,4,2,1,45,0,0
171077,-83.3333333333333,4,2,1,45,0,0
171160,-100,4,2,1,45,0,0
174910,-83.3333333333333,4,2,1,45,0,0
175410,-71.4285714285714,4,2,1,45,0,0
175744,-83.3333333333333,4,2,1,45,0,0
177077,-100,4,2,1,50,0,0
185577,-100,4,2,1,45,0,0
187077,-100,4,2,1,75,0,0
187160,-100,4,2,1,5,0,0
187244,-100,4,2,1,75,0,0
187327,-100,4,2,1,5,0,0
187410,-100,4,2,1,75,0,0
187494,-100,4,2,1,5,0,0
187577,-100,4,2,1,50,0,0
197077,-588.235294117647,4,2,1,50,0,0
197177,-588.235294117647,4,2,1,50,0,0
198410,-100,4,2,1,50,0,0
207744,-117.647058823529,4,2,1,50,0,0
209077,-105.263157894737,4,2,1,50,0,0
214410,-105.263157894737,4,2,1,25,0,0
215077,-105.263157894737,4,2,1,35,0,0
215410,-105.263157894737,4,2,1,45,0,0
216410,-105.263157894737,4,2,1,50,0,0
221744,-90.9090909090909,4,2,1,60,0,1
240577,-90.9090909090909,4,2,2,60,0,1
241410,-90.9090909090909,4,2,1,60,0,0
242827,-90.9090909090909,4,2,2,60,0,0
242910,-90.9090909090909,4,2,1,60,0,0
243494,-90.9090909090909,4,2,1,50,0,0
243744,-90.9090909090909,4,2,1,60,0,0
247077,-133.333333333333,4,2,1,60,0,0
249077,-133.333333333333,4,2,1,45,0,0
251744,-133.333333333333,4,2,1,50,0,0
259744,-200,4,2,1,50,0,0
263744,-142.857142857143,4,2,1,50,0,0
265410,-125,4,2,1,50,0,0
266077,-111.111111111111,4,2,1,50,0,0
270410,-111.111111111111,4,2,1,5,0,0
271744,-111.111111111111,4,2,2,50,0,0
271910,-111.111111111111,4,2,2,35,0,0
272077,-111.111111111111,4,2,2,40,0,0
272410,-111.111111111111,4,2,2,25,0,0
272577,-111.111111111111,4,2,2,35,0,0
272744,-111.111111111111,4,2,2,40,0,0
273077,-100,4,2,1,55,0,0
280577,-100,4,2,1,25,0,0
280910,-100,4,2,1,35,0,0
281077,-100,4,2,1,45,0,0
283077,-100,4,2,1,25,0,0
283244,-100,4,2,1,35,0,0
283410,-100,4,2,1,45,0,0
283744,-100,4,2,1,60,0,0
292291,406.779661016949,4,2,1,55,1,0
292702,427.046263345196,4,2,1,55,1,0
293148,500,4,2,1,55,1,0
293649,545.454545454546,4,2,1,55,1,0
294210,594.059405940594,4,2,1,55,1,0
295500,634.920634920635,4,2,1,20,1,0
295500,-117.647058823529,4,2,1,20,0,0
295546,-117.647058823529,4,2,1,5,0,0
297563,-117.647058823529,4,2,1,5,0,0
297577,638.297872340426,4,2,1,55,1,0

[Colours]
Combo1 : 255,179,102
Combo2 : 255,128,128

[HitObjects]
258,189,27077,5,8,0:0:0:0:
252,222,27160,1,0,0:0:0:0:
247,255,27244,5,0,0:0:0:0:
284,235,27327,1,0,0:0:0:0:
326,232,27410,1,0,0:0:0:0:
365,247,27493,1,0,0:0:0:0:
395,277,27577,1,0,0:0:0:0:
410,316,27660,1,0,0:0:0:0:
411,361,27744,6,0,L|439:180,1,180,4|8,0:0|0:0,0:0:0:0:
456,64,28244,1,0,0:0:0:0:
298,155,28411,2,0,L|317:55,1,90
204,123,28744,1,8,0:0:0:0:
347,270,28911,1,0,0:0:0:0:
266,332,29077,6,0,P|213:352|118:282,1,180,2|8,0:0|0:0,0:0:0:0:
186,125,29577,1,0,0:0:0:0:
306,164,29744,2,0,P|298:221|290:269,1,90,2|0,0:0|0:0,0:0:0:0:
97,195,30077,2,0,P|141:202|186:208,1,90,8|0,0:0|0:0,0:0:0:0:
383,91,30411,6,0,P|297:81|214:66,1,135,2|0,0:0|0:0,0:0:0:0:
215,65,30744,1,8,0:0:0:0:
292,264,30911,1,0,0:0:0:0:
371,181,31077,1,2,0:0:0:0:
196,248,31244,1,0,0:0:0:0:
209,339,31411,1,8,0:0:0:0:
108,287,31577,1,0,0:0:0:0:
267,164,31744,6,0,P|282:277|291:357,1,180,2|8,0:0|0:0,0:0:0:0:
132,245,32244,2,0,P|139:297|140:304,2,45
168,115,32577,1,0,0:0:0:0:
163,82,32660,1,0,0:0:0:0:
157,48,32744,5,8,0:0:0:0:
197,68,32827,1,8,0:0:0:0:
241,66,32910,1,8,0:0:0:0:
279,42,32994,1,8,0:0:0:0:
301,4,33077,6,0,L|313:110,1,90,4|0,0:0|0:0,0:0:0:0:
338,259,33411,1,8,0:0:0:0:
420,161,33577,1,0,0:0:0:0:
420,161,33661,1,0,0:0:0:0:
420,161,33744,2,0,P|354:175|326:180,1,90
212,348,34077,2,0,P|278:334|306:329,1,90,8|0,0:0|0:0,0:0:0:0:
150,213,34411,2,0,P|84:227|56:232,1,90,2|0,0:0|0:0,0:0:0:0:
216,55,34744,2,0,P|260:46|304:36,1,90,8|0,0:0|0:0,0:0:0:0:
89,64,35077,5,2,0:0:0:0:
179,240,35244,1,0,0:0:0:0:
349,176,35411,2,0,P|359:124|346:39,1,135,8|0,0:0|0:0,0:0:0:0:
338,20,35744,5,6,0:0:0:0:
199,64,35911,1,0,0:0:0:0:
248,217,36077,5,8,0:0:0:0:
199,64,36244,1,0,0:0:0:0:
383,123,36411,5,10,0:0:0:0:
199,64,36578,1,0,0:0:0:0:
64,276,36744,5,8,0:0:0:0:
248,217,36911,1,0,0:0:0:0:
106,112,37077,5,14,0:0:0:0:
176,332,37244,1,0,0:0:0:0:
349,66,37411,5,10,0:0:0:0:
272,308,37578,1,0,0:0:0:0:
80,82,37744,5,10,0:0:0:0:
164,348,37911,1,0,0:0:0:0:
374,40,38077,5,10,0:0:0:0:
281,332,38244,1,0,0:0:0:0:
136,178,38411,6,0,P|212:186|284:196,1,135.000005149842,4|0,0:0|0:0,0:0:0:0:
384,121,38911,1,0,0:0:0:0:
384,121,39077,2,0,P|334:115|304:110,1,67.5000025749208
194,280,39411,2,0,P|244:286|274:291,1,67.5000025749208
418,366,39744,6,0,P|432:305|417:225,1,135.000005149842,2|0,0:0|0:0,0:0:0:0:
310,160,40244,1,0,0:0:0:0:
310,160,40327,1,0,0:0:0:0:
310,160,40411,2,0,P|270:165|237:172,1,67.5000025749208,2|0,0:0|0:0,0:0:0:0:
85,100,40744,2,0,P|125:95|158:88,1,67.5000025749208
271,22,41077,6,0,P|253:86|291:173,1,135.000005149842,2|0,0:0|0:0,0:0:0:0:
391,103,41577,1,0,0:0:0:0:
444,231,41744,2,0,L|457:154,1,67.5000025749208,2|0,0:0|0:0,0:0:0:0:
301,241,42077,2,0,L|312:307,1,67.5000025749208
424,364,42411,5,2,0:0:0:0:
334,294,42577,1,0,0:0:0:0:
230,340,42744,2,0,L|160:324,1,67.5000025749208
49,152,43077,5,2,0:0:0:0:
139,222,43243,1,0,0:0:0:0:
243,176,43410,2,0,L|313:192,1,67.5000025749208
110,23,43744,6,0,P|99:104|148:169,2,135.000005149842,2|0|0,0:0|0:0|0:0,0:0:0:0:
207,77,44577,1,0,0:0:0:0:
306,33,44744,1,0,0:0:0:0:
296,133,44911,1,0,0:0:0:0:
296,133,44994,1,0,0:0:0:0:
296,133,45077,5,2,0:0:0:0:
279,224,45244,1,0,0:0:0:0:
383,197,45411,1,0,0:0:0:0:
205,160,45577,1,0,0:0:0:0:
349,271,45744,2,0,L|366:363,1,67.5000025749208,2|0,0:0|0:0,0:0:0:0:
171,307,46077,2,0,P|204:300|237:295,1,67.5000025749208
296,133,46411,6,0,P|216:148|147:156,2,135.000005149842,0|0|2,0:0|0:0|0:0,0:0:0:0:
111,97,47244,1,0,0:0:0:0:
211,224,47411,1,0,0:0:0:0:
269,60,47577,1,0,0:0:0:0:
269,60,47661,1,0,0:0:0:0:
269,60,47744,5,4,0:0:0:0:
204,124,47911,1,0,0:0:0:0:
358,161,48077,1,8,0:0:0:0:
233,270,48244,1,0,0:0:0:0:
285,354,48411,1,12,0:0:0:0:
387,276,48577,1,0,0:0:0:0:
242,160,48743,1,8,0:0:0:0:
200,167,48827,1,8,0:0:0:0:
164,187,48910,1,8,0:0:0:0:
137,219,48993,1,8,0:0:0:0:
123,259,49077,6,0,L|87:87,1,170.999995433807,4|8,0:0|0:0,0:0:0:0:
205,11,49577,2,2,L|189:72,2,42.7499988584519
162,156,49911,1,2,0:0:0:0:
376,92,50077,2,0,P|329:98|281:102,1,85.4999977169037,8|0,0:0|0:0,0:0:0:0:
183,252,50411,6,0,P|229:245|278:242,1,85.4999977169037
223,161,50744,1,8,0:0:0:0:
146,334,50911,1,2,0:0:0:0:
146,334,50994,1,2,0:0:0:0:
146,334,51077,1,2,0:0:0:0:
66,242,51244,1,2,0:0:0:0:
197,216,51411,1,8,0:0:0:0:
264,308,51577,1,0,0:0:0:0:
406,117,51744,6,0,P|325:129|248:140,1,128.249996575356
252,137,52077,1,8,0:0:0:0:
99,54,52244,1,2,0:0:0:0:
128,49,52327,1,2,0:0:0:0:
157,43,52411,2,0,P|230:31|246:28,1,85.4999977169037,2|0,0:0|0:0,0:0:0:0:
79,166,52744,5,8,0:0:0:0:
196,336,52911,1,0,0:0:0:0:
225,212,53077,1,0,0:0:0:0:
148,280,53244,1,2,0:0:0:0:
84,188,53411,1,8,0:0:0:0:
7,253,53577,1,2,0:0:0:0:
7,253,53661,1,2,0:0:0:0:
7,253,53744,1,2,0:0:0:0:
165,149,53911,1,2,0:0:0:0:
284,240,54077,6,0,P|298:188|307:147,1,85.4999977169037,8|0,0:0|0:0,0:0:0:0:
471,109,54411,2,0,P|413:98|351:89,1,85.4999977169037
219,138,54744,1,8,0:0:0:0:
268,327,54911,1,2,0:0:0:0:
268,327,54994,1,2,0:0:0:0:
268,327,55077,1,2,0:0:0:0:
386,227,55244,1,2,0:0:0:0:
138,240,55411,6,0,P|180:246|223:254,1,85.4999977169037,8|0,0:0|0:0,0:0:0:0:
377,122,55744,2,0,P|286:108|215:95,1,128.249996575356
218,94,56077,1,8,0:0:0:0:
348,275,56244,1,2,0:0:0:0:
348,275,56327,1,2,0:0:0:0:
348,275,56411,1,2,0:0:0:0:
248,348,56577,1,2,0:0:0:0:
194,170,56744,6,0,P|180:224|172:256,1,85.4999977169037,8|0,0:0|0:0,0:0:0:0:
64,231,57077,2,0,P|69:286|76:327,1,85.4999977169037
51,141,57411,1,8,0:0:0:0:
283,196,57577,1,2,0:0:0:0:
283,196,57661,1,2,0:0:0:0:
283,196,57744,1,2,0:0:0:0:
166,340,57911,1,2,0:0:0:0:
123,234,58077,2,0,P|172:229|263:291,1,128.249996575356,8|0,0:0|0:0,0:0:0:0:
268,289,58411,6,0,L|368:266,1,85.4999977169037
452,244,58744,1,12,0:0:0:0:
379,348,58911,1,2,0:0:0:0:
379,348,58994,1,2,0:0:0:0:
379,348,59077,1,8,3:0:0:0:
290,188,59244,1,2,0:0:0:0:
402,83,59411,2,0,P|339:93|312:97,1,85.4999977169037,4|0,0:0|0:0,0:0:0:0:
104,302,59744,6,0,P|203:285|266:277,1,153.000002918243,6|0,0:0|0:0,0:0:0:0:
384,331,60244,1,0,0:0:0:0:
348,184,60411,2,0,P|337:240|331:276,1,76.5000014591217
252,124,60744,2,0,P|241:180|235:216,1,76.5000014591217
170,18,61077,6,0,P|150:91|132:166,1,153.000002918243,2|0,0:0|0:0,0:0:0:0:
222,279,61577,1,0,0:0:0:0:
222,279,61661,1,0,0:0:0:0:
222,279,61744,2,0,P|151:268|119:262,1,76.5000014591217
41,356,62077,2,0,P|112:367|144:373,1,76.5000014591217
385,207,62411,6,0,P|338:201|228:185,1,153.000002918243,2|0,0:0|0:0,0:0:0:0:
198,75,62911,1,0,0:0:0:0:
305,34,63077,2,0,P|298:76|290:117,1,76.5000014591217,2|0,0:0|0:0,0:0:0:0:
105,180,63411,2,0,P|111:137|120:97,1,76.5000014591217
250,211,63744,6,0,P|239:274|225:352,1,114.750002188683,2|0,0:0|0:0,0:0:0:0:
225,355,64077,1,12,0:0:0:0:
79,292,64411,5,8,0:0:0:0:
88,263,64522,2,8,L|109:189,1,51.0000009727478,8|8,0:0|3:0,0:0:0:0:
181,69,64744,1,8,3:0:0:0:
190,98,64855,2,8,L|211:172,1,51.0000009727478,8|8,3:0|3:0,3:0:0:0:
247,271,65077,6,0,P|310:248|363:215,1,94.499997116089,4|0,0:0|0:0,0:0:0:0:
413,144,65411,2,0,P|457:158|499:180,1,94.499997116089,8|0,0:0|0:0,0:0:0:0:
411,289,65744,1,2,0:0:0:0:
306,107,65911,1,0,0:0:0:0:
413,144,66077,1,12,0:0:0:0:
273,311,66244,1,0,0:0:0:0:
160,69,66411,5,8,0:0:0:0:
347,142,66577,1,0,0:0:0:0:
171,360,66744,1,12,0:0:0:0:
57,73,66911,1,0,0:0:0:0:
211,131,67077,1,12,0:0:0:0:
43,356,67244,5,0,0:0:0:0:
256,34,67411,1,12,0:0:0:0:
469,356,67577,1,0,0:0:0:0:
254,267,67744,5,2,0:0:0:0:
160,166,68911,5,2,0:0:0:0:
160,166,68994,1,2,0:0:0:0:
160,166,69077,6,0,B|190:131|212:145|212:145|217:123|217:123|236:135|236:135|241:112|328:89|371:105|395:140|404:186|399:214|377:246|359:267,1,377.999988464356,10|8,0:0|0:0,0:0:0:0:
356,273,69827,5,8,0:0:0:0:
313,293,69910,1,8,0:0:0:0:
267,289,69993,1,8,0:0:0:0:
222,274,70076,1,8,0:0:0:0:
175,268,70160,1,8,0:0:0:0:
130,281,70243,1,8,0:0:0:0:
94,311,70326,1,8,0:0:0:0:
70,351,70410,6,0,P|62:303|52:245,1,99.0000030212403,4|0,0:0|0:0,0:0:0:0:
184,198,70744,1,8,0:0:0:0:
45,139,70910,1,0,0:0:0:0:
131,25,71077,2,0,P|139:73|149:131,1,99.0000030212403,2|0,0:0|0:0,0:0:0:0:
302,189,71410,1,8,0:0:0:0:
153,292,71577,1,0,0:0:0:0:
459,246,71744,6,0,P|358:258|254:274,1,198.000006042481,2|8,0:0|0:0,0:0:0:0:
128,209,72244,1,0,0:0:0:0:
128,209,72327,1,0,0:0:0:0:
128,209,72410,1,2,0:0:0:0:
200,336,72577,1,0,0:0:0:0:
322,123,72744,1,8,0:0:0:0:
215,195,72910,1,0,0:0:0:0:
334,343,73077,6,0,P|424:327|460:322,1,99.0000030212403,2|0,0:0|0:0,0:0:0:0:
314,169,73410,2,0,P|224:185|188:190,1,99.0000030212403,8|0,0:0|0:0,0:0:0:0:
29,97,73744,1,2,0:0:0:0:
227,45,73910,1,0,0:0:0:0:
137,7,74077,2,0,P|127:62|118:110,1,99.0000030212403,8|0,0:0|0:0,0:0:0:0:
264,187,74410,6,0,P|227:230|196:266,1,99.0000030212403,2|0,0:0|0:0,0:0:0:0:
54,171,74744,1,8,0:0:0:0:
115,340,74910,1,0,0:0:0:0:
115,340,74994,1,0,0:0:0:0:
115,340,75077,1,0,0:0:0:0:
239,301,75244,1,0,0:0:0:0:
175,102,75410,1,8,0:0:0:0:
16,340,75577,2,8,L|24:287,1,49.5000015106202
29,252,75744,6,0,P|155:232|204:224,1,148.50000453186,6|0,0:0|0:0,0:0:0:0:
209,223,76077,1,8,0:0:0:0:
253,115,76244,1,0,0:0:0:0:
427,282,76410,1,2,0:0:0:0:
297,358,76577,1,0,0:0:0:0:
365,140,76744,1,8,0:0:0:0:
190,301,76910,1,0,0:0:0:0:
209,223,77077,6,0,P|154:212|62:192,1,148.50000453186
38,185,77410,1,8,0:0:0:0:
125,46,77577,1,0,0:0:0:0:
199,126,77744,1,2,0:0:0:0:
101,281,77910,1,0,0:0:0:0:
392,110,78077,6,0,P|327:121|271:128,1,99.0000030212403,8|0,0:0|0:0,0:0:0:0:
207,300,78410,2,0,P|272:289|328:282,1,99.0000030212403
318,363,78744,1,8,0:0:0:0:
396,199,78910,5,0,0:0:0:0:
213,136,79077,1,2,0:0:0:0:
255,271,79244,5,0,0:0:0:0:
126,50,79410,1,8,0:0:0:0:
0,270,79577,1,0,0:0:0:0:
87,268,79744,6,0,P|74:191|59:109,1,148.50000453186,2|0,0:0|0:0,0:0:0:0:
51,87,80077,1,8,0:0:0:0:
190,164,80244,1,0,0:0:0:0:
223,156,80327,1,0,0:0:0:0:
256,149,80410,1,2,0:0:0:0:
448,195,80576,5,8,0:0:0:0:
455,244,80659,1,0,0:0:0:0:
441,291,80743,1,8,0:0:0:0:
409,328,80826,1,8,0:0:0:0:
383,347,80910,1,8,0:0:0:0:
334,339,80993,1,8,0:0:0:0:
285,328,81077,6,0,L|169:303,1,99.0000030212403,4|0,0:0|0:0,0:0:0:0:
43,232,81410,1,8,0:0:0:0:
86,354,81577,1,0,0:0:0:0:
182,200,81744,1,2,0:0:0:0:
63,76,81910,1,0,0:0:0:0:
106,198,82077,1,8,0:0:0:0:
297,26,82244,1,0,0:0:0:0:
284,106,82410,6,0,P|173:93|103:82,1,148.50000453186,2|0,0:0|0:0,0:0:0:0:
103,79,82744,1,8,0:0:0:0:
132,202,82910,1,0,0:0:0:0:
310,25,83077,1,2,0:0:0:0:
221,244,83244,1,0,0:0:0:0:
192,121,83410,1,8,0:0:0:0:
351,156,83577,2,8,L|417:169,1,49.5000015106202
484,191,83744,6,0,P|408:212|322:234,1,148.50000453186,4|0,0:0|0:0,0:0:0:0:
326,320,84077,2,0,P|249:287|218:270,1,99.0000030212403,8|0,0:0|0:0,0:0:0:0:
262,129,84410,1,0,0:0:0:0:
142,297,84577,1,0,0:0:0:0:
90,215,84744,2,0,P|45:236|0:255,1,99.0000030212403,8|0,0:0|0:0,0:0:0:0:
56,101,85077,6,0,B|66:56|101:43|101:43|246:75,2,198.000006042481,0|8|2,0:0|0:0|0:0,0:0:0:0:
164,229,85910,1,0,0:0:0:0:
452,91,86077,5,8,0:0:0:0:
428,48,86160,1,0,0:0:0:0:
386,23,86243,1,0,0:0:0:0:
337,23,86326,1,0,0:0:0:0:
295,47,86410,1,4,0:0:0:0:
339,206,86577,1,0,0:0:0:0:
384,121,86744,1,8,0:0:0:0:
205,169,86910,5,0,0:0:0:0:
247,346,87077,1,8,0:0:0:0:
344,274,87244,1,0,0:0:0:0:
145,227,87410,5,8,0:0:0:0:
388,149,87577,1,0,0:0:0:0:
130,77,87744,1,8,0:0:0:0:
203,346,87910,5,0,0:0:0:0:
367,49,88077,1,8,0:0:0:0:
48,220,88244,1,0,0:0:0:0:
400,384,88410,1,8,0:0:0:0:
272,234,88577,1,8,0:0:0:0:
228,211,88660,1,8,0:0:0:0:
179,208,88743,1,8,0:0:0:0:
133,227,88826,1,8,0:0:0:0:
99,262,88910,1,8,0:0:0:0:
83,309,88993,1,8,0:0:0:0:
91,358,89077,6,0,B|151:290|177:197|119:182|66:224,1,225,4|0,0:0|0:0,0:0:0:0:
209,334,90077,2,0,P|224:293|228:273,1,45
240,214,90410,2,0,P|228:171|219:150,1,58.4999973220826,2|0,0:0|0:0,0:0:0:0:
104,114,90744,1,0,0:0:0:0:
217,62,90910,1,0,0:0:0:0:
75,217,91077,5,8,0:0:0:0:
88,262,91160,1,0,0:0:0:0:
115,301,91243,1,0,0:0:0:0:
151,330,91326,1,0,0:0:0:0:
194,348,91410,1,8,0:0:0:0:
241,353,91493,1,0,0:0:0:0:
287,344,91576,1,8,0:0:0:0:
329,322,91660,1,8,0:0:0:0:
362,289,91744,6,0,L|337:96,1,180,4|8,0:0|0:0,0:0:0:0:
191,51,92244,1,0,0:0:0:0:
90,188,92410,2,0,P|148:178|189:171,1,90,2|0,0:0|0:0,0:0:0:0:
284,278,92744,2,0,P|226:288|185:295,1,90,8|0,0:0|0:0,0:0:0:0:
372,35,93077,6,0,L|392:206,1,135
392,202,93410,1,8,0:0:0:0:
265,128,93577,1,0,0:0:0:0:
265,128,93660,1,0,0:0:0:0:
265,128,93744,1,2,0:0:0:0:
287,287,93910,1,0,0:0:0:0:
395,204,94077,2,0,P|322:212|280:215,1,90,8|0,0:0|0:0,0:0:0:0:
101,383,94410,6,0,P|184:373|273:365,1,135
291,288,94744,1,8,0:0:0:0:
191,229,94910,1,0,0:0:0:0:
415,68,95077,5,2,0:0:0:0:
308,134,95244,1,0,0:0:0:0:
301,19,95410,1,8,0:0:0:0:
425,139,95577,1,0,0:0:0:0:
237,260,95744,6,0,P|333:272|427:284,1,180,0|8,0:0|0:0,0:0:0:0:
115,133,96244,2,0,L|123:194,2,45,0|0|8,0:0|0:0|0:0,0:0:0:0:
135,313,96576,1,0,0:0:0:0:
131,285,96659,1,0,0:0:0:0:
126,253,96744,1,8,0:0:0:0:
180,269,96827,1,8,0:0:0:0:
237,260,96910,1,8,0:0:0:0:
282,225,96993,1,8,0:0:0:0:
307,174,97077,6,0,L|293:78,1,90,4|0,0:0|0:0,0:0:0:0:
326,271,97410,1,8,0:0:0:0:
483,193,97577,1,0,0:0:0:0:
483,193,97660,1,0,0:0:0:0:
483,193,97744,2,0,P|419:186|383:181,1,90,2|0,0:0|0:0,0:0:0:0:
246,363,98077,2,0,P|310:370|346:375,1,90,8|0,0:0|0:0,0:0:0:0:
403,284,98410,5,2,0:0:0:0:
282,132,98577,1,0,0:0:0:0:
172,246,98744,2,0,P|244:236|284:232,1,90,8|0,0:0|0:0,0:0:0:0:
258,42,99077,5,2,0:0:0:0:
379,194,99244,1,0,0:0:0:0:
489,80,99411,2,0,P|417:90|377:94,1,90,8|0,0:0|0:0,0:0:0:0:
175,249,99744,5,2,0:0:0:0:
285,132,99910,1,0,0:0:0:0:
333,369,100077,1,8,0:0:0:0:
113,192,100244,5,0,0:0:0:0:
389,111,100410,1,8,0:0:0:0:
101,83,100577,5,0,0:0:0:0:
421,208,100743,1,8,0:0:0:0:
55,192,100910,5,0,0:0:0:0:
442,78,101076,1,8,0:0:0:0:
217,305,101244,5,8,0:0:0:0:
208,265,101327,1,8,0:0:0:0:
215,225,101410,1,8,0:0:0:0:
320,252,101577,5,8,0:0:0:0:
335,214,101660,1,8,0:0:0:0:
364,185,101744,2,8,P|393:160|406:153,1,45
409,333,101910,5,8,0:0:0:0:
375,363,101993,1,8,0:0:0:0:
334,378,102076,1,8,0:0:0:0:
289,377,102159,1,8,0:0:0:0:
248,358,102243,1,8,0:0:0:0:
217,326,102326,1,8,0:0:0:0:
201,284,102410,6,0,L|223:184,1,80.9999975280763,4|0,0:0|0:0,0:0:0:0:
247,59,102744,1,8,0:0:0:0:
357,126,102910,1,2,0:0:0:0:
325,144,102994,1,2,0:0:0:0:
292,159,103077,1,2,0:0:0:0:
155,83,103244,1,2,0:0:0:0:
69,211,103410,2,0,P|115:204|172:194,1,80.9999975280763,8|0,0:0|0:0,0:0:0:0:
366,333,103744,6,0,P|290:345|224:357,1,121.499996292114
210,364,104077,1,8,0:0:0:0:
252,254,104244,1,2,0:0:0:0:
252,254,104327,1,2,0:0:0:0:
252,254,104410,1,2,0:0:0:0:
135,286,104577,1,2,0:0:0:0:
169,179,104744,1,8,0:0:0:0:
316,310,104910,1,0,0:0:0:0:
379,73,105077,5,2,0:0:0:0:
379,73,105244,1,2,0:0:0:0:
240,166,105410,2,0,P|180:157|129:150,1,80.9999975280763,8|0,0:0|0:0,0:0:0:0:
265,70,105744,5,2,0:0:0:0:
265,70,105911,1,2,0:0:0:0:
358,209,106077,2,0,P|349:269|342:320,1,80.9999975280763,8|0,0:0|0:0,0:0:0:0:
167,384,106410,5,2,0:0:0:0:
197,224,106577,1,2,0:0:0:0:
255,295,106744,1,8,0:0:0:0:
138,138,106910,5,2,0:0:0:0:
138,138,106994,1,2,0:0:0:0:
138,138,107077,1,2,0:0:0:0:
108,298,107244,1,2,0:0:0:0:
10,201,107410,2,0,P|61:210|104:217,1,80.9999975280763,8|0,0:0|0:0,0:0:0:0:
316,86,107744,6,0,P|249:77|172:63,1,121.499996292114,2|0,0:0|0:0,0:0:0:0:
160,58,108077,1,8,0:0:0:0:
216,238,108244,1,2,0:0:0:0:
216,238,108327,1,2,0:0:0:0:
216,238,108410,1,2,0:0:0:0:
285,160,108577,1,2,0:0:0:0:
127,127,108744,1,8,0:0:0:0:
185,324,108910,1,0,0:0:0:0:
17,288,109077,5,2,0:0:0:0:
73,119,109244,1,2,0:0:0:0:
100,205,109410,2,0,P|120:265|127:294,1,80.9999975280763,8|0,0:0|0:0,0:0:0:0:
154,378,109744,5,2,0:0:0:0:
208,212,109911,1,2,0:0:0:0:
237,295,110077,2,0,P|257:355|264:384,1,80.9999975280763,8|0,0:0|0:0,0:0:0:0:
443,194,110410,6,0,P|372:210|302:222,1,121.499996292114,2|0,0:0|0:0,0:0:0:0:
285,221,110744,1,8,0:0:0:0:
228,67,110910,1,2,0:0:0:0:
228,67,110994,1,2,0:0:0:0:
228,67,111077,1,2,0:0:0:0:
259,144,111244,1,2,0:0:0:0:
293,226,111410,1,8,0:0:0:0:
88,181,111577,5,2,0:0:0:0:
88,181,111660,1,2,0:0:0:0:
88,181,111744,2,0,P|133:173|170:165,1,80.9999975280763,2|0,0:0|0:0,0:0:0:0:
343,292,112077,2,0,P|256:314|194:330,1,121.499996292114,8|0,0:0|0:0,0:0:0:0:
183,337,112410,1,2,0:0:0:0:
226,224,112577,1,2,0:0:0:0:
105,258,112744,1,8,0:0:0:0:
151,149,112910,1,0,0:0:0:0:
333,215,113077,6,0,P|351:153|365:89,1,121.499996292114,6|0,0:0|0:0,0:0:0:0:
259,34,113410,1,8,0:0:0:0:
234,163,113577,1,0,0:0:0:0:
234,163,113660,1,2,0:0:0:0:
234,163,113744,1,2,0:0:0:0:
100,85,113910,1,2,0:0:0:0:
123,0,114077,1,8,0:0:0:0:
197,43,114244,1,0,0:0:0:0:
17,114,114410,5,2,0:0:0:0:
131,178,114577,1,2,0:0:0:0:
131,178,114660,1,0,0:0:0:0:
131,178,114744,2,0,P|198:167|219:163,1,80.9999975280763,8|0,0:0|0:0,0:0:0:0:
318,108,115077,5,2,0:0:0:0:
318,108,115244,1,2,0:0:0:0:
294,252,115410,2,0,P|227:263|206:267,1,80.9999975280763,8|0,0:0|0:0,0:0:0:0:
450,233,115744,6,0,P|480:300|456:378,1,121.499996292114
460,380,116077,1,8,0:0:0:0:
364,329,116244,1,2,0:0:0:0:
276,347,116410,1,0,0:0:0:0:
184,365,116577,1,2,0:0:0:0:
234,167,116744,1,8,0:0:0:0:
218,266,116910,5,2,0:0:0:0:
218,266,116994,1,2,0:0:0:0:
218,266,117077,1,2,0:0:0:0:
104,291,117244,1,2,0:0:0:0:
137,190,117410,1,8,0:0:0:0:
79,376,117577,5,2,0:0:0:0:
79,376,117660,1,2,0:0:0:0:
79,376,117744,1,2,0:0:0:0:
24,234,117910,1,2,0:0:0:0:
147,311,118077,1,8,0:0:0:0:
91,177,118244,1,0,0:0:0:0:
316,244,118410,6,0,P|230:237|162:231,1,121.499996292114
168,233,118744,1,8,0:0:0:0:
245,150,118910,1,0,0:0:0:0:
263,334,119077,2,0,P|331:340|365:343,1,80.9999975280763
443,164,119410,2,0,P|375:158|341:155,1,80.9999975280763,8|0,0:0|0:0,0:0:0:0:
311,243,119744,5,0,0:0:0:0:
397,76,119910,1,0,0:0:0:0:
239,162,120077,1,8,0:0:0:0:
195,78,120244,1,2,0:0:0:0:
195,78,120327,1,2,0:0:0:0:
195,78,120410,1,2,0:0:0:0:
289,23,120577,1,2,0:0:0:0:
335,107,120744,1,8,0:0:0:0:
107,49,120910,1,0,0:0:0:0:
138,241,121077,6,0,P|128:180|119:134,1,80.9999975280763
44,279,121410,1,8,0:0:0:0:
240,195,121577,1,0,0:0:0:0:
209,364,121744,2,0,P|216:324|222:284,1,80.9999975280763,2|0,0:0|0:0,0:0:0:0:
254,112,122077,1,8,0:0:0:0:
187,192,122244,1,2,0:0:0:0:
221,213,122327,1,2,0:0:0:0:
260,221,122410,5,8,0:0:0:0:
411,170,122577,1,0,0:0:0:0:
286,287,122744,5,8,0:0:0:0:
401,96,122911,1,0,0:0:0:0:
452,281,123077,6,0,P|408:275|358:270,1,80.9999975280763,8|0,0:0|0:0,0:0:0:0:
232,128,123410,1,8,0:0:0:0:
319,59,123577,1,8,0:0:0:0:
336,95,123660,1,8,0:0:0:0:
336,135,123744,6,0,L|321:220,1,80.9999975280763,4|0,0:0|0:0,0:0:0:0:
299,348,124077,1,8,0:0:0:0:
239,260,124244,1,0,0:0:0:0:
414,182,124410,1,0,0:0:0:0:
354,300,124577,1,0,0:0:0:0:
315,219,124744,1,8,0:0:0:0:
277,138,124910,1,0,0:0:0:0:
113,234,125077,6,0,P|184:245|212:250,1,80.9999975280763,2|0,0:0|0:0,0:0:0:0:
357,150,125410,2,0,P|286:139|258:134,1,80.9999975280763,8|0,0:0|0:0,0:0:0:0:
297,340,125744,2,0,P|368:351|396:356,1,80.9999975280763,2|0,0:0|0:0,0:0:0:0:
406,360,125994,1,0,0:0:0:0:
406,360,126077,1,8,0:0:0:0:
208,327,126244,1,0,0:0:0:0:
388,253,126410,6,0,P|325:244|207:225,1,161.999995056153,2|0,0:0|0:0,0:0:0:0:
330,147,126910,1,0,0:0:0:0:
425,57,127077,2,0,P|345:44|264:32,1,161.999995056153
109,181,127577,5,0,0:0:0:0:
143,23,127744,2,0,P|129:94|123:122,1,80.9999975280763,2|0,0:0|0:0,0:0:0:0:
232,205,128077,2,0,P|240:165|247:125,1,80.9999975280763,8|0,0:0|0:0,0:0:0:0:
43,245,128410,5,8,0:0:0:0:
70,270,128522,1,8,0:0:0:0:
106,280,128633,2,0,L|175:258,1,53.9999983520508,8|0,0:0|3:0,0:0:0:0:
309,213,128855,5,8,0:0:0:0:
307,230,128966,1,8,3:0:0:0:
304,250,129077,2,8,L|294:322,1,53.9999983520508,4|4,0:0|0:0,3:0:0:0:
286,380,129410,5,0,0:0:0:0:
376,332,129577,1,0,0:0:0:0:
217,280,129744,1,8,0:0:0:0:
443,222,129910,5,0,0:0:0:0:
174,140,130077,1,8,0:0:0:0:
246,381,130244,1,0,0:0:0:0:
356,90,130410,5,8,0:0:0:0:
76,236,130577,1,0,0:0:0:0:
326,343,130744,5,8,0:0:0:0:
189,56,130910,1,0,0:0:0:0:
191,341,131077,5,8,0:0:0:0:
320,54,131243,1,0,0:0:0:0:
326,343,131410,5,8,0:0:0:0:
189,56,131576,1,0,0:0:0:0:
256,193,131744,5,6,0:0:0:0:
308,176,134077,6,0,L|326:89,1,62.9999980773926
275,323,134410,6,0,P|202:323|157:292,1,99.0000030212403
117,252,134744,1,8,0:0:0:0:
283,163,134910,1,0,0:0:0:0:
372,301,135077,2,0,L|386:198,1,99.0000030212403,2|0,0:0|0:0,0:0:0:0:
315,62,135410,1,8,0:0:0:0:
194,134,135577,1,0,0:0:0:0:
385,207,135744,6,0,P|314:216|179:234,1,198.000006042481,2|8,0:0|0:0,0:0:0:0:
84,177,136244,1,0,0:0:0:0:
84,177,136327,1,0,0:0:0:0:
84,177,136410,1,2,0:0:0:0:
159,305,136577,1,0,0:0:0:0:
253,133,136744,1,10,0:0:0:0:
354,281,136911,1,0,0:0:0:0:
384,35,137077,6,0,P|335:43|276:49,1,99.0000030212403,2|0,0:0|0:0,0:0:0:0:
199,202,137410,2,0,P|248:194|310:186,1,99.0000030212403,8|0,0:0|0:0,0:0:0:0:
201,58,137744,1,2,0:0:0:0:
96,240,137910,1,0,0:0:0:0:
29,137,138077,2,0,P|45:85|61:29,1,99.0000030212403,8|0,0:0|0:0,0:0:0:0:
222,285,138410,6,0,P|238:233|253:177,1,99.0000030212403,2|0,0:0|0:0,0:0:0:0:
189,91,138744,1,8,0:0:0:0:
148,190,138910,1,0,0:0:0:0:
148,190,138994,1,0,0:0:0:0:
148,190,139077,1,2,0:0:0:0:
282,112,139244,1,0,0:0:0:0:
200,356,139410,1,8,0:0:0:0:
417,308,139577,2,8,L|475:298,1,49.5000015106202
408,224,139744,6,0,P|333:235|220:255,1,148.50000453186,4|0,0:0|0:0,0:0:0:0:
232,255,140077,1,8,0:0:0:0:
201,355,140244,1,0,0:0:0:0:
111,176,140410,1,2,0:0:0:0:
232,255,140577,1,0,0:0:0:0:
58,304,140744,1,8,0:0:0:0:
182,44,140910,1,0,0:0:0:0:
195,126,141077,6,0,P|271:113|384:93,1,148.50000453186,2|0,0:0|0:0,0:0:0:0:
366,97,141410,1,8,0:0:0:0:
312,222,141577,1,0,0:0:0:0:
450,198,141744,1,0,0:0:0:0:
305,363,141910,1,0,0:0:0:0:
142,201,142077,6,0,P|194:222|258:243,1,99.0000030212403,8|0,0:0|0:0,0:0:0:0:
305,363,142410,2,0,P|349:346|399:326,1,99.0000030212403,2|0,0:0|0:0,0:0:0:0:
294,151,142744,1,8,0:0:0:0:
225,327,142910,1,0,0:0:0:0:
394,259,143077,1,2,0:0:0:0:
265,59,143244,5,0,0:0:0:0:
173,239,143410,1,8,0:0:0:0:
311,183,143577,1,0,0:0:0:0:
30,89,143744,6,0,P|99:117|183:147,1,148.50000453186,2|0,0:0|0:0,0:0:0:0:
241,106,144077,1,8,0:0:0:0:
196,318,144244,1,0,0:0:0:0:
220,229,144410,5,8,0:0:0:0:
253,206,144493,1,8,0:0:0:0:
292,196,144576,1,8,0:0:0:0:
332,198,144660,1,8,0:0:0:0:
369,214,144743,1,8,0:0:0:0:
399,241,144826,1,8,0:0:0:0:
418,277,144910,1,8,0:0:0:0:
425,316,144993,1,8,0:0:0:0:
425,358,145077,6,0,L|446:254,1,99.0000030212403,4|0,0:0|0:0,0:0:0:0:
466,143,145410,1,8,0:0:0:0:
353,216,145577,1,0,0:0:0:0:
318,41,145744,1,2,0:0:0:0:
385,120,145910,1,0,0:0:0:0:
242,206,146077,1,8,0:0:0:0:
213,20,146244,1,0,0:0:0:0:
0,93,146410,6,0,P|76:78|165:61,1,148.50000453186,2|0,0:0|0:0,0:0:0:0:
213,20,146744,1,8,0:0:0:0:
159,223,146910,1,0,0:0:0:0:
76,154,147077,1,2,0:0:0:0:
254,121,147244,1,0,0:0:0:0:
203,328,147410,1,8,0:0:0:0:
443,293,147577,6,8,L|463:233,1,49.5000015106202
485,171,147744,2,0,P|404:141|333:126,1,148.50000453186,2|0,0:0|0:0,0:0:0:0:
349,34,148077,2,0,P|275:57|237:78,1,99.0000030212403,8|0,0:0|0:0,0:0:0:0:
234,200,148410,1,0,0:0:0:0:
150,35,148577,1,0,0:0:0:0:
96,139,148744,2,0,P|22:116|-16:95,1,99.0000030212403,8|0,0:0|0:0,0:0:0:0:
256,66,149077,6,0,B|306:85|355:70|355:70|391:100|368:161,2,198.000006042481,2|8|2,0:0|0:0|0:0,0:0:0:0:
161,45,149910,1,0,0:0:0:0:
308,241,150077,5,8,0:0:0:0:
353,258,150160,1,8,0:0:0:0:
402,252,150243,1,8,0:0:0:0:
442,224,150327,1,8,0:0:0:0:
464,180,150410,5,8,0:0:0:0:
255,135,150577,1,0,0:0:0:0:
177,323,150744,1,8,0:0:0:0:
353,258,150910,1,0,0:0:0:0:
293,88,151077,1,0,0:0:0:0:
122,145,151243,1,0,0:0:0:0:
373,255,151410,5,8,0:0:0:0:
132,131,151577,1,0,0:0:0:0:
380,131,151744,5,8,0:0:0:0:
139,255,151911,1,0,0:0:0:0:
407,273,152077,5,8,0:0:0:0:
94,112,152244,1,0,0:0:0:0:
417,112,152410,5,8,0:0:0:0:
104,273,152577,1,0,0:0:0:0:
256,32,152744,6,0,L|256:100,1,67.5000025749208,8|0,0:0|0:0,0:0:0:0:
256,195,153077,5,4,0:0:0:0:
206,263,154244,5,0,3:0:0:0:
206,263,154327,1,0,3:0:0:0:
206,263,154410,2,0,P|265:254|308:249,1,76.5000014591217,8|0,3:0|0:0,0:0:0:0:
337,164,154910,5,8,3:0:0:0:
398,254,155077,2,0,P|392:291|386:329,2,76.5000014591217,0|0|0,0:0|0:0|3:0,0:0:0:0:
256,192,155577,5,2,0:0:0:0:
256,192,155660,1,2,0:0:0:0:
256,192,155744,6,0,L|164:180,1,72,4|0,0:0|0:0,0:0:0:0:
164,271,156077,2,0,L|72:259,1,72
127,114,156410,2,0,L|35:102,1,72,2|0,0:0|0:0,0:0:0:0:
256,192,156744,2,0,L|348:180,1,72
348,271,157077,6,0,L|440:259,1,72,2|0,0:0|0:0,0:0:0:0:
385,114,157410,2,0,L|477:102,1,72
192,26,157744,2,0,L|203:122,1,72
312,149,158077,2,0,L|301:245,1,72
279,341,158410,6,0,P|209:351|146:307,2,144,2|0|0,0:0|0:0|0:0,0:0:0:0:
301,237,159244,1,0,0:0:0:0:
390,282,159410,2,0,P|394:243|398:210,1,72
245,128,159744,2,0,P|241:167|236:199,1,72,2|0,0:0|0:0,0:0:0:0:
221,307,160077,1,0,0:0:0:0:
124,265,160244,1,0,0:0:0:0:
99,271,160327,1,0,0:0:0:0:
75,278,160410,6,8,L|24:291,2,36,2|0|0,0:0|0:0|0:0,0:0:0:0:
98,187,160744,1,0,0:0:0:0:
119,99,160910,1,0,0:0:0:0:
220,179,161077,6,0,B|274:195|326:174|326:174|333:152|338:128,2,144,2|0|0,0:0|0:0|0:0,0:0:0:0:
108,143,161910,1,0,0:0:0:0:
171,31,162077,2,0,P|178:85|182:121,1,72
269,92,162410,2,0,P|261:145|256:181,1,72,2|0,0:0|0:0,0:0:0:0:
121,292,162744,6,0,P|114:238|110:202,1,72
23,231,163077,2,0,P|30:177|35:141,1,72
108,146,163410,1,4,0:0:0:0:
419,120,163744,5,2,3:0:0:0:
327,187,164077,1,0,0:0:0:0:
332,104,164244,2,0,L|339:25,1,72,4|0,3:0|0:0,0:0:0:0:
220,94,164577,1,0,0:0:0:0:
220,94,164660,1,0,0:0:0:0:
220,94,164744,2,0,L|213:165,1,72,4|0,3:0|0:0,0:0:0:0:
194,345,165077,5,0,3:0:0:0:
264,272,165244,1,0,3:0:0:0:
139,175,165410,1,4,3:0:0:0:
94,263,165577,1,0,0:0:0:0:
94,263,165660,1,0,0:0:0:0:
94,263,165744,5,4,0:0:0:0:
210,198,165910,1,0,0:0:0:0:
74,118,166077,1,8,0:0:0:0:
349,78,166410,6,0,P|289:90|176:107,1,144,4|0,0:0|0:0,0:0:0:0:
91,69,166910,1,0,0:0:0:0:
184,203,167077,2,0,P|240:192|286:186,1,72,8|0,0:0|0:0,0:0:0:0:
360,174,167410,1,2,0:0:0:0:
360,174,167494,1,0,0:0:0:0:
360,174,167577,2,0,P|352:220|347:254,1,72,8|0,0:0|0:0,0:0:0:0:
332,346,167910,5,8,0:0:0:0:
251,275,168077,1,0,0:0:0:0:
441,187,168244,1,0,0:0:0:0:
334,86,168410,5,0,0:0:0:0:
334,86,168577,1,2,0:0:0:0:
237,133,168744,1,0,0:0:0:0:
237,133,168910,1,2,0:0:0:0:
183,45,169077,6,0,P|102:70|28:90,1,144,2|0,0:0|0:0,0:0:0:0:
127,152,169577,1,0,0:0:0:0:
67,228,169744,2,0,P|79:274|88:309,1,72,8|0,0:0|0:0,0:0:0:0:
27,372,170077,1,0,0:0:0:0:
232,318,170244,1,0,0:0:0:0:
232,318,170327,1,0,0:0:0:0:
232,318,170410,5,8,0:0:0:0:
159,250,170577,1,0,0:0:0:0:
129,371,170744,1,4,3:0:0:0:
129,371,171077,6,0,L|150:288,1,53.9999983520508,8|0,0:0|0:0,0:0:0:0:
203,223,171244,1,8,0:0:0:0:
254,216,171327,1,8,0:0:0:0:
304,231,171410,1,8,0:0:0:0:
354,247,171494,1,8,0:0:0:0:
406,241,171577,1,8,0:0:0:0:
445,207,171660,1,8,0:0:0:0:
454,157,171744,6,0,L|437:63,1,90,4|0,0:0|0:0,0:0:0:0:
258,23,172077,1,8,0:0:0:0:
286,165,172244,1,0,0:0:0:0:
330,86,172410,5,0,0:0:0:0:
155,63,172577,1,0,0:0:0:0:
245,298,172744,1,8,0:0:0:0:
378,134,172910,5,0,0:0:0:0:
127,252,173077,1,8,0:0:0:0:
385,252,173244,5,0,0:0:0:0:
134,134,173411,1,8,0:0:0:0:
185,301,173577,5,0,0:0:0:0:
321,79,173744,1,8,0:0:0:0:
327,301,173910,5,0,0:0:0:0:
191,79,174077,1,8,0:0:0:0:
256,192,174244,5,0,0:0:0:0:
228,361,174410,2,0,L|245:255,1,90,12|0,0:0|0:0,0:0:0:0:
159,84,174744,5,0,0:0:0:0:
126,292,174910,2,0,L|143:182,1,107.999996704102,12|0,0:0|0:0,0:0:0:0:
55,14,175244,5,0,0:0:0:0:
21,227,175410,2,0,L|42:92,1,125.999996154785,12|4,0:0|3:0,0:0:0:0:
177,57,175744,5,8,0:0:0:0:
162,186,175910,1,0,0:0:0:0:
273,145,176077,1,2,0:0:0:0:
272,283,176244,1,0,0:0:0:0:
272,283,176327,1,0,0:0:0:0:
272,283,176410,1,8,0:0:0:0:
480,200,176577,1,8,0:0:0:0:
474,240,176660,1,8,0:0:0:0:
469,280,176743,1,8,0:0:0:0:
464,320,176827,1,8,0:0:0:0:
459,357,176910,5,8,0:0:0:0:
395,362,176993,1,8,0:0:0:0:
337,336,177077,6,0,L|345:216,1,90,6|0,0:0|0:0,0:0:0:0:
247,76,177410,1,10,0:0:0:0:
335,141,177577,2,0,P|276:155|242:163,1,90,2|0,0:0|0:0,0:0:0:0:
97,29,177910,1,0,0:0:0:0:
97,29,178077,2,0,P|140:18|184:8,1,90,10|0,0:0|0:0,0:0:0:0:
69,140,178410,5,2,0:0:0:0:
170,237,178577,1,0,0:0:0:0:
247,76,178744,1,10,0:0:0:0:
163,149,178910,1,0,0:0:0:0:
293,276,179077,1,2,0:0:0:0:
340,123,179244,5,0,0:0:0:0:
445,234,179410,1,10,0:0:0:0:
489,66,179577,1,0,0:0:0:0:
191,36,179744,6,0,B|229:59|267:69|267:69|305:30|369:35,1,180,2|10,0:0|0:0,0:0:0:0:
226,239,180244,1,0,0:0:0:0:
146,110,180410,1,2,0:0:0:0:
224,150,180577,1,0,0:0:0:0:
113,299,180744,1,10,0:0:0:0:
201,360,180910,1,0,0:0:0:0:
201,360,180994,1,0,0:0:0:0:
201,360,181077,5,2,0:0:0:0:
276,229,181244,1,0,0:0:0:0:
316,331,181410,1,10,0:0:0:0:
397,168,181577,1,8,0:0:0:0:
397,168,181660,1,0,0:0:0:0:
397,168,181744,6,0,P|327:156|275:148,1,90,2|0,0:0|0:0,0:0:0:0:
107,261,182077,2,0,P|172:275|238:289,1,135,8|0,3:0|0:0,0:0:0:0:
288,359,182410,6,0,P|335:349|384:336,1,90,4|0,0:0|0:0,0:0:0:0:
308,252,182744,1,2,0:0:0:0:
390,140,182910,1,0,0:0:0:0:
390,140,182994,1,8,0:0:0:0:
390,140,183077,2,0,P|324:154|264:168,1,90,2|0,0:0|0:0,0:0:0:0:
252,48,183410,1,10,0:0:0:0:
46,156,183744,6,0,P|114:143|224:121,1,180,2|10,0:0|0:0,0:0:0:0:
111,56,184244,1,0,0:0:0:0:
187,206,184410,2,0,P|172:261|160:306,1,90,2|0,0:0|0:0,0:0:0:0:
58,262,184744,2,0,P|43:317|31:362,1,90,10|0,0:0|0:0,0:0:0:0:
317,346,185077,6,0,P|263:335|219:327,1,90,4|0,0:0|0:0,0:0:0:0:
74,180,185410,1,10,0:0:0:0:
195,118,185577,2,8,L|185:167,2,45,8|8|0,0:0|0:0|0:0,0:0:0:0:
166,248,185910,2,8,L|156:297,2,45,8|8|0,0:0|0:0|0:0,0:0:0:0:
283,255,186244,1,8,0:0:0:0:
291,215,186327,1,8,0:0:0:0:
300,175,186410,1,4,0:0:0:0:
313,41,186577,5,8,0:0:0:0:
293,73,186660,1,8,0:0:0:0:
266,98,186743,1,8,0:0:0:0:
232,113,186827,1,8,0:0:0:0:
195,118,186910,1,8,0:0:0:0:
158,111,186993,1,8,0:0:0:0:
125,94,187077,6,0,L|142:33,1,45,2|0,0:0|0:0,0:0:0:0:
162,306,187244,6,0,L|150:355,1,45,2|0,0:0|0:0,0:0:0:0:
279,234,187410,6,0,L|212:251,1,45,2|0,0:0|0:0,0:0:0:0:
22,192,187577,6,0,P|90:180|212:155,1,180,4|0,0:0|0:0,0:0:0:0:
42,270,188077,1,8,0:0:0:0:
19,122,188244,1,0,0:0:0:0:
19,122,188327,1,8,0:0:0:0:
19,122,188410,2,0,P|64:115|123:103,1,90,2|0,0:0|0:0,0:0:0:0:
234,228,188744,2,0,P|189:235|130:247,1,90,8|0,0:0|0:0,0:0:0:0:
310,182,189077,6,0,P|294:129|305:44,1,135,2|0,0:0|0:0,0:0:0:0:
393,39,189410,1,8,0:0:0:0:
435,111,189577,1,0,0:0:0:0:
352,276,189744,2,0,P|310:271|253:265,1,90,2|0,0:0|0:0,0:0:0:0:
64,152,190077,1,10,0:0:0:0:
97,158,190160,1,2,0:0:0:0:
130,164,190243,1,2,0:0:0:0:
163,168,190327,1,2,0:0:0:0:
197,171,190410,6,0,P|205:115|204:70,1,90,2|0,0:0|0:0,0:0:0:0:
42,57,190744,1,8,0:0:0:0:
180,303,190910,2,0,P|117:295|81:292,1,90,2|0,0:0|0:0,0:0:0:0:
197,171,191244,2,0,P|260:179|296:182,1,90,2|8,0:0|0:0,0:0:0:0:
431,102,191577,5,0,0:0:0:0:
431,102,191660,1,0,0:0:0:0:
431,102,191744,2,0,P|424:172|421:214,1,90,12|0,0:0|0:0,0:0:0:0:
410,357,192077,1,8,0:0:0:0:
486,299,192244,1,8,0:0:0:0:
332,187,192410,1,2,0:0:0:0:
308,368,192577,5,8,0:0:0:0:
278,334,192660,1,8,0:0:0:0:
241,309,192743,1,8,0:0:0:0:
198,295,192827,1,8,0:0:0:0:
153,293,192910,1,8,0:0:0:0:
109,303,192993,1,8,0:0:0:0:
71,327,193077,2,0,P|53:263|45:218,1,90,4|0,0:0|0:0,0:0:0:0:
111,29,193410,5,8,0:0:0:0:
111,29,193577,1,0,0:0:0:0:
234,50,193744,2,0,P|224:93|211:137,1,90,12|0,0:0|0:0,0:0:0:0:
163,316,194077,5,8,0:0:0:0:
163,316,194244,1,0,0:0:0:0:
71,327,194410,2,0,P|53:263|45:218,1,90,12|0,0:0|0:0,0:0:0:0:
112,26,194744,5,8,0:0:0:0:
112,26,194910,1,0,0:0:0:0:
248,265,195077,1,12,0:0:0:0:
290,177,195244,1,0,0:0:0:0:
290,177,195410,1,8,0:0:0:0:
404,365,195577,1,0,0:0:0:0:
442,270,195744,6,0,P|393:259|302:325,1,120,4|0,0:0|0:0,0:0:0:0:
270,358,196077,1,0,0:0:0:0:
270,358,196188,6,2,L|199:346,2,60
192,215,196522,2,2,L|229:281,1,60
61,319,196744,6,2,P|110:304|155:288,1,90,8|4,3:0|3:0,0:0:0:0:
119,207,197077,6,0,P|52:228|0:244,1,122.40000074707,4|0,0:0|0:0,0:0:0:0:
255,191,207410,5,0,3:0:0:0:
342,254,207577,1,0,0:0:0:0:
342,254,207660,1,0,0:0:0:0:
342,254,207744,2,0,P|348:206|355:162,1,76.5000014591217,4|0,3:0|0:0,0:0:0:0:
244,283,208077,2,0,P|238:320|233:358,1,76.5000014591217,0|0,3:0|0:0,0:0:0:0:
148,294,208410,1,4,3:0:0:0:
168,201,208577,1,0,0:0:0:0:
168,201,208660,1,0,0:0:0:0:
168,201,208744,1,8,3:0:0:0:
185,101,208910,5,0,0:0:0:0:
185,101,208994,1,0,0:0:0:0:
185,101,209077,2,0,P|254:111|274:113,1,85.4999977169037
389,235,209410,2,0,P|320:225|300:223,1,85.4999977169037,8|0,0:0|0:0,0:0:0:0:
194,310,209744,2,0,P|263:320|283:322,1,85.4999977169037
150,193,210077,1,8,0:0:0:0:
108,309,210244,1,0,0:0:0:0:
207,345,210410,5,0,3:0:0:0:
258,234,210577,1,0,0:0:0:0:
258,234,210744,1,8,0:0:0:0:
330,321,210910,1,0,0:0:0:0:
330,321,211077,1,0,0:0:0:0:
371,199,211244,1,0,0:0:0:0:
371,199,211410,1,8,0:0:0:0:
226,112,211577,1,0,0:0:0:0:
226,112,211660,1,0,0:0:0:0:
226,112,211744,6,0,P|315:97|371:86,1,128.249996575356,2|0,0:0|0:0,0:0:0:0:
437,141,212077,1,8,0:0:0:0:
464,156,212244,1,0,0:0:0:0:
425,224,212410,1,0,0:0:0:0:
447,245,212577,1,0,0:0:0:0:
394,300,212744,1,8,0:0:0:0:
409,325,212911,1,0,0:0:0:0:
338,351,213077,1,0,0:0:0:0:
346,379,213244,1,0,0:0:0:0:
204,270,213410,6,0,P|258:278|307:285,1,85.4999977169037,8|0,0:0|0:0,0:0:0:0:
190,360,213744,2,0,P|136:352|87:345,1,85.4999977169037
253,240,214077,1,0,0:0:0:0:
123,197,214244,1,0,0:0:0:0:
126,180,214327,1,0,0:0:0:0:
130,163,214410,6,8,L|141:104,7,42.7499988584519
214,64,215077,6,8,L|265:73,3,42.7499988584519
269,156,215410,6,8,L|218:147,3,42.7499988584519
298,162,215744,1,8,0:0:0:0:
338,174,215827,1,8,0:0:0:0:
365,206,215910,1,8,0:0:0:0:
372,248,215994,1,8,0:0:0:0:
363,289,216077,1,8,0:0:0:0:
324,305,216160,1,8,0:0:0:0:
281,303,216243,1,8,0:0:0:0:
239,294,216327,1,8,0:0:0:0:
197,288,216410,5,8,0:0:0:0:
155,294,216493,1,8,0:0:0:0:
120,318,216577,1,8,0:0:0:0:
104,357,216660,1,8,0:0:0:0:
120,318,216743,1,8,0:0:0:0:
112,277,216826,1,8,0:0:0:0:
82,247,216910,1,8,0:0:0:0:
41,238,216993,1,8,0:0:0:0:
2,254,217076,5,6,0:0:0:0:
293,127,220910,5,8,0:0:0:0:
288,156,220994,1,8,0:0:0:0:
283,185,221077,2,0,L|276:235,4,42.7499988584519,0|0|0|8|8,3:0|3:0|3:0|3:0|3:0,3:0:0:0:
199,287,221494,1,0,3:0:0:0:
199,287,221577,1,4,3:0:0:0:
320,352,221744,5,8,3:0:0:0:
367,341,221827,1,0,3:0:0:0:
402,307,221910,1,0,3:0:0:0:
414,259,221994,1,0,0:0:0:0:
399,213,222077,1,8,0:0:0:0:
355,190,222160,1,8,0:0:0:0:
286,188,222243,1,8,0:0:0:0:
221,212,222327,1,8,0:0:0:0:
152,227,222410,6,0,P|84:213|40:205,1,99.0000030212403,4|0,0:0|0:0,0:0:0:0:
143,52,222744,1,8,0:0:0:0:
199,130,222910,1,0,0:0:0:0:
251,27,223077,2,0,P|299:37|348:46,1,99.0000030212403,2|0,0:0|0:0,0:0:0:0:
286,221,223410,1,8,0:0:0:0:
227,103,223577,1,0,0:0:0:0:
180,292,223744,6,0,P|231:347|370:328,1,198.000006042481,2|8,0:0|0:0,0:0:0:0:
446,234,224244,1,0,0:0:0:0:
442,209,224327,1,0,0:0:0:0:
437,184,224410,1,2,0:0:0:0:
358,268,224577,1,0,0:0:0:0:
467,366,224744,1,8,0:0:0:0:
331,172,224910,1,0,0:0:0:0:
279,263,225077,6,0,P|223:254|163:246,1,99.0000030212403,2|0,0:0|0:0,0:0:0:0:
95,103,225410,2,0,P|151:112|211:120,1,99.0000030212403,8|0,0:0|0:0,0:0:0:0:
315,43,225744,1,2,0:0:0:0:
246,179,225910,1,0,0:0:0:0:
423,142,226077,2,0,P|401:201|390:235,1,99.0000030212403,8|0,0:0|0:0,0:0:0:0:
252,331,226410,6,0,P|312:352|353:368,1,99.0000030212403,2|0,0:0|0:0,0:0:0:0:
448,319,226744,1,8,0:0:0:0:
273,252,226910,1,0,0:0:0:0:
273,252,226994,1,0,0:0:0:0:
273,252,227077,1,2,0:0:0:0:
322,132,227244,1,0,0:0:0:0:
362,287,227410,1,8,0:0:0:0:
111,186,227577,2,8,P|142:196|168:207,1,49.5000015106202
190,205,227744,6,0,P|226:154|187:47,1,148.50000453186,4|0,0:0|0:0,0:0:0:0:
195,46,228077,1,8,0:0:0:0:
132,127,228244,1,0,0:0:0:0:
99,4,228410,1,2,0:0:0:0:
0,120,228577,1,0,0:0:0:0:
190,205,228744,1,8,0:0:0:0:
86,309,228910,1,0,0:0:0:0:
343,318,229077,6,0,P|246:304|166:290,1,148.50000453186,2|0,0:0|0:0,0:0:0:0:
135,360,229410,1,8,0:0:0:0:
39,230,229577,1,0,0:0:0:0:
186,136,229744,1,2,0:0:0:0:
154,288,229910,1,0,0:0:0:0:
333,187,230077,6,0,P|271:199|231:209,1,99.0000030212403,8|0,0:0|0:0,0:0:0:0:
137,58,230410,2,0,P|199:46|239:36,1,99.0000030212403,2|0,0:0|0:0,0:0:0:0:
299,112,230744,1,8,0:0:0:0:
240,292,230910,1,0,0:0:0:0:
390,218,231077,1,2,0:0:0:0:
199,175,231244,5,0,0:0:0:0:
256,371,231410,1,8,0:0:0:0:
315,133,231577,1,0,0:0:0:0:
165,276,231744,6,0,P|95:254|18:208,1,148.50000453186,2|0,0:0|0:0,0:0:0:0:
8,200,232077,1,8,0:0:0:0:
88,68,232244,1,2,0:0:0:0:
190,157,232410,5,8,0:0:0:0:
231,130,232493,1,8,0:0:0:0:
276,109,232576,1,8,0:0:0:0:
323,95,232660,1,8,0:0:0:0:
372,86,232743,1,8,0:0:0:0:
422,93,232827,1,8,0:0:0:0:
462,118,232910,1,8,0:0:0:0:
476,165,232993,1,8,0:0:0:0:
456,209,233077,6,0,P|470:280|477:323,1,99.0000030212403
328,372,233410,1,8,0:0:0:0:
280,186,233577,1,0,0:0:0:0:
360,269,233744,1,2,0:0:0:0:
170,187,233910,5,0,0:0:0:0:
265,276,234077,1,8,0:0:0:0:
217,45,234244,1,0,0:0:0:0:
412,113,234410,6,0,P|334:130|238:156,1,148.50000453186,2|0,0:0|0:0,0:0:0:0:
190,125,234744,1,8,0:0:0:0:
312,243,234910,1,0,0:0:0:0:
383,5,235077,1,2,0:0:0:0:
293,97,235244,1,0,0:0:0:0:
438,261,235410,1,8,0:0:0:0:
489,52,235577,6,8,P|475:94|470:112,1,49.5000015106202
512,150,235744,2,0,P|441:121|328:84,1,148.50000453186,4|0,0:0|0:0,0:0:0:0:
318,33,236077,2,0,P|265:56|210:77,1,99.0000030212403,8|0,0:0|0:0,0:0:0:0:
129,38,236410,1,2,0:0:0:0:
209,201,236577,1,0,0:0:0:0:
335,178,236744,2,0,P|381:196|426:215,1,99.0000030212403,8|0,0:0|0:0,0:0:0:0:
191,352,237077,6,0,B|153:340|118:353|118:353|103:292|138:212,2,198.000006042481,2|8|0,0:0|0:0|0:0,0:0:0:0:
226,189,237910,1,0,0:0:0:0:
53,197,238077,1,8,0:0:0:0:
41,232,238160,1,8,0:0:0:0:
33,268,238243,1,8,0:0:0:0:
29,305,238327,1,8,0:0:0:0:
28,342,238410,5,4,0:0:0:0:
205,281,238577,1,0,0:0:0:0:
131,197,238744,2,0,P|144:141|159:84,1,99.0000030212403,8|0,0:0|0:0,0:0:0:0:
89,32,239077,5,0,0:0:0:0:
225,221,239244,1,0,0:0:0:0:
272,38,239410,2,0,P|259:85|248:134,1,99.0000030212403,8|0,0:0|0:0,0:0:0:0:
391,309,239744,6,0,B|327:323|263:345|263:345|233:324|197:303,2,198.000006042481,2|8|2,0:0|0:0|0:0,0:0:0:0:
423,218,240577,2,2,P|450:212|489:204,2,49.5000015106202,2|2|10,0:0|0:0|0:0,0:0:0:0:
287,251,240910,1,2,0:0:0:0:
264,217,240994,1,2,0:0:0:0:
260,177,241077,2,0,L|274:91,1,49.5000015106202,4|0,0:0|0:0,0:0:0:0:
387,49,241327,5,2,0:0:0:0:
391,89,241410,2,0,L|377:175,1,49.5000015106202,8|0,0:0|0:0,0:0:0:0:
355,314,241577,6,0,P|305:334|223:373,1,99.0000030212403
263,352,241827,1,2,0:0:0:0:
263,352,241910,1,8,0:0:0:0:
190,250,242077,2,0,P|170:300|131:382,1,99.0000030212403,4|0,0:0|0:0,0:0:0:0:
74,155,242327,5,0,0:0:0:0:
74,155,242410,1,8,0:0:0:0:
115,54,242577,1,8,0:0:0:0:
206,107,242744,6,0,P|194:142|181:180,2,49.5000015106202,8|2|8,0:0|0:0|0:0,0:0:0:0:
236,20,243077,5,8,0:0:0:0:
266,58,243160,1,8,0:0:0:0:
309,82,243243,1,8,0:0:0:0:
358,85,243327,1,8,0:0:0:0:
404,68,243410,5,8,0:0:0:0:
406,56,243493,1,8,0:0:0:0:
409,44,243576,1,8,0:0:0:0:
411,32,243660,1,8,0:0:0:0:
413,20,243743,5,6,0:0:0:0:
388,150,243910,1,0,0:0:0:0:
372,233,244077,1,0,0:0:0:0:
367,252,244410,5,0,0:0:0:0:
362,271,244744,5,0,0:0:0:0:
201,315,244910,1,8,0:0:0:0:
196,334,245244,5,0,0:0:0:0:
123,205,245744,5,0,0:0:0:0:
142,209,246077,1,0,0:0:0:0:
164,214,246410,5,8,0:0:0:0:
251,140,246577,1,0,0:0:0:0:
92,49,246744,1,0,0:0:0:0:
92,49,247077,2,0,P|103:110|117:193,1,135.000005149842
213,246,247577,2,0,P|206:192|202:168,1,67.5000025749208,8|0,0:0|0:0,0:0:0:0:
273,88,247910,2,0,P|278:121|282:154,1,67.5000025749208,8|0,0:0|0:0,0:0:0:0:
298,256,248244,1,4,3:0:0:0:
231,350,248410,5,8,0:0:0:0:
302,328,248577,1,0,0:0:0:0:
376,321,248744,1,4,3:0:0:0:
457,338,248910,1,2,0:0:0:0:
457,338,248994,1,2,0:0:0:0:
456,337,249077,6,0,P|448:268|437:192,1,135.000005149842,4|0,0:0|0:0,0:0:0:0:
421,84,249577,1,0,0:0:0:0:
313,97,249744,2,0,P|320:164|330:230,1,135.000005149842,2|0,0:0|0:0,0:0:0:0:
342,320,250244,1,0,0:0:0:0:
100,250,250410,6,0,P|160:263|243:289,1,135.000005149842,2|0,0:0|0:0,0:0:0:0:
155,57,250910,1,0,0:0:0:0:
313,97,251077,2,0,P|248:116|182:131,1,135.000005149842
45,100,251577,1,0,0:0:0:0:
45,100,251660,1,0,0:0:0:0:
45,100,251744,5,8,0:0:0:0:
130,205,251910,1,0,0:0:0:0:
190,24,252077,1,8,0:0:0:0:
270,128,252244,1,0,0:0:0:0:
119,105,252410,5,8,0:0:0:0:
214,258,252577,1,0,0:0:0:0:
260,23,252744,1,8,0:0:0:0:
332,156,252910,1,0,0:0:0:0:
397,256,253077,5,8,0:0:0:0:
399,239,253160,1,8,0:0:0:0:
401,222,253243,1,8,0:0:0:0:
403,205,253327,1,8,0:0:0:0:
405,189,253410,1,8,0:0:0:0:
407,172,253493,1,0,3:0:0:0:
409,155,253577,1,0,3:0:0:0:
412,138,253660,1,0,3:0:0:0:
415,124,253744,5,8,0:0:0:0:
391,134,253827,1,8,0:0:0:0:
366,138,253910,1,8,0:0:0:0:
341,136,253994,1,8,0:0:0:0:
317,128,254077,1,8,0:0:0:0:
296,115,254160,1,8,0:0:0:0:
278,97,254244,1,8,0:0:0:0:
265,76,254327,1,8,0:0:0:0:
255,49,254410,6,0,L|230:211,1,135.000005149842,4|0,0:0|0:0,0:0:0:0:
209,346,254910,1,4,3:0:0:0:
393,306,255077,6,0,P|343:283|245:292,1,135.000005149842,8|0,0:0|0:0,0:0:0:0:
116,355,255577,1,4,3:0:0:0:
48,293,255744,2,0,L|61:216,2,67.5000025749208
164,224,256244,1,4,3:0:0:0:
169,190,256327,1,0,0:0:0:0:
176,157,256410,6,0,P|243:143|311:160,1,135.000005149842,8|0,0:0|0:0,0:0:0:0:
391,11,256910,1,0,0:0:0:0:
459,79,257077,6,0,P|392:93|324:76,1,135.000005149842,2|0,0:0|0:0,0:0:0:0:
260,13,257577,1,4,3:0:0:0:
217,112,257744,2,0,P|148:100|57:83,1,135.000005149842,8|0,0:0|0:0,0:0:0:0:
51,225,258244,1,4,3:0:0:0:
142,182,258410,6,0,P|194:191|237:198,1,67.5000025749208,0|8,0:0|0:0,0:0:0:0:
390,223,258744,1,0,0:0:0:0:
291,281,258910,1,0,0:0:0:0:
314,138,259077,6,0,P|321:95|325:67,1,67.5000025749208,8|0,0:0|0:0,0:0:0:0:
437,51,259410,2,0,P|432:84|426:117,1,67.5000025749208,2|0,0:0|0:0,0:0:0:0:
221,179,259744,6,0,P|233:106|241:49,1,112.5
243,34,260244,1,8,3:0:0:0:
76,129,260577,1,0,0:0:0:0:
76,129,260660,1,0,0:0:0:0:
76,129,260744,5,4,3:0:0:0:
140,209,260910,1,0,0:0:0:0:
164,79,261077,1,8,0:0:0:0:
256,189,261244,5,0,0:0:0:0:
275,30,261410,1,8,0:0:0:0:
441,114,261577,5,0,0:0:0:0:
441,114,261660,1,0,0:0:0:0:
441,114,261744,2,0,P|388:125|339:137,2,90
187,49,263077,6,0,P|240:38|289:26,1,90
213,154,263522,1,0,0:0:0:0:
213,154,263633,1,0,0:0:0:0:
213,154,263744,6,0,L|222:205,2,41.9999987182618,4|0|4,3:0|3:0|3:0,3:0:0:0:
129,211,264077,6,8,L|138:262,2,41.9999987182618
44,271,264410,6,8,L|53:322,2,41.9999987182618,8|8|8,3:0|3:0|3:0,3:0:0:0:
21,243,264744,1,8,0:0:0:0:
61,253,264855,1,8,3:0:0:0:
101,241,264966,1,8,3:0:0:0:
129,211,265077,6,0,L|116:120,1,62.9999980773926,12|0,0:0|0:0,0:0:0:0:
205,49,265410,2,0,L|215:129,1,72,8|0,0:0|0:0,0:0:0:0:
268,335,265744,6,0,L|276:263,1,72,8|0,0:0|0:0,0:0:0:0:
394,165,266077,2,0,L|384:247,1,80.9999975280763,8|0,0:0|0:0,0:0:0:0:
133,107,266410,6,0,P|176:114|213:120,1,80.9999975280763,8|0,0:0|0:0,0:0:0:0:
304,232,266744,2,0,P|343:238|384:244,1,80.9999975280763,8|0,0:0|0:0,0:0:0:0:
378,107,267077,6,0,P|336:114|299:120,1,80.9999975280763,8|0,0:0|0:0,0:0:0:0:
208,232,267411,2,0,P|168:238|127:244,1,80.9999975280763,8|0,0:0|0:0,0:0:0:0:
254,176,267744,5,0,0:0:0:0:
256,192,267827,12,0,270410,0:0:0:0:
344,126,271744,5,2,0:0:0:0:
330,237,271910,1,8,0:0:0:0:
330,237,271994,1,8,0:0:0:0:
330,237,272077,2,0,L|319:295,2,40.4999987640381,8|0|2,0:0|0:0|0:0,0:0:0:0:
251,171,272410,5,8,0:0:0:0:
212,159,272493,1,8,0:0:0:0:
172,165,272576,1,8,0:0:0:0:
139,189,272659,1,8,0:0:0:0:
121,226,272744,1,8,0:0:0:0:
123,266,272827,1,8,0:0:0:0:
152,293,272910,1,8,0:0:0:0:
190,306,272993,1,8,0:0:0:0:
234,298,273077,6,0,P|135:315|48:331,1,180,4|8,0:0|0:0,0:0:0:0:
140,209,273577,1,0,0:0:0:0:
45,118,273744,2,0,P|36:75|27:24,1,90,2|0,0:0|0:0,0:0:0:0:
231,222,274077,2,0,P|186:230|142:239,1,90,8|0,0:0|0:0,0:0:0:0:
184,69,274410,6,0,P|265:55|338:42,1,135,2|0,0:0|0:0,0:0:0:0:
348,41,274744,1,8,0:0:0:0:
310,215,274910,1,0,0:0:0:0:
310,215,274994,1,0,0:0:0:0:
310,215,275077,1,2,0:0:0:0:
219,149,275244,1,0,0:0:0:0:
160,316,275410,1,8,0:0:0:0:
71,251,275577,1,0,0:0:0:0:
375,339,275744,6,0,P|303:359|216:385,1,135,2|0,0:0|0:0,0:0:0:0:
213,283,276077,1,8,0:0:0:0:
359,241,276244,1,0,0:0:0:0:
258,161,276410,1,2,0:0:0:0:
137,310,276577,5,0,0:0:0:0:
78,91,276744,1,8,0:0:0:0:
160,179,276910,1,0,0:0:0:0:
6,275,277077,6,0,P|108:302|165:318,1,135,2|0,0:0|0:0,0:0:0:0:
171,322,277410,1,8,0:0:0:0:
73,189,277577,1,2,0:0:0:0:
215,225,277744,5,8,0:0:0:0:
259,233,277827,1,0,0:0:0:0:
303,243,277910,1,0,0:0:0:0:
347,252,277993,1,0,0:0:0:0:
383,248,278077,1,8,0:0:0:0:
406,210,278160,1,8,0:0:0:0:
416,166,278243,1,8,0:0:0:0:
411,121,278326,1,8,0:0:0:0:
393,80,278410,6,0,P|332:69|294:61,1,90
119,195,278744,1,8,0:0:0:0:
150,84,278910,1,0,0:0:0:0:
262,192,279077,2,0,P|251:255|244:298,1,90
377,374,279410,1,8,0:0:0:0:
403,234,279577,1,0,0:0:0:0:
148,359,279744,6,0,P|155:314|173:220,1,135,2|0,0:0|0:0,0:0:0:0:
182,194,280077,1,8,0:0:0:0:
241,331,280244,1,0,0:0:0:0:
276,323,280327,1,8,0:0:0:0:
311,315,280410,1,8,0:0:0:0:
394,188,280577,5,10,0:0:0:0:
350,198,280660,1,10,0:0:0:0:
306,208,280743,1,8,0:0:0:0:
262,216,280827,1,8,0:0:0:0:
239,178,280910,1,8,0:0:0:0:
232,133,280993,1,8,0:0:0:0:
241,90,281077,6,0,P|309:104|339:110,1,90,4|0,0:0|0:0,0:0:0:0:
286,20,281410,1,8,0:0:0:0:
189,177,281577,1,0,0:0:0:0:
189,177,281660,1,8,0:0:0:0:
189,177,281744,2,0,P|121:163|91:157,1,90,8|0,0:0|0:0,0:0:0:0:
141,348,282077,5,8,0:0:0:0:
212,265,282244,1,0,0:0:0:0:
34,227,282410,1,8,0:0:0:0:
109,132,282577,1,0,0:0:0:0:
127,222,282744,1,8,0:0:0:0:
127,222,282827,2,0,L|132:273,1,45,8|0,0:0|0:0,0:0:0:0:
379,201,283077,5,8,0:0:0:0:
380,223,283160,1,8,0:0:0:0:
382,245,283243,1,8,0:0:0:0:
384,268,283326,1,8,0:0:0:0:
385,288,283410,1,8,0:0:0:0:
341,278,283493,1,8,0:0:0:0:
298,289,283576,1,8,0:0:0:0:
264,318,283659,1,8,0:0:0:0:
256,363,283744,6,0,P|249:292|239:203,1,135,4|0,0:0|0:0,0:0:0:0:
229,150,284077,1,8,0:0:0:0:
68,290,284244,1,0,0:0:0:0:
68,290,284327,1,0,0:0:0:0:
68,290,284410,2,0,P|60:223|56:190,1,90,2|0,0:0|0:0,0:0:0:0:
41,108,284744,1,8,0:0:0:0:
154,238,284910,1,0,0:0:0:0:
298,60,285077,6,0,P|198:81|107:99,1,180,0|8,0:0|0:0,0:0:0:0:
296,236,285577,1,0,0:0:0:0:
340,227,285660,1,0,0:0:0:0:
384,217,285744,1,2,0:0:0:0:
296,145,285910,1,0,0:0:0:0:
176,268,286077,2,0,P|189:320|203:384,1,90,8|0,0:0|0:0,0:0:0:0:
406,291,286410,6,0,P|345:306|264:331,1,135
404,167,286744,1,8,0:0:0:0:
256,112,286910,1,0,0:0:0:0:
295,204,287077,1,2,0:0:0:0:
396,62,287244,1,0,0:0:0:0:
266,0,287410,1,8,0:0:0:0:
365,259,287577,1,0,0:0:0:0:
201,174,287744,6,0,P|125:157|62:140,1,135,2|0,0:0|0:0,0:0:0:0:
99,57,288077,1,8,0:0:0:0:
236,90,288244,1,0,0:0:0:0:
180,260,288410,5,0,0:0:0:0:
147,250,288493,1,0,0:0:0:0:
114,242,288576,1,0,0:0:0:0:
82,233,288659,1,0,0:0:0:0:
49,225,288744,1,8,0:0:0:0:
55,258,288827,1,8,0:0:0:0:
61,291,288910,1,8,0:0:0:0:
67,325,288993,1,8,0:0:0:0:
73,358,289077,1,8,0:0:0:0:
256,301,289244,5,0,0:0:0:0:
131,253,289410,1,10,0:0:0:0:
229,379,289577,1,0,0:0:0:0:
316,155,289744,5,8,0:0:0:0:
210,212,289910,1,0,0:0:0:0:
301,321,290077,1,10,0:0:0:0:
384,102,290244,5,0,0:0:0:0:
180,3,290410,1,8,0:0:0:0:
208,206,290577,1,0,0:0:0:0:
259,98,290744,1,10,0:0:0:0:
100,26,290910,1,0,0:0:0:0:
114,134,291077,1,8,0:0:0:0:
316,239,291244,5,0,0:0:0:0:
251,207,291410,1,10,0:0:0:0:
179,199,291577,1,0,0:0:0:0:
111,224,291744,6,0,P|120:281|126:319,1,90
58,340,292077,5,0,0:0:0:0:
20,253,292291,2,0,L|34:164,1,90
89,111,292697,2,0,L|74:22,1,90
173,101,293148,2,0,L|158:189,1,90
147,261,293648,5,0,0:0:0:0:
213,288,293921,5,0,0:0:0:0:
279,266,294210,5,0,0:0:0:0:
308,200,294507,5,0,0:0:0:0:
370,233,294822,6,0,L|467:215,1,90
246,309,295500,6,0,B|244:259|199:200|116:173|54:82|162:97|189:135|189:135|186:90|248:9|257:121|233:216,1,497.250009484291,2|2,0:0|0:0,0:0:0:0:
