osu file format v14

[General]
AudioFilename: audio.mp3
AudioLeadIn: 0
PreviewTime: 70497
Countdown: 0
SampleSet: Soft
StackLeniency: 0.7
Mode: 0
LetterboxInBreaks: 0
WidescreenStoryboard: 0

[Editor]
Bookmarks: 91831,102497,134497,155831,198497,207831,318118
DistanceSpacing: 0.3
BeatDivisor: 4
GridSize: 4
TimelineZoom: 1.7

[Metadata]
Title:My Spring
TitleUnicode:My Spring
Artist:Shihori
ArtistUnicode:しほり
Creator:HeTo
Version:Blossom
Source:ワルキューレロマンツェ More&More
Tags:japanese eroge Ricotta j-pop jpop j pop visual novel video game Walkure Romanze : Walroma
BeatmapID:2486208
BeatmapSetID:1193189

[Difficulty]
HPDrainRate:6
CircleSize:4
OverallDifficulty:8.7
ApproachRate:9.3
SliderMultiplier:1.82
SliderTickRate:1

[Events]
//Background and Video events
0,0,"spring.jpg",0,0
//Break Periods
2,198697,207110
//Storyboard Layer 0 (Background)
//Storyboard Layer 1 (Fail)
//Storyboard Layer 2 (Pass)
//Storyboard Layer 3 (Foreground)
//Storyboard Layer 4 (Overlay)
//Storyboard Sound Samples

[TimingPoints]
1055,759.493670886076,4,2,5,45,1,0
1055,-133.333333333334,4,2,5,45,0,0
2593,800,4,2,5,45,1,0
2593,-133.333333333334,4,2,5,45,0,0
4148,769.230769230769,4,2,5,45,1,0
4148,-133.333333333334,4,2,5,35,0,0
5701,769.230769230769,4,2,5,35,1,0
5701,-133.333333333334,4,2,5,35,0,0
6468,759.493670886076,4,2,5,35,1,0
6468,-133.333333333334,4,2,5,35,0,0
7037,800,4,2,5,35,1,0
7237,789.473684210526,4,2,5,35,1,0
7237,-133.333333333334,4,2,5,35,0,0
8792,769.230769230769,4,2,5,35,1,0
8792,-133.333333333334,4,2,5,35,0,0
10335,789.473684210526,4,2,5,35,1,0
10335,-133.333333333334,4,2,5,35,0,0
11894,769.230769230769,4,2,5,35,1,0
11894,-133.333333333334,4,2,5,35,0,0
13432,769.230769230769,4,2,5,35,1,0
13432,-133.333333333334,4,2,5,35,0,0
14985,769.230769230769,4,2,5,35,1,0
14985,-133.333333333334,4,2,5,35,0,0
17316,769.230769230769,4,2,5,35,1,0
17316,-133.333333333334,4,2,5,35,0,0
18085,789.473684210526,4,2,5,35,1,0
18085,-133.333333333334,4,2,5,35,0,0
19269,750,4,2,5,35,1,0
19645,774.193548387097,4,2,5,35,1,0
19645,-133.333333333334,4,2,5,35,0,0
21198,774.193548387097,4,2,5,35,1,0
21198,-133.333333333334,4,2,5,35,0,0
22747,779.220779220779,4,2,5,35,1,0
22747,-153.846153846153,4,2,5,35,0,0
23526,-153.846153846153,4,2,5,15,0,0
23915,-153.846153846153,4,2,5,35,0,0
26498,333.333333333333,4,2,5,65,1,0
26998,-100,4,2,5,15,0,0
27164,-105.263157894737,4,2,5,65,0,0
27831,-105.263157894737,4,2,5,65,0,0
36164,-105.263157894737,4,2,5,40,0,0
36497,-105.263157894737,4,2,5,47,0,0
36831,-105.263157894737,4,2,5,55,0,0
37164,-105.263157894737,4,2,5,60,0,0
37497,-105.263157894737,4,2,5,65,0,0
38497,-142.857142857143,4,2,5,45,0,0
47497,-285.714285714286,4,2,5,55,0,0
47747,-285.714285714286,4,2,5,5,0,0
47831,-117.647058823529,4,2,5,55,0,0
49164,-105.263157894737,4,2,5,60,0,0
59831,-125,4,2,5,50,0,0
65164,-105.263157894737,4,2,5,60,0,0
65497,-105.263157894737,4,2,5,40,0,0
65831,-105.263157894737,4,2,5,50,0,0
66164,-105.263157894737,4,2,5,55,0,0
66497,-105.263157894737,4,2,5,60,0,0
67164,-105.263157894737,4,2,5,65,0,0
67831,-285.714285714287,4,2,5,65,0,0
69164,-400.000000000003,4,2,5,65,0,0
69747,-400.000000000003,4,2,5,5,0,0
69831,-105.263157894737,4,2,5,65,0,0
70497,-95.2380952380952,4,2,5,70,0,1
86831,-95.2380952380952,4,2,5,45,0,1
87164,-95.2380952380952,4,2,5,50,0,1
87497,-95.2380952380952,4,2,5,55,0,1
87831,-95.2380952380952,4,2,5,60,0,1
88497,-95.2380952380952,4,2,5,65,0,1
89164,-250,4,2,5,70,0,0
90497,-250,4,2,5,15,0,0
91164,-105.263157894737,4,2,5,70,0,0
91831,-105.263157894737,4,2,5,65,0,0
100164,-105.263157894737,4,2,5,45,0,0
100497,-105.263157894737,4,2,5,50,0,0
100831,-105.263157894737,4,2,5,60,0,0
101164,-105.263157894737,4,2,5,65,0,0
102497,-105.263157894737,4,2,5,60,0,0
123831,-125,4,2,5,50,0,0
127831,-125,4,2,5,60,0,0
129164,-105.263157894737,4,2,5,65,0,0
129497,-105.263157894737,4,2,5,40,0,0
129831,-105.263157894737,4,2,5,50,0,0
130164,-105.263157894737,4,2,5,55,0,0
130497,-105.263157894737,4,2,5,60,0,0
131164,-105.263157894737,4,2,5,65,0,0
131831,-285.714285714287,4,2,5,65,0,0
133164,-285.714285714287,4,2,5,15,0,0
134164,-285.714285714287,4,2,5,65,0,0
134414,-285.714285714287,4,2,5,5,0,0
134497,-95.2380952380952,4,2,5,70,0,1
150831,-95.2380952380952,4,2,5,45,0,1
151164,-95.2380952380952,4,2,5,50,0,1
151497,-95.2380952380952,4,2,5,55,0,1
151831,-95.2380952380952,4,2,5,60,0,1
152497,-95.2380952380952,4,2,5,65,0,1
153164,-250,4,2,5,70,0,0
154497,-166.666666666667,4,2,5,70,0,0
155831,-133.333333333333,4,2,5,50,0,0
166497,-117.647058823529,4,2,5,65,0,0
171831,-105.263157894737,4,2,5,65,0,0
172164,-105.263157894737,4,2,5,45,0,0
172497,-105.263157894737,4,2,5,50,0,0
172831,-105.263157894737,4,2,5,55,0,0
173164,-105.263157894737,4,2,5,60,0,0
173831,-105.263157894737,4,2,5,65,0,0
177164,-105.263157894737,4,2,5,65,0,0
187164,-74.0740740740741,4,2,5,65,0,0
187247,-74.0740740740741,4,2,5,5,0,0
187331,-100,4,2,5,65,0,0
187414,-100,4,2,5,5,0,0
187497,-83.3333333333333,4,2,5,65,0,0
187581,-83.3333333333333,4,2,5,5,0,0
187664,-100,4,2,5,65,0,0
193164,-100,4,2,5,70,0,1
194497,-90.9090909090909,4,2,5,70,0,1
195164,-83.3333333333333,4,2,5,70,0,1
195831,-100,4,2,5,70,0,1
197164,-285.714285714287,4,2,5,65,0,0
198497,-222.222222222221,4,2,5,40,0,0
207831,-153.846153846153,4,2,5,50,0,0
209164,-125,4,2,5,55,0,0
214497,-111.111111111111,4,2,5,60,0,0
214831,-111.111111111111,4,2,5,40,0,0
215164,-111.111111111111,4,2,5,45,0,0
215497,-111.111111111111,4,2,5,45,0,0
216164,-111.111111111111,4,2,5,50,0,0
216497,-111.111111111111,4,2,5,60,0,0
217164,-400,4,2,5,65,0,0
220997,-105.263157894737,4,2,5,65,0,0
222497,-95.2380952380951,4,2,5,70,0,1
243831,-105.263157894737,4,2,5,65,0,0
249164,-105.263157894737,4,2,5,50,0,0
251164,-285.714285714287,4,2,5,50,0,0
251831,-105.263157894737,4,2,5,60,0,0
253164,-105.263157894737,4,2,5,50,0,0
254164,-105.263157894737,4,2,5,70,0,0
254497,-117.647058823529,4,2,5,70,0,1
259831,-133.333333333333,4,2,5,70,0,1
265497,-133.333333333333,4,2,5,45,0,1
265831,-133.333333333333,4,2,5,45,0,1
266164,-133.333333333333,4,2,5,45,0,1
266497,-111.111111111111,4,2,5,45,0,1
267831,-400,4,2,5,65,0,0
270497,-400,4,2,5,15,0,0
271831,-105.263157894737,4,2,5,60,0,0
273164,-105.263157894737,4,2,5,65,0,0
292164,419.58041958042,4,2,5,60,1,0
292572,422.535211267606,4,2,5,60,1,0
293003,454.545454545455,4,2,5,60,1,0
293466,530.973451327434,4,2,5,60,1,0
293994,588.235294117647,4,2,5,60,1,0
294586,625,4,2,5,60,1,0
295211,714.285714285714,4,2,5,60,1,0
295925,-100,4,2,5,15,0,0
297652,722.891566265059,4,2,5,35,1,0
297652,-133.333333333333,4,2,5,35,0,0
299363,857.142857142856,4,2,5,35,1,0
299363,-133.333333333333,4,2,5,35,0,0
300220,-133.333333333333,4,2,5,15,0,0
301077,857.142857142856,4,2,5,35,1,0
301077,-133.333333333333,4,2,5,35,0,0
301934,1034.48275862069,4,2,5,35,1,0
301934,-133.333333333333,4,2,5,35,0,0
302850,833.333333333332,4,2,5,35,1,0
302850,-133.333333333333,4,2,5,35,0,0
303683,-133.333333333333,4,2,5,15,0,0
304100,882.352941176469,4,2,5,35,1,0
304100,-133.333333333333,4,2,5,35,0,0
304541,1200,4,2,5,35,1,0
304541,-133.333333333333,4,2,5,35,0,0
305741,1000,4,2,5,35,1,0
306244,845.070422535211,4,2,5,35,1,0
306244,-133.333333333333,4,2,5,35,0,0
307095,857.142857142857,4,2,5,35,1,0
307520,1071.42857142857,4,2,5,35,1,0
307520,-133.333333333333,4,2,5,35,0,0
308059,1153.84615384615,4,2,5,35,1,0
308059,-133.333333333333,4,2,5,35,0,0
308923,1276.59574468085,4,2,5,35,1,0
308923,-133.333333333333,4,2,5,35,0,0
310198,923.076923076923,4,2,5,35,1,0
311576,769.230769230769,4,2,5,35,1,0
311576,-222.222222222221,4,2,5,35,0,0
313114,-222.222222222221,4,2,5,10,0,0
314184,983.606557377049,4,2,5,35,1,0
314184,-285.714285714284,4,2,5,35,0,0
318118,-222.222222222221,4,2,5,10,0,0

[Colours]
Combo1 : 108,247,194
Combo2 : 153,204,255
Combo3 : 251,233,176
Combo4 : 179,179,179

[HitObjects]
429,182,1055,6,0,B|346:177|396:229|298:225,1,136.500005207062,2|0,0:0|0:0,0:0:0:0:
79,51,2593,2,0,P|86:92|95:132,1,68.250002603531,2|0,0:0|0:0,0:0:0:0:
156,171,3193,2,0,P|147:212|137:259,1,68.250002603531,2|0,0:0|0:0,0:0:0:0:
145,363,4148,6,0,P|111:354|63:342,1,68.250002603531,2|0,0:0|0:0,0:0:0:0:
258,282,4917,2,0,P|215:293|173:304,1,68.250002603531,2|0,0:0|0:0,0:0:0:0:
284,367,5701,1,2,0:0:0:0:
458,211,6468,2,0,P|446:154|439:127,1,68.250002603531,2|0,0:0|0:0,0:0:0:0:
395,69,7037,1,0,0:0:0:0:
304,129,7237,6,0,P|266:124|224:117,1,68.250002603531,2|0,0:0|0:0,0:0:0:0:
170,47,7829,2,0,P|200:43|241:39,1,68.250002603531,2|0,0:0|0:0,0:0:0:0:
443,145,8792,2,0,P|429:196|420:237,1,68.250002603531,2|0,0:0|0:0,0:0:0:0:
433,307,9368,2,0,P|397:305|345:235,1,102.375003905296,2|0,0:0|0:0,0:0:0:0:
290,162,10335,6,0,P|253:175|195:192,1,68.250002603531,2|0,0:0|0:0,0:0:0:0:
147,258,11124,2,0,P|110:245|60:232,1,68.250002603531,2|0,0:0|0:0,0:0:0:0:
0,145,11894,2,0,P|7:87|81:60,1,136.500005207062,2|2,0:0|0:0,0:0:0:0:
194,256,13432,6,0,P|248:241|332:216,1,136.500005207062,2|2,0:0|0:0,0:0:0:0:
457,372,14985,2,0,P|467:319|471:287,1,68.250002603531,2|2,0:0|0:0,0:0:0:0:
428,176,15754,1,2,0:0:0:0:
491,115,16138,1,2,0:0:0:0:
423,25,16523,6,0,P|383:36|349:45,1,68.250002603531,2|2,0:0|0:0,0:0:0:0:
278,102,17316,1,2,0:0:0:0:
199,33,17700,1,2,0:0:0:0:
75,105,18085,2,0,P|80:137|100:249,1,136.500005207062,2|2,0:0|0:0,0:0:0:0:
176,314,19269,1,2,0:0:0:0:
302,234,19645,6,0,P|285:185|203:176,1,136.500005207062,2|2,0:0|0:0,0:0:0:0:
270,341,20806,1,0,0:0:0:0:
270,341,20999,1,0,0:0:0:0:
270,341,21198,2,0,P|327:328|406:309,1,136.500005207062,2|2,0:0|0:0,0:0:0:0:
483,251,22359,2,0,L|490:192,1,34.1250013017655,2|0,0:0|0:0,0:0:0:0:
436,72,22747,6,0,B|364:66|402:113|317:114,1,118.299994584656,2|0,0:0|0:0,0:0:0:0:
256,192,23915,12,0,26998,0:0:0:0:
378,215,27164,5,10,0:0:0:0:
275,63,27331,1,8,0:0:0:0:
275,63,27414,1,8,0:0:0:0:
275,63,27498,2,0,L|224:81,1,43.224998845768,8|8,0:0|0:0,0:0:0:0:
159,208,27664,2,0,L|210:226,1,43.224998845768,8|8,0:0|0:0,0:0:0:0:
93,97,27831,6,0,P|27:117|4:216,1,172.899995383072,6|8,1:2|0:0,0:0:0:0:
71,371,28331,2,0,P|131:355|257:319,1,172.899995383072,2|0,0:0|1:2,0:0:0:0:
294,135,28831,2,0,P|244:114|198:96,1,86.449997691536,10|0,0:0|0:0,0:0:0:0:
314,269,29164,6,0,B|425:271|341:330|502:333,1,172.899995383072,2|8,1:2|0:0,0:0:0:0:
430,114,29664,2,0,P|416:162|403:210,1,86.449997691536,2|0,0:0|1:2,0:0:0:0:
512,80,29997,1,0,1:2:0:0:
315,3,30164,2,0,P|329:51|340:100,1,86.449997691536,10|0,0:0|0:0,0:0:0:0:
193,239,30497,6,0,P|139:224|32:193,1,129.674996537304,2|0,1:2|0:0,0:0:0:0:
42,193,30831,1,10,0:0:0:0:
161,335,30997,2,0,P|212:321|267:305,1,86.449997691536,2|0,0:0|1:2,0:0:0:0:
284,90,31331,2,0,P|270:141|256:196,1,86.449997691536,2|8,1:2|0:0,0:0:0:0:
353,352,31664,6,0,P|400:355|452:232,1,172.899995383072,2|0,0:0|1:2,0:0:0:0:
359,131,32164,1,10,0:0:0:0:
377,273,32331,1,0,1:2:0:0:
509,48,32497,6,0,B|467:30|467:30|413:48,1,86.449997691536,14|0,0:0|0:0,0:0:0:0:
374,139,32747,1,8,0:0:0:0:
374,139,32831,2,0,L|386:202,1,43.224998845768,8|8,0:0|0:0,0:0:0:0:
266,71,32997,2,0,L|274:28,1,43.224998845768,8|8,0:0|0:0,0:0:0:0:
186,180,33164,6,0,B|71:179|145:123|21:124,2,172.899995383072,6|8|2,1:2|0:0|1:2,0:0:0:0:
36,218,33997,1,0,1:2:0:0:
185,65,34164,2,0,P|228:86|278:109,1,86.449997691536,10|0,0:0|0:0,0:0:0:0:
370,317,34497,5,2,1:2:0:0:
404,97,34664,1,0,1:2:0:0:
285,347,34831,2,0,P|273:303|256:234,1,86.449997691536,10|0,0:0|0:0,0:0:0:0:
302,12,35164,1,2,1:2:0:0:
379,229,35331,1,0,1:2:0:0:
176,14,35497,5,10,0:0:0:0:
133,7,35580,1,2,0:0:0:0:
96,26,35663,1,2,0:0:0:0:
76,64,35747,1,2,0:0:0:0:
83,106,35831,6,0,P|101:185|122:287,1,172.899995383072,2|8,1:2|1:2,0:0:0:0:
285,347,36331,1,0,1:2:0:0:
267,139,36497,2,0,P|217:159|169:182,1,86.449997691536,8|8,1:2|0:0,0:0:0:0:
334,239,36831,1,8,1:2:0:0:
370,105,36997,1,8,0:0:0:0:
211,250,37164,5,8,1:2:0:0:
416,326,37331,1,8,0:0:0:0:
378,89,37497,1,8,1:2:0:0:
212,335,37664,1,8,0:0:0:0:
478,218,37831,5,8,1:2:0:0:
192,73,37997,1,8,0:0:0:0:
310,380,38164,1,8,1:2:0:0:
479,82,38331,1,8,0:0:0:0:
304,263,38497,6,0,P|254:247|169:223,1,127.399996112061,6|2,1:2|0:1,0:0:0:0:
60,251,38997,1,2,0:0:0:0:
0,165,39164,2,0,P|10:111|16:79,1,63.6999980560303,2|2,0:1|0:0,0:0:0:0:
60,251,39497,2,0,P|65:282|71:313,1,63.6999980560303,2|0,0:1|0:0,0:0:0:0:
181,226,39831,6,0,P|154:170|94:162,1,127.399996112061,2|2,0:1|0:1,0:0:0:0:
176,333,40331,2,0,P|223:317|313:290,1,127.399996112061,2|0,0:0|0:0,0:0:0:0:
420,368,40831,2,0,P|360:346|332:336,1,63.6999980560303,2|2,0:1|0:0,0:0:0:0:
512,286,41164,6,0,P|485:228|446:148,1,127.399996112061,2|2,0:1|0:1,0:0:0:0:
443,32,41664,2,0,P|406:84|394:98,1,63.6999980560303,2|2,0:0|0:1,0:0:0:0:
274,152,41997,2,0,P|337:157|355:161,1,63.6999980560303,2|2,0:0|0:1,0:0:0:0:
406,84,42331,1,2,0:0:0:0:
289,9,42497,6,0,P|257:13|160:27,1,127.399996112061,2|2,0:1|0:1,0:0:0:0:
64,97,42997,1,0,0:0:0:0:
144,183,43164,2,0,P|160:127|165:106,1,63.6999980560303,2|0,0:1|0:0,0:0:0:0:
50,247,43497,2,0,P|34:191|29:170,1,63.6999980560303,2|0,0:1|0:0,0:0:0:0:
201,309,43831,6,0,P|217:253|239:168,2,127.399996112061,2|2|2,0:1|0:1|0:1,0:0:0:0:
201,309,44831,2,0,P|152:293|117:283,1,63.6999980560303,2|2,0:1|0:0,0:0:0:0:
32,185,45164,6,0,P|62:175|162:143,1,127.399996112061,2|2,0:1|0:1,0:0:0:0:
153,146,45831,2,0,P|104:130|69:120,1,63.6999980560303,2|0,0:1|0:0,0:0:0:0:
264,23,46164,2,0,P|215:39|180:49,1,63.6999980560303,2|0,0:1|0:0,0:0:0:0:
282,178,46497,6,0,B|366:172|308:134|419:129,1,127.399996112061,2|2,0:1|0:1,0:0:0:0:
512,237,46997,1,0,0:0:0:0:
499,105,47164,2,0,P|486:147|479:171,2,42.4666653706869,2|0|2,0:1|0:0|0:1,0:0:0:0:
410,254,47497,6,0,P|401:231|393:209,1,47.7749985420228,2|0,0:1|0:0,0:0:0:0:
412,271,47831,6,0,P|401:313|392:357,1,77.3500014753342,6|0,1:2|0:0,0:0:0:0:
249,222,48164,2,0,P|240:184|231:146,1,77.3500014753342,8|8,0:0|0:0,0:0:0:0:
151,273,48497,5,8,0:0:0:0:
317,176,48664,1,8,0:0:0:0:
98,190,48831,1,8,0:0:0:0:
300,326,48997,1,8,0:0:0:0:
127,111,49164,6,0,P|68:111|23:224,1,172.899995383072,6|8,1:2|0:0,0:0:0:0:
116,347,49664,1,0,1:2:0:0:
116,347,49747,1,0,1:2:0:0:
116,347,49831,2,0,P|162:333|211:319,1,86.449997691536,2|0,1:2|1:2,0:0:0:0:
341,223,50164,2,0,P|299:210|258:198,1,86.449997691536,10|0,0:0|1:2,0:0:0:0:
217,104,50414,1,0,1:2:0:0:
212,96,50497,6,0,B|330:97|259:37|382:44,1,172.899995383072,2|8,1:2|0:0,0:0:0:0:
479,203,50997,1,0,1:2:0:0:
479,203,51081,1,0,1:2:0:0:
479,203,51164,2,0,P|491:141|497:105,1,86.449997691536,2|0,1:2|1:2,0:0:0:0:
339,238,51497,1,10,0:0:0:0:
381,118,51664,1,2,0:0:0:0:
373,319,51831,6,0,P|290:309|256:234,1,172.899995383072,2|8,1:2|0:0,0:0:0:0:
381,118,52331,2,0,P|371:146|364:173,1,43.224998845768,2|0,1:2|1:2,0:0:0:0:
339,238,52497,1,0,1:2:0:0:
207,46,52664,2,0,P|217:88|227:129,1,86.449997691536,2|8,1:2|0:0,0:0:0:0:
339,238,52997,1,2,0:0:0:0:
341,0,53164,6,0,P|330:42|297:183,1,172.899995383072,0|8,1:2|0:0,0:0:0:0:
176,302,53664,1,0,1:2:0:0:
176,302,53747,1,0,1:2:0:0:
176,302,53831,1,0,1:2:0:0:
226,125,53997,1,0,1:2:0:0:
292,340,54164,2,0,P|332:327|390:309,1,86.449997691536,10|0,0:0|0:0,0:0:0:0:
149,192,54497,6,0,B|110:144|25:160|25:160|55:173|53:201,1,172.899995383072,2|8,1:2|0:0,0:0:0:0:
159,384,54997,1,0,1:0:0:0:
159,384,55081,1,0,1:0:0:0:
159,384,55164,2,0,P|170:326|180:277,1,86.449997691536,0|0,1:2|1:2,0:0:0:0:
253,168,55497,1,10,0:0:0:0:
75,282,55664,1,2,0:0:0:0:
274,366,55831,6,0,P|334:351|447:323,1,172.899995383072,0|10,1:2|0:0,0:0:0:0:
429,148,56331,2,0,P|407:198|404:212,1,43.224998845768,2|0,1:2|1:2,0:0:0:0:
486,250,56497,1,0,1:2:0:0:
451,62,56664,1,0,1:2:0:0:
333,216,56831,2,0,P|283:199|225:182,1,86.449997691536,10|0,0:0|0:0,0:0:0:0:
57,88,57164,6,0,P|69:31|174:8,1,172.899995383072,2|8,1:2|0:0,0:0:0:0:
251,190,57664,1,0,1:2:0:0:
251,190,57747,1,0,1:2:0:0:
251,190,57831,2,0,P|236:256|228:293,1,86.449997691536,0|2,1:2|1:2,0:0:0:0:
136,81,58164,2,0,P|151:147|159:184,1,86.449997691536,10|0,0:0|0:0,0:0:0:0:
161,372,58497,6,0,B|43:382|103:319|-21:328,1,172.899995383072,2|12,1:2|0:0,0:0:0:0:
155,166,58997,1,0,1:2:0:0:
155,166,59081,1,0,1:2:0:0:
155,166,59164,1,0,1:2:0:0:
131,292,59331,1,0,1:2:0:0:
0,98,59497,2,0,P|19:36|32:-4,1,86.449997691536,14|0,0:0|0:0,0:0:0:0:
155,166,59831,6,0,P|215:148|301:123,1,145.6,6|2,1:2|1:2,0:0:0:0:
339,31,60331,2,0,P|302:13|266:-4,1,72.8,2|0,0:0|1:2,0:0:0:0:
445,78,60664,2,0,P|431:39|417:2,1,72.8,2|0,0:0|1:2,0:0:0:0:
469,176,60997,1,2,0:0:0:0:
469,176,61081,1,2,0:0:0:0:
469,176,61164,6,0,P|494:91|516:21,1,145.6,2|0,1:2|1:2,0:0:0:0:
372,156,61664,1,2,0:0:0:0:
372,156,61831,2,0,P|383:197|395:246,1,72.8,2|0,1:2|0:0,0:0:0:0:
277,94,62164,2,0,P|266:135|254:184,1,72.8,2|0,1:2|0:0,0:0:0:0:
160,282,62497,6,0,P|101:282|68:201,1,145.6,2|2,1:2|1:2,0:0:0:0:
158,120,62997,2,0,P|170:174|177:208,1,72.8,2|0,0:0|1:2,0:0:0:0:
246,345,63331,2,0,P|252:309|260:273,1,72.8,2|0,0:0|1:2,0:0:0:0:
436,290,63664,1,2,0:0:0:0:
436,290,63747,1,2,0:0:0:0:
436,290,63831,6,0,P|377:270|347:260,1,72.8,2|0,1:2|0:0,0:0:0:0:
250,137,64164,1,14,0:0:0:0:
246,345,64331,1,0,1:2:0:0:
431,202,64497,5,10,0:0:0:0:
436,193,64609,2,0,L|417:124,1,48.5333333333333,8|8,0:0|3:0,0:0:0:0:
363,26,64831,1,8,3:0:0:0:
368,35,64943,2,0,L|349:104,1,48.5333333333333,4|4,3:0|3:0,0:0:0:0:
238,183,65164,6,0,B|198:155|165:147|165:147|133:188|62:179,1,172.899995383072,6|0,1:2|1:2,0:0:0:0:
100,88,65664,1,0,1:2:0:0:
231,276,65831,2,0,P|285:257|321:244,1,86.449997691536,8|8,1:2|0:0,0:0:0:0:
242,360,66164,1,0,1:2:0:0:
148,255,66331,1,8,0:0:0:0:
282,121,66497,5,8,1:2:0:0:
231,276,66664,1,8,0:0:0:0:
185,78,66831,1,8,1:2:0:0:
395,228,66997,1,8,0:0:0:0:
148,255,67164,5,8,1:2:0:0:
367,116,67331,1,8,0:0:0:0:
98,180,67497,1,8,1:2:0:0:
348,327,67664,1,8,0:0:0:0:
235,4,67831,6,0,B|216:134|289:65|267:226,1,222.949993196106,6|0,1:2|0:0,0:0:0:0:
117,201,69164,6,0,P|152:164|182:157,1,79.625,8|0,0:0|0:0,0:0:0:0:
267,218,69831,5,8,0:0:0:0:
267,218,69914,1,8,0:0:0:0:
267,218,69997,2,8,L|258:269,1,43.224998845768
414,148,70164,1,8,0:0:0:0:
415,105,70247,1,8,0:0:0:0:
394,68,70330,1,8,0:0:0:0:
355,49,70413,1,8,0:0:0:0:
313,54,70497,5,6,1:2:0:0:
171,191,70664,1,2,0:0:0:0:
380,248,70831,1,10,0:0:0:0:
218,93,70997,1,2,0:0:0:0:
175,341,71164,5,2,1:2:0:0:
272,161,71331,1,2,0:0:0:0:
38,244,71497,1,10,0:0:0:0:
273,310,71664,1,2,0:0:0:0:
123,65,71831,6,0,P|110:114|98:159,1,95.5499970840455,2|0,1:2|0:0,0:0:0:0:
166,303,72164,1,10,0:0:0:0:
0,144,72331,2,0,P|12:190|24:236,1,95.5499970840455,2|0,0:0|1:0,0:0:0:0:
244,130,72664,2,0,P|255:83|267:37,1,95.5499970840455,2|8,0:0|0:0,0:0:0:0:
280,221,72997,1,2,0:0:0:0:
124,26,73164,6,0,P|110:87|86:192,1,143.324995626068,2|0,1:2|0:0,0:0:0:0:
89,189,73497,2,0,P|136:149|197:147,1,95.5499970840455,10|0,0:0|0:0,0:0:0:0:
280,299,73831,2,0,P|234:286|206:246,1,95.5499970840455,2|0,1:2|0:0,0:0:0:0:
324,65,74164,1,10,0:0:0:0:
279,220,74331,1,0,0:0:0:0:
260,0,74497,6,0,P|249:51|236:109,1,95.5499970840455,2|0,1:2|0:0,0:0:0:0:
368,211,74831,1,10,0:0:0:0:
502,22,74997,2,0,B|378:20|464:91|311:89,1,191.099994168091,2|0,0:0|0:0,0:0:0:0:
280,299,75497,1,10,0:0:0:0:
152,109,75664,1,8,0:0:0:0:
152,109,75747,1,8,0:0:0:0:
152,109,75831,6,0,P|245:119|266:218,1,191.099994168091,6|10,1:2|0:0,0:0:0:0:
134,372,76331,2,0,P|120:308|111:264,1,95.5499970840455,2|0,0:0|1:2,0:0:0:0:
378,154,76664,2,0,P|368:200|357:247,1,95.5499970840455,2|8,0:0|0:0,0:0:0:0:
219,54,76997,1,2,0:0:0:0:
219,54,77081,1,2,0:0:0:0:
219,54,77164,6,0,B|170:15|127:20|127:20|109:68|34:63,1,191.099994168091,2|10,1:2|0:0,0:0:0:0:
191,195,77664,2,0,P|242:183|397:149,1,191.099994168091,2|0,0:0|0:0,0:0:0:0:
239,333,78164,2,0,P|181:322|144:315,1,95.5499970840455,10|0,0:0|0:0,0:0:0:0:
55,140,78497,6,0,P|44:215|27:329,1,191.099994168091,2|10,1:2|0:0,0:0:0:0:
191,195,78997,1,2,0:0:0:0:
191,195,79081,1,2,0:0:0:0:
191,195,79164,2,0,P|178:130|169:84,1,95.5499970840455,2|0,1:2|0:0,0:0:0:0:
335,267,79497,2,0,P|325:313|316:360,1,95.5499970840455,10|0,0:0|0:0,0:0:0:0:
502,134,79831,6,0,B|380:119|456:199|304:184,1,191.099994168091,2|14,1:2|0:0,0:0:0:0:
489,245,80331,1,0,0:0:0:0:
363,56,80497,1,2,1:2:0:0:
232,249,80664,1,8,0:0:0:0:
232,249,80747,1,8,0:0:0:0:
232,249,80831,2,8,L|177:239,1,47.7749985420228
142,39,80997,2,8,L|189:30,1,47.7749985420228
329,185,81164,5,6,1:2:0:0:
109,118,81331,1,2,0:0:0:0:
258,327,81497,1,10,0:0:0:0:
282,104,81664,1,2,0:0:0:0:
84,261,81831,6,0,P|96:312|106:361,1,95.5499970840455,2|2,1:2|0:0,0:0:0:0:
208,142,82164,1,10,0:0:0:0:
0,267,82331,1,2,0:0:0:0:
259,349,82497,6,0,P|332:332|370:323,1,95.5499970840455,2|0,1:2|0:0,0:0:0:0:
302,100,82831,1,10,0:0:0:0:
177,282,82997,2,0,P|104:265|66:256,1,95.5499970840455,2|0,0:0|1:2,0:0:0:0:
183,35,83331,2,0,P|195:98|204:140,1,95.5499970840455,2|8,0:0|0:0,0:0:0:0:
352,327,83664,1,2,0:0:0:0:
352,327,83747,1,2,0:0:0:0:
352,327,83831,6,0,P|413:329|439:227,1,143.324995626068,2|0,1:2|0:0,0:0:0:0:
453,244,84164,1,10,0:0:0:0:
376,39,84331,2,0,P|364:102|355:144,1,95.5499970840455,2|0,0:0|1:2,0:0:0:0:
424,333,84664,1,2,0:0:0:0:
481,113,84831,1,10,0:0:0:0:
240,240,84997,1,2,0:0:0:0:
240,240,85081,1,2,0:0:0:0:
240,240,85164,6,0,P|231:136|219:23,1,191.099994168091,2|8,1:2|0:0,0:0:0:0:
336,195,85664,1,0,0:0:0:0:
146,269,85831,2,0,P|91:251|47:237,1,95.5499970840455,6|0,1:2|0:0,0:0:0:0:
208,373,86164,1,8,0:0:0:0:
254,381,86247,1,8,0:0:0:0:
297,362,86330,1,8,0:0:0:0:
321,321,86413,1,8,0:0:0:0:
318,274,86497,6,0,B|440:276|364:207|526:227,1,191.099994168091,6|0,1:2|1:0,0:0:0:0:
463,308,86997,1,0,1:2:0:0:
341,180,87164,2,0,P|359:110|369:67,1,95.5499970840455,8|8,1:2|0:0,0:0:0:0:
231,157,87497,1,8,1:2:0:0:
320,277,87664,1,8,0:0:0:0:
242,58,87831,5,8,1:2:0:0:
82,261,87997,1,8,0:0:0:0:
341,180,88164,1,8,1:2:0:0:
104,53,88331,1,8,0:0:0:0:
214,342,88497,6,0,P|225:287|236:224,1,95.5499970840455,8|4,1:2|0:3,0:0:0:0:
334,98,88831,1,8,0:3:0:0:
317,271,88997,1,4,0:3:0:0:
212,29,89164,6,0,B|380:18|283:120|488:103,1,291.2,6|0,1:2|0:0,0:0:0:0:
242,324,91164,5,8,0:0:0:0:
355,178,91330,1,8,0:0:0:0:
355,178,91413,1,8,0:0:0:0:
355,178,91497,2,8,L|297:164,1,43.224998845768
141,245,91664,2,8,L|199:231,1,43.224998845768
327,72,91831,6,8,P|282:60|127:25,1,172.899995383072,6|8,1:2|0:0,0:0:0:0:
0,180,92331,2,0,P|11:116|117:96,1,172.899995383072,2|0,0:0|1:2,0:0:0:0:
224,268,92831,2,0,P|172:253|123:239,1,86.449997691536,10|0,0:0|0:0,0:0:0:0:
308,149,93164,6,0,B|420:140|354:207|500:192,1,172.899995383072,2|8,1:2|0:0,0:0:0:0:
347,315,93664,2,0,P|332:262|318:214,1,86.449997691536,2|0,0:0|1:2,0:0:0:0:
273,374,93997,1,0,1:2:0:0:
444,290,94164,2,0,P|431:331|420:373,1,86.449997691536,10|0,0:0|0:0,0:0:0:0:
233,286,94497,6,0,P|220:230|189:131,1,129.674996537304,2|0,1:2|0:0,0:0:0:0:
189,137,94831,1,10,0:0:0:0:
3,144,94997,2,0,P|57:160|88:171,1,86.449997691536,2|0,0:0|1:2,0:0:0:0:
166,0,95331,2,0,P|124:39|100:60,1,86.449997691536,2|8,0:0|0:0,0:0:0:0:
11,276,95664,6,0,P|65:259|197:216,1,172.899995383072,2|0,0:0|1:2,0:0:0:0:
132,362,96164,1,10,0:0:0:0:
85,170,96331,1,0,1:2:0:0:
294,335,96497,6,0,P|252:321|211:309,1,86.449997691536,10|8,0:0|0:0,0:0:0:0:
297,220,96747,1,8,0:0:0:0:
297,220,96831,2,0,L|350:203,1,43.224998845768,8|8,0:0|0:0,0:0:0:0:
451,312,96997,2,0,L|398:295,1,43.224998845768,8|8,0:0|0:0,0:0:0:0:
413,111,97164,6,0,P|471:114|508:232,2,172.899995383072,6|8|2,1:2|0:0|1:2,0:0:0:0:
319,312,97997,1,0,1:2:0:0:
219,128,98164,2,0,P|232:78|246:28,1,86.449997691536,8|0,0:0|0:0,0:0:0:0:
324,202,98497,5,2,1:2:0:0:
165,269,98664,1,0,1:2:0:0:
39,109,98831,2,0,P|88:128|124:146,1,86.449997691536,10|0,0:0|0:0,0:0:0:0:
249,340,99164,1,2,1:2:0:0:
219,128,99331,1,0,1:2:0:0:
106,371,99497,5,10,0:0:0:0:
63,377,99580,1,2,0:0:0:0:
25,358,99663,1,2,0:0:0:0:
3,322,99746,1,2,0:0:0:0:
6,279,99831,6,0,P|26:179|42:95,1,172.899995383072,6|0,1:2|1:2,0:0:0:0:
133,0,100331,1,0,1:2:0:0:
209,214,100497,2,0,P|169:199|107:177,1,86.449997691536,8|8,1:2|0:0,0:0:0:0:
404,110,100831,1,8,1:2:0:0:
281,336,100997,1,8,0:0:0:0:
199,83,101164,6,0,P|211:36|222:-9,1,86.449997691536,8|0,1:2|0:0,0:0:0:0:
301,65,101414,1,8,0:0:0:0:
301,65,101497,2,0,P|311:106|322:148,1,86.449997691536,8|0,0:0|0:0,0:0:0:0:
416,361,101831,5,8,0:0:0:0:
416,361,101914,1,8,0:0:0:0:
416,361,101997,2,8,L|471:345,1,43.224998845768
512,227,102164,1,8,0:0:0:0:
508,184,102247,1,8,0:0:0:0:
482,150,102330,1,8,0:0:0:0:
442,136,102413,1,8,0:0:0:0:
401,145,102497,6,0,P|414:200|426:256,1,86.449997691536,6|0,1:2|0:0,0:0:0:0:
318,296,102831,1,8,0:0:0:0:
221,210,102997,1,2,0:0:0:0:
120,304,103164,2,0,P|56:286|22:276,1,86.449997691536,2|2,1:2|0:0,0:0:0:0:
225,199,103497,1,10,0:0:0:0:
77,210,103664,1,2,0:0:0:0:
202,378,103831,6,0,P|216:316|225:275,1,86.449997691536,2|0,1:2|1:2,0:0:0:0:
160,141,104164,1,10,0:0:0:0:
321,310,104331,2,0,P|307:248|280:118,1,172.899995383072,2|0,0:0|1:2,0:0:0:0:
405,72,104831,1,10,0:0:0:0:
406,198,104997,1,2,0:0:0:0:
365,5,105164,6,0,P|420:-7|480:92,1,172.899995383072,2|10,1:2|0:0,0:0:0:0:
283,141,105664,2,0,P|237:123|200:113,1,86.449997691536,2|0,0:0|1:2,0:0:0:0:
330,276,105997,1,2,1:2:0:0:
356,78,106164,1,10,0:0:0:0:
192,208,106331,6,0,P|233:196|390:146,1,172.899995383072,2|0,0:0|1:2,0:0:0:0:
256,320,106831,2,0,P|216:307|174:292,1,86.449997691536,10|0,0:0|0:0,0:0:0:0:
18,186,107164,1,0,1:2:0:0:
81,304,107331,1,0,1:2:0:0:
203,104,107497,1,10,0:0:0:0:
203,104,107831,6,0,P|136:109|102:209,2,172.899995383072,2|8|0,1:2|0:0|0:0,0:0:0:0:
193,203,108664,1,0,1:2:0:0:
57,77,108831,1,10,0:0:0:0:
260,13,108997,6,0,P|252:56|227:202,1,172.899995383072,2|0,0:0|1:2,0:0:0:0:
282,335,109497,2,0,P|327:332|366:297,1,86.449997691536,10|0,0:0|0:0,0:0:0:0:
352,103,109831,2,0,P|338:164|327:215,1,86.449997691536,2|0,1:2|1:2,0:0:0:0:
512,302,110164,2,0,P|493:245|422:219,1,129.674996537304,10|0,0:0|0:0,0:0:0:0:
423,231,110497,6,0,B|299:238|377:168|228:187,2,172.899995383072,2|8|0,1:2|0:0|1:2,0:0:0:0:
395,132,111331,1,0,1:2:0:0:
250,279,111497,2,0,P|192:257|155:241,1,86.449997691536,10|0,0:0|0:0,0:0:0:0:
58,133,111748,1,2,0:0:0:0:
62,140,111831,6,0,P|75:206|84:252,1,86.449997691536,2|0,1:2|1:2,0:0:0:0:
54,364,112164,1,10,0:0:0:0:
0,250,112331,1,2,0:0:0:0:
166,353,112497,2,0,P|224:331|261:315,1,86.449997691536,2|0,1:2|1:2,0:0:0:0:
338,133,112831,2,0,P|254:169|247:212,1,129.674996537304,10|0,0:0|0:0,0:0:0:0:
255,210,113164,6,0,P|247:154|225:29,1,172.899995383072,6|8,1:2|0:0,0:0:0:0:
149,152,113664,1,2,0:0:0:0:
342,216,113831,2,0,P|397:199|429:190,1,86.449997691536,2|2,1:2|1:2,0:0:0:0:
246,321,114164,2,0,P|191:304|159:295,1,86.449997691536,10|2,0:0|0:0,0:0:0:0:
38,163,114497,6,0,P|53:91|63:53,1,86.449997691536,2|0,1:2|1:2,0:0:0:0:
140,212,114831,1,10,0:0:0:0:
151,0,114997,2,0,P|160:42|169:84,1,86.449997691536,2|0,0:0|1:2,0:0:0:0:
266,200,115331,1,0,1:2:0:0:
358,79,115497,2,0,P|324:51|270:46,1,86.449997691536,10|0,0:0|0:0,0:0:0:0:
398,216,115831,6,0,P|440:208|472:180,1,86.449997691536,2|0,1:2|0:0,0:0:0:0:
454,84,116164,1,10,0:0:0:0:
296,193,116331,2,0,P|314:255|324:292,1,86.449997691536,2|0,0:0|1:2,0:0:0:0:
188,117,116664,2,0,P|170:179|160:216,1,86.449997691536,2|8,1:2|0:0,0:0:0:0:
50,313,116997,1,2,0:0:0:0:
48,118,117164,6,0,P|66:180|78:227,1,86.449997691536,2|0,1:2|1:2,0:0:0:0:
123,363,117497,1,10,0:0:0:0:
164,200,117664,1,0,1:2:0:0:
164,200,117747,1,0,1:2:0:0:
164,200,117831,1,0,1:2:0:0:
25,318,117997,1,0,0:0:0:0:
223,371,118164,2,0,P|272:356|324:342,1,86.449997691536,10|0,0:0|0:0,0:0:0:0:
426,199,118497,6,0,P|410:276|391:374,2,172.899995383072,2|8|0,1:2|0:0|1:2,0:0:0:0:
432,22,119331,1,0,1:2:0:0:
306,157,119497,1,10,0:0:0:0:
466,125,119664,1,2,0:0:0:0:
266,6,119831,6,0,P|222:12|180:48,1,86.449997691536,0|0,1:2|1:2,0:0:0:0:
207,215,120164,1,10,0:0:0:0:
254,92,120331,1,2,0:0:0:0:
100,135,120497,2,0,P|113:185|121:236,1,86.449997691536,0|0,1:2|1:2,0:0:0:0:
303,315,120831,1,10,0:0:0:0:
274,178,120997,1,2,0:0:0:0:
211,333,121164,6,0,P|154:321|100:307,1,86.449997691536,2|0,1:2|0:0,0:0:0:0:
2,199,121497,1,10,0:0:0:0:
20,370,121664,2,0,P|34:306|43:263,1,86.449997691536,2|0,0:0|1:2,0:0:0:0:
87,127,121997,1,2,1:2:0:0:
211,333,122164,2,0,P|197:269|188:226,1,86.449997691536,10|0,0:0|0:0,0:0:0:0:
189,215,122414,1,8,0:0:0:0:
189,215,122497,5,0,1:2:0:0:
38,285,122664,1,0,1:2:0:0:
87,127,122831,1,4,3:0:0:0:
107,237,122997,1,4,3:0:0:0:
21,12,123164,2,0,L|2:97,1,86.449997691536,2|4,1:2|3:0,0:0:0:0:
28,200,123497,1,0,1:2:0:0:
197,30,123664,1,8,0:0:0:0:
197,30,123747,1,8,0:0:0:0:
197,30,123831,6,0,B|288:32|232:82|343:81,1,145.6,6|0,1:2|1:2,0:0:0:0:
219,189,124331,2,0,P|202:128|188:90,1,72.8,2|0,0:0|1:2,0:0:0:0:
292,242,124664,2,0,P|309:181|323:143,1,72.8,2|0,0:0|1:2,0:0:0:0:
186,322,124997,1,2,0:0:0:0:
186,322,125081,1,2,0:0:0:0:
186,322,125164,6,0,P|135:324|81:236,1,145.6,2|0,1:2|1:2,0:0:0:0:
36,112,125664,1,2,0:0:0:0:
36,112,125831,2,0,P|71:120|106:130,1,72.8,2|0,1:2|0:0,0:0:0:0:
219,189,126164,2,0,P|183:198|148:207,1,72.8,2|0,1:2|0:0,0:0:0:0:
245,90,126497,6,0,P|280:98|399:128,1,145.6,2|2,1:2|1:2,0:0:0:0:
508,53,126997,2,0,P|491:110|479:156,1,72.8,2|0,0:0|1:2,0:0:0:0:
456,273,127331,2,0,P|446:237|435:203,1,72.8,2|0,0:0|1:2,0:0:0:0:
314,68,127664,1,2,0:0:0:0:
314,68,127747,1,2,0:0:0:0:
314,68,127831,6,0,P|266:83|222:96,1,72.8,2|0,1:2|0:0,0:0:0:0:
157,252,128164,1,14,0:0:0:0:
92,82,128331,1,0,1:2:0:0:
285,215,128497,5,8,0:0:0:0:
290,223,128609,2,0,L|276:284,1,48.5333333333333,8|8,0:0|0:3,0:0:0:0:
167,374,128831,1,8,0:3:0:0:
161,381,128943,2,0,L|150:333,1,48.5333333333333,4|0,0:3|0:3,0:0:0:0:
63,210,129164,6,0,P|75:157|188:137,1,172.899995383072,6|0,1:2|1:2,0:0:0:0:
279,270,129664,1,0,1:2:0:0:
282,66,129831,2,0,P|268:114|255:152,1,86.449997691536,8|8,1:2|0:0,0:0:0:0:
369,239,130164,1,8,1:2:0:0:
436,125,130331,1,8,0:0:0:0:
266,255,130497,5,8,1:2:0:0:
471,310,130664,1,8,0:0:0:0:
256,148,130831,1,8,1:2:0:0:
500,76,130997,1,8,0:0:0:0:
336,337,131164,5,8,1:2:0:0:
167,107,131331,1,8,0:0:0:0:
414,228,131497,1,8,1:2:0:0:
167,356,131664,1,8,0:0:0:0:
293,52,131831,6,0,B|450:63|334:140|514:156,1,254.799992224121,6|0,1:2|0:0,0:0:0:0:
260,366,134164,6,0,P|232:358|204:351,1,47.7749985420228,10|0,0:0|0:0,0:0:0:0:
197,342,134497,5,6,1:2:0:0:
120,166,134664,1,2,0:0:0:0:
53,371,134831,1,10,0:0:0:0:
245,184,134997,1,2,0:0:0:0:
77,266,135164,5,2,1:2:0:0:
313,270,135331,1,2,0:0:0:0:
122,78,135497,1,10,0:0:0:0:
172,269,135664,1,2,0:0:0:0:
250,32,135831,6,0,P|312:9|356:-4,1,95.5499970840455,2|0,1:2|0:0,0:0:0:0:
472,159,136164,1,10,0:0:0:0:
313,270,136331,2,0,P|267:255|222:238,1,95.5499970840455,2|0,0:0|1:2,0:0:0:0:
372,87,136664,2,0,P|385:148|394:192,1,95.5499970840455,2|8,0:0|0:0,0:0:0:0:
334,361,136997,1,2,0:0:0:0:
219,144,137164,6,0,P|162:157|133:253,1,143.324995626068,2|0,1:2|0:0,0:0:0:0:
123,241,137497,2,0,P|116:194|109:147,1,95.5499970840455,10|0,0:0|0:0,0:0:0:0:
302,6,137831,2,0,P|294:53|287:100,1,95.5499970840455,2|0,1:2|0:0,0:0:0:0:
228,277,138164,1,10,0:0:0:0:
164,69,138331,1,0,0:0:0:0:
331,257,138497,6,0,P|399:242|458:228,1,95.5499970840455,2|0,1:2|0:0,0:0:0:0:
279,111,138831,1,10,0:0:0:0:
237,354,138997,2,0,B|107:359|191:288|43:297,1,191.099994168091,2|0,0:0|0:0,0:0:0:0:
236,217,139497,1,10,0:0:0:0:
19,359,139664,1,8,0:0:0:0:
19,359,139747,1,8,0:0:0:0:
19,359,139831,6,0,P|7:286|-3:235,1,95.5499970840455,6|0,1:2|0:0,0:0:0:0:
109,101,140164,1,10,0:0:0:0:
144,347,140331,2,0,P|156:274|166:223,1,95.5499970840455,2|0,0:0|1:2,0:0:0:0:
15,25,140664,2,0,P|23:72|30:119,1,95.5499970840455,2|8,0:0|0:0,0:0:0:0:
159,252,140998,1,2,0:0:0:0:
159,252,141081,1,2,0:0:0:0:
159,252,141164,6,0,P|222:238|358:206,1,191.099994168091,2|10,1:2|0:0,0:0:0:0:
512,40,141664,2,0,P|437:56|412:165,1,191.099994168091,2|0,0:0|0:0,0:0:0:0:
512,324,142164,2,0,P|501:257|494:212,1,95.5499970840455,10|0,0:0|0:0,0:0:0:0:
303,71,142497,6,0,B|180:58|250:131|111:125,1,191.099994168091,2|10,1:2|0:0,0:0:0:0:
206,328,142997,1,2,0:0:0:0:
206,328,143081,1,2,0:0:0:0:
206,328,143164,2,0,P|213:280|221:233,1,95.5499970840455,2|0,1:2|0:0,0:0:0:0:
375,383,143497,2,0,P|364:313|354:242,1,143.324995626068,10|0,0:0|0:0,0:0:0:0:
330,222,143831,6,0,B|207:238|293:161|139:175,1,191.099994168091,2|12,1:2|0:0,0:0:0:0:
50,0,144331,1,0,0:0:0:0:
79,216,144497,1,8,0:0:0:0:
166,56,144664,2,8,P|140:66|106:84,1,47.7749985420228
0,188,144831,1,8,0:0:0:0:
0,235,144914,1,8,0:0:0:0:
20,275,144997,1,8,0:0:0:0:
62,296,145081,1,8,0:0:0:0:
109,291,145164,5,6,1:2:0:0:
254,185,145331,1,2,0:0:0:0:
79,216,145497,1,10,0:0:0:0:
285,321,145664,1,2,0:0:0:0:
318,103,145831,5,2,1:2:0:0:
181,263,145997,1,2,0:0:0:0:
420,200,146164,1,10,0:0:0:0:
191,58,146331,1,2,0:0:0:0:
314,305,146497,6,0,P|327:238|336:193,1,95.5499970840455,2|0,1:2|0:0,0:0:0:0:
381,60,146831,1,10,0:0:0:0:
181,263,146997,2,0,P|168:196|159:151,1,95.5499970840455,2|0,0:0|1:2,0:0:0:0:
390,356,147331,2,0,P|405:289|415:244,1,95.5499970840455,2|8,0:0|0:0,0:0:0:0:
318,103,147664,1,2,0:0:0:0:
205,344,147831,6,0,B|102:349|168:292|39:291,1,143.324995626068,2|0,1:2|0:0,0:0:0:0:
53,297,148164,1,10,0:0:0:0:
162,169,148331,2,0,P|211:157|267:142,1,95.5499970840455,2|0,0:0|0:0,0:0:0:0:
111,81,148664,1,2,0:0:0:0:
221,245,148831,1,10,0:0:0:0:
370,32,148997,1,2,0:0:0:0:
370,32,149081,1,2,0:0:0:0:
370,32,149164,6,0,P|356:105|332:225,1,191.099994168091,2|8,1:2|0:0,0:0:0:0:
432,163,149664,1,0,0:0:0:0:
271,23,149831,2,0,P|224:34|178:46,1,95.5499970840455,6|0,1:2|0:0,0:0:0:0:
134,257,150164,1,8,0:0:0:0:
179,266,150247,1,8,0:0:0:0:
221,245,150330,1,8,0:0:0:0:
241,202,150414,1,8,0:0:0:0:
229,157,150497,6,0,B|175:121|140:124|140:124|115:180|26:165,1,191.099994168091,6|0,1:2|1:2,0:0:0:0:
178,46,150997,1,0,1:2:0:0:
331,146,151164,2,0,P|317:215|308:258,1,95.5499970840455,8|8,1:2|0:0,0:0:0:0:
276,62,151497,1,8,1:2:0:0:
221,245,151664,1,8,0:0:0:0:
412,111,151831,5,8,1:2:0:0:
163,181,151997,1,8,0:0:0:0:
400,360,152164,1,8,1:2:0:0:
331,146,152331,1,8,0:0:0:0:
198,351,152497,6,0,P|150:339|90:323,1,95.5499970840455,8|4,1:2|0:3,0:0:0:0:
242,162,152831,1,8,0:3:0:0:
299,337,152997,1,4,0:3:0:0:
152,166,153164,6,0,P|176:97|255:74,1,145.6,6|2,1:2|0:1,0:0:0:0:
434,288,154164,5,4,0:3:0:0:
434,288,154497,5,8,0:3:0:0:
347,46,154664,1,8,0:3:0:0:
166,340,154997,6,0,P|111:321|62:304,1,109.199996667481,4|4,0:3|0:3,0:0:0:0:
6,203,155497,1,4,0:3:0:0:
70,85,155664,1,4,0:3:0:0:
70,85,155747,1,4,0:3:0:0:
70,85,155831,6,0,P|82:131|102:221,1,136.500005207062,6|0,1:2|1:2,0:0:0:0:
227,101,156331,1,0,0:0:0:0:
227,101,156497,2,0,P|215:147|201:198,1,68.250002603531,2|0,1:2|0:0,0:0:0:0:
189,314,156831,2,0,P|180:281|171:248,1,68.250002603531,0|0,1:2|0:0,0:0:0:0:
320,128,157164,6,0,P|308:174|281:272,1,136.500005207062,2|0,1:2|1:2,0:0:0:0:
368,324,157664,1,0,0:0:0:0:
448,241,157831,2,0,P|413:224|373:208,1,68.250002603531,2|0,1:2|0:0,0:0:0:0:
320,128,158164,1,2,1:2:0:0:
377,53,158331,1,2,0:0:0:0:
305,0,158497,6,0,P|240:15|213:95,1,136.500005207062,2|0,1:2|0:0,0:0:0:0:
307,194,158997,1,0,0:0:0:0:
307,194,159164,2,0,P|316:149|323:118,1,68.250002603531,2|0,1:2|0:0,0:0:0:0:
205,177,159497,2,0,P|212:210|219:244,1,68.250002603531,0|0,1:2|0:0,0:0:0:0:
363,318,159831,6,0,P|372:273|397:168,1,136.500005207062,2|0,1:2|1:2,0:0:0:0:
272,313,160331,1,0,0:0:0:0:
272,313,160497,2,0,P|279:346|286:380,1,68.250002603531,2|0,1:2|0:0,0:0:0:0:
119,253,160831,1,2,1:2:0:0:
160,340,160997,1,2,0:0:0:0:
205,236,161164,6,0,P|190:183|94:166,1,136.500005207062,2|0,1:2|1:2,0:0:0:0:
24,259,161664,1,0,0:0:0:0:
24,259,161831,2,0,P|35:303|45:344,1,68.250002603531,2|0,1:2|0:0,0:0:0:0:
50,100,162164,2,0,P|39:144|29:185,1,68.250002603531,2|0,1:2|0:0,0:0:0:0:
194,102,162497,6,0,P|161:70|130:41,1,68.250002603531,2|0,1:2|0:0,0:0:0:0:
109,245,162831,2,0,P|152:232|193:220,1,68.250002603531,2|0,1:2|0:0,0:0:0:0:
272,165,163164,2,0,P|315:177|356:189,1,68.250002603531,2|0,1:2|0:0,0:0:0:0:
479,309,163497,2,0,P|434:301|408:231,1,102.375003905296,6|0,1:2|0:0,0:0:0:0:
410,246,163831,6,0,P|416:201|423:156,1,68.250002603531,2|0,1:2|0:0,0:0:0:0:
477,101,164164,1,0,0:0:0:0:
398,4,164331,1,8,0:3:0:0:
249,73,164497,6,0,P|211:59|166:44,1,68.250002603531,2|0,1:2|0:0,0:0:0:0:
272,165,164831,1,4,0:3:0:0:
228,239,164997,1,4,0:3:0:0:
289,330,165164,6,0,P|336:317|374:306,2,68.250002603531,2|8|0,1:2|0:3|1:2,0:0:0:0:
108,270,165664,1,0,1:2:0:0:
108,270,165747,1,0,1:2:0:0:
108,270,165831,1,10,0:0:0:0:
169,384,165997,1,0,1:2:0:0:
228,239,166164,1,2,0:0:0:0:
228,239,166497,6,0,L|197:55,1,154.700002950668,6|0,1:2|0:0,0:0:0:0:
333,197,166997,1,0,1:2:0:0:
333,197,167164,2,0,P|342:152|364:29,1,154.700002950668,10|0,0:0|0:0,0:0:0:0:
361,44,167831,5,0,1:2:0:0:
202,86,167997,2,0,B|100:92|144:35|49:40,1,154.700002950668,10|0,0:0|1:2,0:0:0:0:
0,170,168497,1,10,0:0:0:0:
93,233,168664,2,0,P|82:179|72:140,1,77.3500014753342,0|0,1:2|0:0,0:0:0:0:
12,273,168997,1,0,0:0:0:0:
204,178,169164,6,0,P|195:215|165:346,1,154.700002950668,2|0,1:2|0:0,0:0:0:0:
93,233,169664,1,0,1:2:0:0:
270,324,169831,2,0,B|326:320|326:320|362:293|362:293|444:288,1,154.700002950668,10|0,0:0|0:0,0:0:0:0:
415,289,170497,5,6,1:2:0:0:
298,106,170664,1,10,0:0:0:0:
386,178,170831,1,0,1:2:0:0:
281,220,170997,1,0,1:2:0:0:
439,65,171164,5,10,0:0:0:0:
499,249,171331,1,8,0:0:0:0:
499,249,171414,1,8,0:0:0:0:
499,249,171497,2,8,L|481:310,1,38.6750007376671
386,178,171664,2,8,L|375:140,1,38.6750007376671
237,308,171831,6,0,P|185:293|61:261,1,172.899995383072,6|0,1:2|1:2,0:0:0:0:
2,157,172331,1,0,1:2:0:0:
60,31,172497,2,0,P|73:84|85:140,1,86.449997691536,8|8,1:2|0:0,0:0:0:0:
208,192,172831,1,8,1:2:0:0:
281,79,172997,1,8,0:0:0:0:
122,190,173164,5,8,1:2:0:0:
327,165,173331,1,8,0:0:0:0:
164,108,173497,1,8,1:2:0:0:
288,242,173664,1,8,0:0:0:0:
79,115,173831,5,8,1:2:0:0:
380,236,173997,1,8,0:0:0:0:
43,216,174164,1,8,1:2:0:0:
352,86,174331,1,8,0:0:0:0:
165,374,174497,5,14,0:0:0:0:
208,49,174664,1,0,1:2:0:0:
399,309,174831,1,0,1:2:0:0:
115,181,174997,5,14,0:0:0:0:
454,95,175164,1,0,1:2:0:0:
277,384,175331,1,0,1:2:0:0:
338,57,175497,5,14,0:0:0:0:
503,340,175664,1,0,1:2:0:0:
200,250,175831,1,0,1:2:0:0:
454,95,175997,6,0,P|436:156|427:200,1,86.449997691536,10|0,0:0|1:2,0:0:0:0:
277,374,176331,1,0,1:2:0:0:
278,153,176497,5,10,0:0:0:0:
386,325,176664,1,8,0:0:0:0:
386,325,176747,1,8,0:0:0:0:
386,325,176831,2,8,L|321:306,1,43.224998845768
200,250,176997,2,8,L|135:269,1,43.224998845768
0,291,177164,6,0,B|112:296|32:352|189:364,1,172.899995383072,6|8,1:2|0:0,0:0:0:0:
257,169,177664,2,0,P|231:89|149:76,1,172.899995383072,2|0,0:0|0:0,0:0:0:0:
177,283,178164,2,0,P|220:272|291:252,1,86.449997691536,10|0,0:0|0:0,0:0:0:0:
421,272,178497,5,0,1:2:0:0:
394,116,178664,1,2,0:0:0:0:
340,228,178831,1,10,0:0:0:0:
489,108,178997,1,2,0:0:0:0:
351,40,179164,5,2,1:2:0:0:
488,120,179331,1,2,0:0:0:0:
324,233,179497,1,10,0:0:0:0:
497,332,179664,1,2,0:0:0:0:
298,127,179831,6,0,B|196:135|259:184|134:206,1,172.899995383072,2|8,1:2|0:0,0:0:0:0:
17,5,180331,2,0,P|97:17|133:108,1,172.899995383072,2|0,0:0|0:0,0:0:0:0:
16,262,180831,2,0,P|2:188|-8:148,1,86.449997691536,10|0,0:0|0:0,0:0:0:0:
180,306,181164,5,2,1:2:0:0:
214,172,181331,1,2,0:0:0:0:
74,324,181497,1,10,0:0:0:0:
296,330,181664,1,2,1:2:0:0:
296,330,181747,1,0,1:2:0:0:
296,330,181831,1,2,1:2:0:0:
118,162,181997,1,2,1:2:0:0:
178,380,182164,2,0,P|192:306|202:266,1,86.449997691536,8|0,0:3|0:0,0:0:0:0:
297,157,182414,1,0,1:2:0:0:
302,150,182497,6,0,B|362:143|362:143|401:175|401:175|481:163,1,172.899995383072,6|8,1:2|0:0,0:0:0:0:
464,2,182997,1,0,1:2:0:0:
464,2,183081,1,0,1:2:0:0:
464,2,183164,2,0,P|447:43|431:94,1,86.449997691536,2|0,1:2|0:0,0:0:0:0:
238,87,183497,2,0,P|224:45|207:6,1,86.449997691536,8|0,0:0|0:0,0:0:0:0:
512,111,183831,6,0,P|495:152|479:203,1,86.449997691536,2|0,1:2|0:0,0:0:0:0:
379,313,184164,2,0,P|305:306|279:237,1,129.674996537304,10|0,0:0|0:0,0:0:0:0:
289,241,184497,1,2,1:2:0:0:
184,364,184664,1,0,1:2:0:0:
121,171,184831,2,0,P|182:188|199:231,1,86.449997691536,10|0,0:0|0:0,0:0:0:0:
58,372,185164,6,0,P|47:310|40:275,1,86.449997691536,6|0,1:2|1:2,0:0:0:0:
150,84,185497,1,10,0:0:0:0:
1,213,185664,1,8,0:0:0:0:
1,213,185747,1,8,0:0:0:0:
1,213,185831,1,8,0:0:0:0:
199,287,185997,2,0,L|261:270,2,43.224998845768,8|8|8,0:0|0:0|0:0,0:0:0:0:
307,139,186331,2,0,L|265:127,1,43.224998845768,4|4,0:3|0:3,0:0:0:0:
352,214,186497,6,0,P|405:195|453:182,1,86.449997691536,6|8,1:2|0:0,0:0:0:0:
503,112,186747,1,8,0:0:0:0:
503,112,186831,1,10,0:0:0:0:
512,70,186914,1,10,0:0:0:0:
495,31,186997,1,2,1:2:0:0:
458,10,187081,1,2,1:2:0:0:
416,15,187164,6,0,L|405:82,1,61.4250002343178,10|0,0:0|0:0,0:0:0:0:
364,295,187331,1,6,1:2:0:0:
265,127,187497,6,0,L|321:106,1,54.5999983337403,2|0,0:0|0:0,0:0:0:0:
181,198,187664,6,0,B|72:198|144:136|3:128,1,182,6|0,1:2|1:2,0:0:0:0:
132,0,188164,2,0,P|143:66|151:103,1,91,10|0,0:0|0:0,0:0:0:0:
22,305,188497,2,0,P|30:260|37:215,1,91,2|0,1:2|1:2,0:0:0:0:
272,112,188831,2,0,P|270:178|270:216,1,91,10|0,0:0|0:0,0:0:0:0:
392,375,189164,5,2,1:2:0:0:
430,192,189331,1,0,1:2:0:0:
273,325,189497,2,0,P|216:310|160:295,1,91,10|0,0:0|0:0,0:0:0:0:
351,116,189831,2,0,P|408:101|464:86,1,91,2|0,1:2|1:2,0:0:0:0:
497,286,190164,5,10,0:0:0:0:
478,287,190247,1,2,0:0:0:0:
449,272,190331,1,2,0:0:0:0:
426,238,190414,1,2,0:0:0:0:
430,192,190497,6,0,P|400:279|378:356,1,136.5,2|0,1:2|0:0,0:0:0:0:
388,361,190831,1,10,0:0:0:0:
142,177,190997,2,0,P|123:104|107:57,1,91,2|0,0:0|1:2,0:0:0:0:
343,216,191331,2,0,P|330:262|315:305,1,91,2|8,1:2|0:0,0:0:0:0:
119,370,191664,6,0,P|45:372|7:262,1,182,2|0,0:0|1:2,0:0:0:0:
118,89,192164,1,14,0:0:0:0:
83,293,192331,1,0,0:0:0:0:
3,89,192497,5,10,0:0:0:0:
182,240,192664,1,8,0:0:0:0:
182,240,192747,1,8,0:0:0:0:
182,240,192831,2,8,L|231:228,1,45.5
307,135,192997,2,8,L|351:145,1,45.5
507,204,193164,6,0,B|422:208|483:250|366:264,1,136.5,14|0,0:0|0:0,0:0:0:0:
352,258,193497,1,10,0:0:0:0:
128,88,193664,1,2,1:2:0:0:
203,374,193831,6,0,P|220:307|233:261,1,91,10|0,0:0|1:2,0:0:0:0:
319,57,194164,1,10,0:0:0:0:
328,343,194331,1,2,1:2:0:0:
12,221,194497,6,0,B|114:210|36:175|159:162,1,150.150004582214,10|0,0:0|0:0,0:0:0:0:
173,173,194831,1,10,0:0:0:0:
425,281,194997,1,2,1:2:0:0:
340,0,195164,6,0,P|324:60|308:115,1,109.199996667481,10|0,0:0|1:2,0:0:0:0:
203,374,195497,1,10,0:0:0:0:
116,58,195664,1,2,1:2:0:0:
381,348,195831,6,0,P|320:325|276:309,1,91,14|0,0:0|1:2,0:0:0:0:
20,262,196164,6,0,P|62:246|85:236,2,60.6666666666667,2|2|2,1:2|1:2|1:2,0:0:0:0:
140,93,196497,6,0,P|132:137|129:162,2,60.6666666666667,2|2|2,1:2|1:2|0:0,0:0:0:0:
203,223,196831,5,10,0:0:0:0:
220,218,196914,1,2,1:2:0:0:
234,207,196997,1,4,0:3:0:0:
239,189,197081,1,4,0:3:0:0:
236,172,197164,6,0,B|389:163|303:244|482:232,1,254.799992224121,6|4,1:2|1:2,0:0:0:0:
189,142,207664,5,2,0:0:0:0:
171,0,207831,2,0,P|158:48|153:65,2,59.149997292328,2|4|2,0:0|0:3|0:0,0:0:0:0:
36,174,208331,5,4,0:3:0:0:
57,45,208497,2,0,P|70:93|75:110,1,59.149997292328,2|0,0:0|0:0,0:0:0:0:
177,196,208831,1,4,0:3:0:0:
260,128,208997,1,4,0:3:0:0:
260,128,209081,1,4,0:3:0:0:
260,128,209164,6,0,P|322:137|354:211,1,145.6,6|0,1:2|1:2,0:0:0:0:
354,206,209831,2,0,P|318:215|284:226,1,72.8,2|0,1:2|0:0,0:0:0:0:
133,269,210164,1,2,1:2:0:0:
83,193,210331,1,2,0:0:0:0:
177,196,210497,6,0,P|170:237|153:348,1,145.6,0|0,1:2|1:2,0:0:0:0:
154,339,211164,2,0,P|211:322|238:317,1,72.8,2|0,1:2|0:0,0:0:0:0:
321,248,211497,2,0,P|378:265|405:270,1,72.8,2|0,1:2|0:0,0:0:0:0:
494,138,211831,6,0,P|479:80|380:69,1,145.6,2|0,1:2|1:2,0:0:0:0:
403,57,212497,2,0,P|412:99|418:135,1,72.8,2|0,1:2|0:0,0:0:0:0:
322,244,212831,1,2,1:2:0:0:
251,175,212997,1,2,0:0:0:0:
166,236,213164,6,0,P|112:218|73:207,1,72.8,0|0,1:2|0:0,0:0:0:0:
35,118,213497,2,0,P|89:100|128:89,1,72.8,0|0,1:2|0:0,0:0:0:0:
251,175,213831,2,0,P|197:157|158:146,1,72.8,0|0,1:2|0:0,0:0:0:0:
346,29,214164,2,0,P|337:74|324:150,1,109.2,2|0,1:2|0:0,0:0:0:0:
336,154,214497,6,0,P|348:214|373:332,1,163.799995001221,6|0,1:2|1:2,0:0:0:0:
246,368,214997,1,0,0:0:0:0:
164,277,215164,2,0,P|177:223|184:184,1,81.8999975006104,0|0,1:2|0:0,0:0:0:0:
78,267,215414,1,0,1:2:0:0:
78,267,215497,2,0,P|65:213|58:174,1,81.8999975006104,0|0,1:2|0:0,0:0:0:0:
26,77,215747,1,0,1:2:0:0:
26,77,215831,6,0,P|15:102|8:122,3,40.9499987503052,8|8|8|8,1:2|0:0|0:0|0:0,0:0:0:0:
121,50,216164,2,0,P|113:30|105:12,3,40.9499987503052,8|8|8|8,1:2|0:0|0:0|0:0,0:0:0:0:
193,135,216497,5,8,1:2:0:0:
193,135,216581,1,8,0:0:0:0:
193,135,216664,2,0,P|241:121|255:117,1,40.9499987503052,8|8,0:0|0:0,0:0:0:0:
350,20,216831,1,8,1:2:0:0:
390,15,216914,1,8,0:0:0:0:
427,32,216997,1,8,0:0:0:0:
450,64,217081,1,8,0:0:0:0:
454,105,217164,6,0,B|219:107|404:222|148:229,1,341.25,6|2,1:2|0:0,0:0:0:0:
79,190,219747,1,2,0:0:0:0:
79,190,219831,5,2,0:1:0:0:
411,227,220997,6,0,L|420:275,1,43.224998845768,2|2,0:0|0:0,0:0:0:0:
332,374,221164,1,8,0:3:0:0:
289,379,221247,1,8,0:0:0:0:
251,362,221331,1,8,0:0:0:0:
227,326,221414,1,8,0:0:0:0:
227,283,221497,2,0,L|244:228,1,43.224998845768,8|8,0:0|0:0,0:0:0:0:
285,143,221664,2,0,L|273:86,1,43.224998845768,8|8,1:2|0:0,0:0:0:0:
174,19,221831,5,8,1:2:0:0:
133,4,221914,1,8,0:0:0:0:
92,15,221997,1,8,0:0:0:0:
65,48,222081,1,8,0:0:0:0:
62,89,222164,5,4,3:0:0:0:
70,103,222247,1,4,3:0:0:0:
78,118,222330,1,4,3:0:0:0:
88,134,222414,1,4,3:0:0:0:
96,148,222497,5,6,1:2:0:0:
312,289,222664,1,2,0:0:0:0:
106,289,222831,1,10,0:0:0:0:
336,182,222997,1,2,0:0:0:0:
258,377,223164,5,2,1:2:0:0:
185,123,223331,1,2,0:0:0:0:
390,266,223497,1,10,0:0:0:0:
136,217,223664,1,2,0:0:0:0:
332,0,223831,6,0,P|341:46|350:93,1,95.5499970840455,2|0,1:2|0:0,0:0:0:0:
283,254,224164,1,10,0:0:0:0:
461,97,224331,2,0,P|451:143|442:190,1,95.5499970840455,2|0,0:0|1:2,0:0:0:0:
303,368,224664,2,0,P|295:329|276:251,1,95.5499970840455,2|8,0:0|0:0,0:0:0:0:
264,84,224997,1,2,0:0:0:0:
264,84,225081,1,2,0:0:0:0:
264,84,225164,6,0,B|166:82|218:38|114:30,1,143.324995626068,2|0,1:2|0:0,0:0:0:0:
120,27,225497,2,0,P|174:10|227:-5,1,95.5499970840455,10|0,0:0|0:0,0:0:0:0:
131,196,225831,2,0,P|85:181|39:168,1,95.5499970840455,2|0,1:2|0:0,0:0:0:0:
236,298,226164,1,10,0:0:0:0:
366,153,226331,1,2,0:0:0:0:
366,153,226414,1,2,0:0:0:0:
366,153,226497,6,0,P|349:89|338:44,1,95.5499970840455,2|0,1:2|0:0,0:0:0:0:
244,218,226831,1,10,0:0:0:0:
470,80,226997,2,0,P|453:144|417:293,1,191.099994168091,2|0,0:0|0:0,0:0:0:0:
307,376,227497,1,10,0:0:0:0:
159,217,227664,1,8,0:0:0:0:
159,217,227747,1,8,0:0:0:0:
159,217,227831,6,0,P|172:157|185:100,1,95.5499970840455,6|0,1:2|0:0,0:0:0:0:
256,260,228164,1,10,0:0:0:0:
277,44,228331,2,0,P|285:91|296:149,1,95.5499970840455,2|0,0:0|1:2,0:0:0:0:
85,0,228664,2,0,P|75:45|64:95,1,95.5499970840455,2|8,0:0|0:0,0:0:0:0:
0,258,228997,1,2,0:0:0:0:
0,258,229081,1,2,0:0:0:0:
0,258,229164,6,0,B|120:260|41:188|184:202,1,191.099994168091,2|10,1:2|0:0,0:0:0:0:
335,364,229664,2,0,P|249:349|231:249,1,191.099994168091,2|0,0:0|0:0,0:0:0:0:
328,85,230164,2,0,P|335:127|348:198,1,95.5499970840455,10|0,0:0|0:0,0:0:0:0:
443,339,230497,6,0,P|451:288|472:135,1,191.099994168091,2|10,1:2|0:0,0:0:0:0:
299,278,230997,1,2,0:0:0:0:
299,278,231081,1,2,0:0:0:0:
299,278,231164,2,0,P|245:260|206:246,1,95.5499970840455,2|0,1:2|0:0,0:0:0:0:
150,95,231497,2,0,P|195:80|242:66,1,95.5499970840455,10|0,0:0|0:0,0:0:0:0:
183,334,231831,6,0,P|124:311|-7:271,1,191.099994168091,2|14,1:2|0:0,0:0:0:0:
168,173,232331,1,0,0:0:0:0:
51,372,232497,1,10,0:0:0:0:
3,161,232664,1,8,0:0:0:0:
3,161,232747,1,8,0:0:0:0:
3,161,232831,2,8,L|17:98,1,47.7749985420228
115,250,232997,2,8,L|125:296,1,47.7749985420228
240,131,233164,5,6,1:2:0:0:
329,293,233331,1,2,0:0:0:0:
139,163,233497,1,10,0:0:0:0:
327,53,233664,1,2,0:0:0:0:
219,232,233831,5,2,1:2:0:0:
156,26,233997,1,2,0:0:0:0:
379,202,234164,1,10,0:0:0:0:
115,250,234331,1,2,0:0:0:0:
346,52,234497,6,0,P|331:112|320:162,1,95.5499970840455,2|0,1:2|0:0,0:0:0:0:
431,96,234831,1,10,0:0:0:0:
200,0,234997,2,0,P|212:46|223:93,1,95.5499970840455,2|0,0:0|1:2,0:0:0:0:
406,292,235331,2,0,P|416:245|428:199,1,95.5499970840455,2|8,0:0|0:0,0:0:0:0:
474,368,235664,1,2,0:0:0:0:
274,214,235831,6,0,P|214:230|120:253,1,143.324995626068,2|0,1:2|0:0,0:0:0:0:
113,246,236164,1,10,0:0:0:0:
18,0,236331,2,0,B|0:110|61:62|34:197,1,191.099994168091,2|2,0:0|0:0,0:0:0:0:
0,338,236831,1,10,0:0:0:0:
156,131,236997,1,2,0:0:0:0:
156,131,237081,1,2,0:0:0:0:
156,131,237164,6,0,P|211:134|260:252,1,191.099994168091,2|8,1:2|0:0,0:0:0:0:
137,247,237664,1,0,0:0:0:0:
360,21,237831,2,0,P|346:72|335:124,1,95.5499970840455,2|0,1:2|0:0,0:0:0:0:
399,314,238164,1,8,0:0:0:0:
443,327,238247,1,8,0:0:0:0:
487,311,238330,1,8,0:0:0:0:
512,271,238414,1,8,0:0:0:0:
507,225,238497,6,0,B|383:249|440:169|305:194,2,191.099994168091,6|8|0,1:2|0:0|1:2,0:0:0:0:
336,113,239331,1,0,0:0:0:0:
323,323,239497,1,10,0:0:0:0:
431,104,239664,1,2,0:0:0:0:
431,104,239747,1,2,0:0:0:0:
431,104,239831,6,0,P|417:53|271:44,1,191.099994168091,2|8,1:2|0:0,0:0:0:0:
198,217,240331,1,0,0:0:0:0:
211,34,240497,2,0,P|226:87|239:135,1,95.5499970840455,2|0,1:2|0:0,0:0:0:0:
60,0,240831,2,0,P|45:53|32:101,1,95.5499970840455,10|0,0:0|0:0,0:0:0:0:
11,203,241081,1,8,0:0:0:0:
16,210,241164,6,0,P|77:192|123:176,1,95.5499970840455,6|0,1:2|0:0,0:0:0:0:
140,174,241414,1,8,0:0:0:0:
140,174,241497,1,0,1:2:0:0:
336,320,241664,6,0,P|275:302|229:286,1,95.5499970840455,6|0,1:2|0:0,0:0:0:0:
212,284,241914,1,8,0:0:0:0:
212,284,241997,1,8,0:0:0:0:
259,38,242164,6,0,P|273:99|283:147,1,95.5499970840455,6|0,1:2|0:0,0:0:0:0:
289,163,242414,1,8,0:0:0:0:
289,163,242497,1,8,0:0:0:0:
220,379,242664,1,8,0:0:0:0:
105,205,242831,1,0,1:2:0:0:
114,203,242914,1,8,0:0:0:0:
123,201,242997,1,8,0:0:0:0:
336,320,243164,6,0,L|286:302,3,47.7749985420228,8|4|4|4,0:0|0:3|0:3|0:3,0:0:0:0:
377,182,243497,1,0,1:2:0:0:
424,180,243580,1,0,1:2:0:0:
464,205,243663,1,0,1:2:0:0:
483,247,243747,1,0,1:2:0:0:
475,294,243830,5,14,0:0:0:0:
265,178,243997,1,8,0:0:0:0:
476,35,244164,5,0,1:2:0:0:
474,53,244497,1,0,1:2:0:0:
472,72,244831,5,0,1:2:0:0:
377,182,244997,1,10,0:0:0:0:
273,29,245164,1,0,1:2:0:0:
386,99,245331,1,10,0:0:0:0:
241,203,245497,5,0,1:2:0:0:
221,200,245831,1,0,1:2:0:0:
201,198,246164,1,0,1:2:0:0:
181,196,246497,5,10,0:0:0:0:
87,356,246664,1,8,0:0:0:0:
1,194,246831,5,0,1:2:0:0:
5,174,247164,1,0,1:2:0:0:
10,155,247497,5,0,1:2:0:0:
155,46,247664,1,10,0:0:0:0:
123,206,247831,1,0,1:2:0:0:
45,43,247997,1,10,0:0:0:0:
213,143,248164,6,0,P|263:132|310:118,1,86.449997691536,0|4,1:2|0:3,0:0:0:0:
379,23,248497,5,0,1:2:0:0:
466,19,248664,1,4,0:3:0:0:
510,108,248831,1,0,1:2:0:0:
403,130,248997,1,4,0:3:0:0:
407,121,249081,1,4,0:3:0:0:
411,112,249164,5,2,1:2:0:0:
269,22,249831,1,2,0:0:0:0:
144,123,250497,1,2,0:0:0:0:
286,246,250831,2,0,P|299:191|309:143,1,86.449997691536
113,222,251164,6,0,P|122:264|130:296,1,63.6999980560303
243,357,251664,1,2,0:0:0:0:
243,357,251747,1,2,0:0:0:0:
243,357,251831,6,0,B|359:356|282:295|424:298,1,172.899995383072,6|8,1:2|0:0,0:0:0:0:
499,180,252331,1,8,0:0:0:0:
423,45,252497,2,0,P|413:95|402:144,1,86.449997691536,2|0,0:0|0:0,0:0:0:0:
256,278,252831,1,10,0:0:0:0:
316,89,252997,1,8,0:0:0:0:
398,298,253164,5,8,0:0:0:0:
398,298,253247,1,8,0:0:0:0:
398,298,253331,2,8,L|390:345,1,43.224998845768
313,217,253497,2,8,L|305:174,1,43.224998845768
184,334,253664,1,8,0:0:0:0:
184,341,253747,1,8,0:0:0:0:
183,350,253831,6,0,L|132:327,3,43.224998845768,8|8|8|8,0:0|0:0|0:0|0:0,0:0:0:0:
9,201,254164,1,4,0:3:0:0:
4,158,254247,1,4,0:3:0:0:
23,120,254330,1,4,0:3:0:0:
60,99,254414,1,4,0:3:0:0:
102,102,254497,6,0,P|114:159|135:275,1,154.700002950668,6|0,1:2|0:0,0:0:0:0:
243,164,254997,1,0,1:2:0:0:
243,164,255164,2,0,P|256:87|272:12,1,154.700002950668,10|0,0:0|0:0,0:0:0:0:
401,148,255664,1,0,1:2:0:0:
370,23,255831,5,0,1:2:0:0:
398,159,255997,2,0,P|445:149|482:139,1,77.3500014753342,10|0,0:0|0:0,0:0:0:0:
360,250,256331,1,0,1:2:0:0:
279,103,256497,2,0,B|173:96|245:148|123:149,1,154.700002950668,10|0,0:0|0:0,0:0:0:0:
135,67,256997,1,0,1:2:0:0:
274,182,257164,6,0,P|266:229|245:351,1,154.700002950668,2|0,1:2|0:0,0:0:0:0:
360,250,257664,1,0,1:2:0:0:
137,148,257831,2,0,P|145:195|166:317,1,154.700002950668,14|0,0:0|0:0,0:0:0:0:
225,144,258331,1,0,1:2:0:0:
68,222,258497,5,0,1:2:0:0:
230,128,258664,2,0,P|284:141|317:148,1,77.3500014753342,10|0,0:0|0:0,0:0:0:0:
391,39,258997,1,0,0:0:0:0:
355,240,259164,5,8,0:0:0:0:
287,29,259331,1,8,0:0:0:0:
463,163,259497,1,8,0:0:0:0:
256,244,259664,1,8,0:0:0:0:
402,29,259831,6,0,P|392:81|372:195,1,136.500005207062,6|0,1:2|0:0,0:0:0:0:
389,315,260331,1,0,1:2:0:0:
389,315,260664,5,8,0:3:0:0:
227,202,260831,2,0,P|242:248|253:284,1,68.250002603531
307,173,261164,1,0,1:2:0:0:
227,351,261331,1,4,0:3:0:0:
227,351,261664,5,4,0:3:0:0:
227,351,261747,1,4,0:3:0:0:
227,351,261831,2,0,B|137:361|180:308|71:318,1,136.500005207062,10|0,0:0|0:0,0:0:0:0:
2,221,262331,1,4,0:3:0:0:
120,89,262497,6,0,P|168:90|246:269,1,273.000010414124,6|2,1:2|0:1,0:0:0:0:
248,267,263497,1,0,0:0:0:0:
384,376,263664,1,0,1:2:0:0:
384,376,263747,1,0,1:2:0:0:
384,376,263831,2,0,L|397:306,1,68.250002603531,10|0,0:0|0:0,0:0:0:0:
451,100,264164,5,8,0:0:0:0:
433,104,264275,2,0,P|383:137|372:147,1,45.5000017356873,8|8,0:0|0:0,0:0:0:0:
330,36,264497,5,4,0:3:0:0:
322,47,264609,2,0,P|309:105|309:120,1,45.5000017356873,4|4,0:3|0:3,0:0:0:0:
202,87,264831,5,0,1:2:0:0:
204,94,264942,2,0,P|237:144|247:155,1,45.5000017356873,0|0,1:2|1:2,0:0:0:0:
353,296,265164,6,0,P|417:275|483:256,2,136.500005207062,12|8|8,1:2|0:0|1:2,0:0:0:0:
146,239,266164,1,8,1:2:0:0:
222,31,266497,2,0,P|236:111|251:192,1,163.799995001221,8|8,1:2|1:2,0:0:0:0:
133,377,267164,1,8,1:2:0:0:
25,129,267497,1,8,1:2:0:0:
349,223,267831,6,0,B|167:222|265:300|77:289|77:289|124:271|139:237,1,364,6|2,1:2|0:0,0:0:0:0:
431,48,271831,6,0,P|421:97|409:151,1,86.449997691536,0|0,1:2|0:0,0:0:0:0:
435,213,272081,1,8,0:0:0:0:
435,221,272164,2,0,L|369:208,1,43.224998845768,8|8,0:0|0:0,0:0:0:0:
287,145,272331,2,0,L|222:161,1,43.224998845768,0|4,1:2|0:3,0:0:0:0:
158,287,272497,5,8,0:0:0:0:
158,287,272581,1,8,0:0:0:0:
158,287,272664,2,8,P|125:272|110:267,1,43.224998845768
8,173,272831,1,8,0:0:0:0:
2,130,272914,1,8,0:0:0:0:
19,91,272997,1,8,0:0:0:0:
53,66,273080,1,8,0:0:0:0:
96,62,273164,6,0,B|211:52|139:119|287:105,1,172.899995383072,6|8,1:2|0:0,0:0:0:0:
476,14,273664,2,0,P|459:70|429:189,1,172.899995383072,2|0,0:0|0:0,0:0:0:0:
334,321,274164,2,0,P|313:237|303:206,1,86.449997691536,10|0,0:0|0:0,0:0:0:0:
227,24,274497,6,0,P|166:26|125:123,1,172.899995383072,2|8,1:2|0:0,0:0:0:0:
229,257,274997,2,0,P|286:242|338:232,1,86.449997691536,2|0,0:0|1:2,0:0:0:0:
258,151,275331,1,0,1:2:0:0:
168,334,275497,2,0,P|111:319|60:304,1,86.449997691536,10|0,0:0|0:0,0:0:0:0:
290,375,275831,6,0,P|347:360|435:342,1,129.674996537304,2|0,1:2|0:0,0:0:0:0:
446,344,276164,1,10,0:0:0:0:
489,155,276331,2,0,P|472:208|461:252,1,86.449997691536,2|0,0:0|1:2,0:0:0:0:
298,95,276664,2,0,P|323:144|346:183,1,86.449997691536,2|8,1:2|0:0,0:0:0:0:
122,239,276997,6,0,B|227:236|167:298|322:282,1,172.899995383072,2|0,0:0|1:2,0:3:0:0:
136,160,277497,1,10,0:0:0:0:
199,352,277664,1,0,1:2:0:0:
256,197,277831,2,0,P|305:180|351:168,1,86.449997691536,14|0,0:0|0:0,0:0:0:0:
428,248,278081,1,8,0:0:0:0:
428,248,278164,2,8,L|419:295,1,43.224998845768
511,154,278331,2,8,L|502:111,1,43.224998845768
371,1,278497,6,0,P|357:79|335:185,2,172.899995383072,6|8|2,1:2|0:0|1:2,0:0:0:0:
439,164,279331,1,0,1:2:0:0:
243,47,279497,2,0,P|251:89|260:131,1,86.449997691536,10|0,0:0|0:0,0:0:0:0:
163,286,279831,6,0,B|124:259|90:256|90:256|57:298|-3:289,1,172.899995383072,2|8,1:2|0:0,0:0:0:0:
23,191,280331,1,0,0:0:0:0:
160,368,280497,2,0,P|223:353|240:317,1,86.449997691536,0|0,1:2|1:2,0:0:0:0:
340,216,280831,1,10,0:0:0:0:
209,49,280997,1,8,0:0:0:0:
209,49,281081,1,8,0:0:0:0:
209,49,281164,6,0,P|221:130|231:197,1,129.674996537304,6|0,1:2|0:0,0:0:0:0:
235,198,281497,1,10,0:0:0:0:
430,107,281664,2,0,P|376:86|337:71,1,86.449997691536,2|0,0:0|1:2,0:0:0:0:
343,329,281997,2,0,P|383:313|423:297,1,86.449997691536,2|8,0:0|0:0,0:0:0:0:
305,142,282331,1,2,0:0:0:0:
179,323,282497,6,0,P|138:307|98:291,1,86.449997691536,6|8,1:2|0:0,0:0:0:0:
18,213,282747,1,8,0:0:0:0:
17,212,282831,2,0,P|25:233|31:254,3,43.224998845768,0|0|0|0,1:2|1:2|1:2|1:2,0:0:0:0:
162,147,283164,5,8,0:0:0:0:
162,147,283247,1,8,0:0:0:0:
162,147,283331,2,8,P|154:167|148:188,1,43.224998845768
7,93,283497,1,8,0:0:0:0:
13,50,283580,1,8,0:0:0:0:
40,17,283663,1,8,0:0:0:0:
80,2,283746,1,8,0:0:0:0:
122,10,283831,6,0,B|185:16|185:16|216:47|216:47|301:46,1,172.899995383072,6|8,1:2|0:0,0:0:0:0:
256,283,284331,2,0,P|182:271|154:167,1,172.899995383072,2|0,0:0|0:0,0:0:0:0:
363,54,284831,2,0,P|351:106|341:153,1,86.449997691536,10|0,0:0|0:0,0:0:0:0:
347,351,285164,6,0,B|465:344|392:298|527:295,1,172.899995383072,2|8,1:2|0:0,0:0:0:0:
354,244,285664,2,0,P|299:224|263:215,1,86.449997691536,2|0,0:0|1:2,0:0:0:0:
347,351,285997,1,0,1:2:0:0:
416,182,286164,2,0,P|471:162|507:153,1,86.449997691536,10|0,0:0|0:0,0:0:0:0:
271,305,286497,6,0,P|216:285|112:253,1,129.674996537304,2|0,1:2|0:0,0:0:0:0:
121,260,286831,1,10,0:0:0:0:
128,68,286997,2,0,P|146:131|156:167,1,86.449997691536,2|0,0:0|1:2,0:0:0:0:
19,304,287331,2,0,P|30:262|42:220,1,86.449997691536,2|8,1:2|0:0,0:0:0:0:
233,88,287664,6,8,P|238:153|249:292,1,172.899995383072,2|0,0:0|1:2,0:0:0:0:
332,122,288164,1,10,0:0:0:0:
146,263,288331,1,0,1:2:0:0:
344,343,288497,5,14,0:0:0:0:
151,151,288664,1,8,0:0:0:0:
151,151,288747,1,8,0:0:0:0:
151,151,288831,2,8,L|103:170,1,43.224998845768
175,335,288997,2,8,L|215:350,1,43.224998845768
410,218,289164,6,0,B|310:211|361:260|242:260,1,172.899995383072,6|0,1:2|1:2,0:0:0:0:
391,303,289664,1,0,0:0:0:0:
298,92,289831,2,0,P|285:140|276:182,1,86.449997691536,8|8,1:2|0:0,0:0:0:0:
394,60,290164,1,8,1:2:0:0:
208,114,290331,1,8,0:0:0:0:
393,178,290497,5,8,1:2:0:0:
179,36,290664,1,8,0:0:0:0:
246,259,290831,1,8,1:2:0:0:
279,0,290997,1,8,0:0:0:0:
60,178,291164,5,8,1:2:0:0:
329,301,291331,1,8,0:0:0:0:
208,114,291497,1,8,1:2:0:0:
89,371,291664,1,8,0:0:0:0:
372,185,291831,5,8,1:2:0:0:
76,75,291997,1,8,0:0:0:0:
230,333,292164,5,8,1:2:0:0:
321,63,292373,1,8,0:0:0:0:
85,268,292572,5,8,1:2:0:0:
358,182,292783,1,8,0:0:0:0:
87,79,293003,5,8,1:2:0:0:
227,319,293230,1,8,0:0:0:0:
247,79,293466,5,8,1:2:0:0:
95,251,293731,1,8,0:0:0:0:
345,269,293994,5,8,1:2:0:0:
159,142,294288,1,8,0:0:0:0:
195,361,294582,5,8,1:2:0:0:
280,185,294898,1,8,0:0:0:0:
110,257,295211,5,8,1:2:0:0:
311,355,295568,2,0,P|372:341|411:330,1,91,8|0,0:0|0:0,0:0:0:0:
455,337,297652,5,2,0:0:0:0:
455,337,299363,6,0,B|366:337|413:290|304:292,1,136.500005207062,2|0,0:0|0:0,0:0:0:0:
226,121,301077,1,2,0:0:0:0:
277,182,301934,1,2,0:0:0:0:
204,295,302850,6,0,P|170:284|68:255,1,136.500005207062,2|0,0:0|0:0,0:0:0:0:
73,255,304100,1,2,0:0:0:0:
5,126,304541,6,0,P|17:78|97:57,1,136.500005207062,2|0,0:0|0:0,0:0:0:0:
241,149,306244,5,2,0:0:0:0:
328,89,307095,1,2,0:0:0:0:
421,135,307520,2,0,L|417:176,1,34.1250013017655
346,267,308059,6,0,L|334:169,1,68.250002603531,2|0,0:0|0:0,0:0:0:0:
275,78,308923,6,0,B|190:86|245:131|146:142,1,136.500005207062,2|2,0:0|0:0,0:0:0:0:
63,358,311576,6,0,P|54:302|37:192,1,163.799995001221,2|0,0:0|0:0,0:0:0:0:
292,94,314184,22,0,B|327:51|407:48|407:48|405:134|359:172,1,254.799992224121,2|0,0:0|0:0,0:0:0:0:
