osu file format v14

[General]
AudioFilename: 07 - Magic Girl !!.mp3
AudioLeadIn: 2000
PreviewTime: 129270
Countdown: 0
SampleSet: Soft
StackLeniency: 0.2
Mode: 0
LetterboxInBreaks: 0
WidescreenStoryboard: 1

[Editor]
DistanceSpacing: 1.02
BeatDivisor: 4
GridSize: 32
TimelineZoom: 2.6

[Metadata]
Title:Magic Girl !!
TitleUnicode:Magic Girl !!
Artist:Shihori
ArtistUnicode:Shihori
Creator:kyle
Version:gaa gooo
Source:Touhou
Tags:2hu touhou magic girl !!
BeatmapID:2028089
BeatmapSetID:969363

[Difficulty]
HPDrainRate:7
CircleSize:4
OverallDifficulty:9
ApproachRate:9.7
SliderMultiplier:1.8
SliderTickRate:4

[Events]
//Background and Video events
0,0,"Capture.PNG",0,0
//Break Periods
//Storyboard Layer 0 (Background)
//Storyboard Layer 1 (Fail)
//Storyboard Layer 2 (Pass)
//Storyboard Layer 3 (Foreground)
//Storyboard Layer 4 (Overlay)
//Storyboard Sound Samples

[TimingPoints]
40,384.615384615385,4,2,1,54,1,0
5616,-51.9480519480519,4,2,1,54,0,0
10809,-133.333333333333,4,2,1,54,0,0
12347,-33.3333333333333,4,2,1,54,0,0
12540,-133.333333333333,4,2,1,54,0,0
13116,-25,4,2,1,54,0,0
13309,-133.333333333333,4,2,1,54,0,0
18309,-50,4,2,1,54,0,0
23309,-50,4,2,1,54,0,0
24655,-100,4,2,1,54,0,0
25616,-50,4,2,1,54,0,0
28501,-100,4,2,1,54,0,0
34270,-200,4,2,1,54,0,0
36578,-37.037037037037,4,2,1,54,0,0
48501,-66.6666666666667,4,2,1,54,0,0
49270,-37.037037037037,4,2,1,54,0,0
50809,-28.5714285714286,4,2,1,54,0,0
51578,-66.6666666666667,4,2,1,54,0,0
56193,-53.763440860215,4,2,1,54,0,0
61770,-107.52688172043,4,2,1,54,0,0
63116,-53.763440860215,4,2,1,54,0,0
67347,-107.52688172043,4,2,1,54,0,0
69270,-53.763440860215,4,2,1,54,0,0
70040,-107.52688172043,4,2,1,54,0,0
71578,-53.763440860215,4,2,1,54,0,0
73116,-35.4609929078014,4,2,1,54,0,0
78501,-53.763440860215,4,2,1,54,0,0
88501,-107.52688172043,4,2,1,54,0,0
89270,-35.0877192982456,4,2,1,54,0,0
91578,-107.52688172043,4,2,1,54,0,0
91866,-53.763440860215,4,2,1,54,0,0
129270,-66.6666666666667,4,2,1,54,0,0

[Colours]
Combo1 : 128,128,255
Combo2 : 255,0,128
Combo3 : 255,0,255
Combo4 : 255,255,0
Combo5 : 255,128,64
Combo6 : 128,255,128
Combo7 : 255,0,0

[HitObjects]
17,67,40,5,0,0:0:0:0:
97,138,232,1,0,0:0:0:0:
119,33,424,1,0,0:0:0:0:
224,54,616,5,0,0:0:0:0:
203,159,808,1,0,0:0:0:0:
308,180,1001,1,0,0:0:0:0:
287,285,1193,1,0,0:0:0:0:
378,99,1386,5,0,0:0:0:0:
399,204,1578,1,0,0:0:0:0:
294,225,1771,1,0,0:0:0:0:
315,330,1963,1,0,0:0:0:0:
170,111,2155,5,0,0:0:0:0:
287,285,2348,1,0,0:0:0:0:
80,299,2540,5,0,3:0:0:0:
277,232,2828,1,8,0:0:0:0:
450,117,3116,1,0,0:0:0:0:
509,28,3309,5,0,0:0:0:0:
401,21,3501,1,0,0:0:0:0:
305,69,3693,5,0,0:0:0:0:
257,212,3886,1,0,0:0:0:0:
353,165,4078,1,0,0:0:0:0:
304,308,4270,1,0,0:0:0:0:
168,152,4463,5,0,0:0:0:0:
282,252,4655,1,0,0:0:0:0:
175,259,4847,1,0,0:0:0:0:
289,359,5040,1,0,0:0:0:0:
282,252,5232,5,0,0:0:0:0:
396,352,5425,1,0,0:0:0:0:
510,252,5616,2,0,B|503:144|503:144|373:31,1,259.875002478361
282,52,6001,1,0,0:0:0:0:
168,152,6193,5,0,0:0:0:0:
175,259,6386,1,0,0:0:0:0:
396,352,6578,1,0,0:0:0:0:
289,359,6770,1,0,0:0:0:0:
510,252,6963,5,0,0:0:0:0:
503,145,7155,1,0,0:0:0:0:
282,52,7347,1,0,0:0:0:0:
389,45,7540,1,0,0:0:0:0:
130,61,7732,5,0,0:0:0:0:
23,68,7924,1,0,0:0:0:0:
214,189,8116,1,0,0:0:0:0:
274,279,8309,1,0,0:0:0:0:
208,82,8501,1,0,0:3:0:0:
317,344,8693,5,0,0:0:0:0:
214,189,8982,1,0,0:0:0:0:
202,0,9270,1,0,0:3:0:0:
181,105,9463,5,0,0:0:0:0:
286,126,9656,1,0,0:0:0:0:
365,237,9847,5,0,3:0:0:0:
470,257,10040,1,0,3:0:0:0:
215,206,10232,1,0,3:0:0:0:
110,185,10424,1,0,3:0:0:0:
136,317,10616,5,0,3:0:0:0:
31,337,10809,2,0,L|20:287,2,33.7500012874604
136,317,11193,2,0,L|125:367,2,33.7500012874604
241,297,11578,5,8,3:0:0:0:
205,147,11706,1,8,3:0:0:0:
218,40,11834,5,0,3:0:0:0:
188,193,11963,1,0,3:0:0:0:
135,297,12091,5,8,3:0:0:0:
171,147,12219,1,8,3:0:0:0:
158,41,12347,6,0,P|136:124|146:184,1,135.000005149842
188,193,12540,2,0,P|171:155|170:128,1,45
266,122,12732,5,0,0:0:0:0:
346,51,12828,1,0,0:0:0:0:
368,156,12924,1,0,0:0:0:0:
390,261,13020,5,0,0:0:0:0:
470,190,13116,2,0,P|415:57|350:36,1,180
346,51,13309,2,0,P|396:75|404:85,1,45
368,156,13501,1,0,0:0:0:0:
390,261,13597,1,0,0:0:0:0:
401,313,13693,2,0,P|351:289|343:279,1,45
447,336,13886,1,0,0:0:0:0:
146,229,14078,6,0,P|141:173|146:161,1,45
209,196,14270,1,0,0:0:0:0:
281,274,14366,1,0,0:0:0:0:
287,124,14559,1,0,0:0:0:0:
365,52,14655,1,0,0:0:0:0:
131,268,14847,5,0,0:0:0:0:
209,196,14943,1,0,0:0:0:0:
437,130,15136,5,8,3:0:0:0:
437,236,15232,1,8,3:0:0:0:
380,360,15424,5,8,3:0:0:0:
168,360,15616,1,8,3:0:0:0:
131,268,15809,5,0,0:0:0:0:
185,177,15905,1,0,0:0:0:0:
209,196,16001,1,0,0:0:0:0:
121,262,16097,1,0,0:0:0:0:
49,184,16193,5,0,0:0:0:0:
199,334,16386,5,0,0:0:0:0:
301,307,16482,1,0,0:0:0:0:
305,338,16578,1,0,0:0:0:0:
196,322,16674,1,0,0:0:0:0:
200,216,16770,5,0,0:0:0:0:
26,347,16963,1,0,0:0:0:0:
176,197,17155,1,0,0:0:0:0:
285,72,17347,5,0,0:0:0:0:
376,125,17443,1,0,0:0:0:0:
291,62,17540,1,0,0:0:0:0:
357,150,17636,1,0,0:0:0:0:
395,100,17732,6,0,B|421:69|421:69|456:94|470:136|460:174|426:191|422:201,1,168.750006437302
401,231,18309,2,0,P|393:190|332:227,1,135.000005149842
259,209,18501,5,0,0:0:0:0:
405,161,18693,1,0,0:0:0:0:
244,223,18885,1,0,3:0:0:0:
365,85,19078,1,0,0:0:0:0:
235,246,19270,1,0,3:0:0:0:
277,29,19463,1,0,0:0:0:0:
239,275,19656,1,0,3:0:0:0:
151,24,19847,1,0,0:0:0:0:
259,302,20040,5,0,3:0:0:0:
398,248,20232,1,0,0:0:0:0:
259,209,20424,1,0,0:0:0:0:
244,223,20520,1,0,3:0:0:0:
235,246,20616,1,0,3:0:0:0:
239,275,20713,1,0,3:0:0:0:
259,302,20809,1,0,3:0:0:0:
133,289,21001,5,0,0:0:0:0:
170,147,21193,1,0,0:0:0:0:
202,187,21289,1,0,3:0:0:0:
259,209,21385,1,0,3:0:0:0:
331,200,21482,1,0,3:0:0:0:
398,150,21578,1,0,3:0:0:0:
435,292,21770,5,0,0:0:0:0:
324,2,21963,1,0,3:0:0:0:
361,76,22060,1,0,3:0:0:0:
398,150,22156,1,0,3:0:0:0:
435,39,22251,1,0,3:0:0:0:
472,113,22347,1,0,3:0:0:0:
213,150,22540,5,0,3:0:0:0:
287,113,22636,1,0,3:0:0:0:
472,113,22828,5,0,3:0:0:0:
398,150,22924,1,0,3:0:0:0:
331,200,23020,1,0,3:0:0:0:
306,320,23116,5,8,3:0:0:0:
226,286,23212,1,0,3:0:0:0:
201,208,23309,2,0,L|220:125,1,45
148,311,23405,1,0,3:0:0:0:
123,233,23501,1,0,3:0:0:0:
137,152,23597,1,0,3:0:0:0:
151,71,23693,2,0,L|132:19,1,45
214,123,23790,1,0,0:0:0:0:
277,175,23886,5,8,3:0:0:0:
363,185,23982,1,0,3:0:0:0:
423,130,24079,2,0,L|448:48,1,45
265,187,24270,5,8,3:0:0:0:
411,142,24367,1,0,0:0:0:0:
253,199,24463,1,8,3:0:0:0:
399,154,24560,1,0,0:0:0:0:
96,128,24655,6,0,L|96:224,1,67.5000025749208
160,64,24847,1,0,0:0:0:0:
160,259,25040,5,0,0:0:0:0:
224,195,25136,1,0,0:0:0:0:
288,259,25232,1,0,0:0:0:0:
219,236,25328,5,0,0:0:0:0:
318,136,25424,1,0,0:0:0:0:
417,36,25616,6,0,B|416:79|416:79|369:97|334:173|347:204,1,180
389,210,25905,5,0,0:0:0:0:
315,281,26001,1,8,0:0:0:0:
244,207,26097,1,8,0:0:0:0:
318,136,26193,1,0,0:0:0:0:
173,133,26386,5,0,0:0:0:0:
35,179,26578,5,0,3:0:0:0:
106,253,26674,1,8,0:0:0:0:
173,133,26770,1,0,0:0:0:0:
244,207,26866,1,8,0:0:0:0:
318,136,26963,6,0,B|382:66|382:66|251:88,1,180
265,23,27251,2,0,L|265:210,1,180
211,135,27540,2,0,B|152:60|152:60|281:91,1,180,0|0,0:0|0:0,3:0:0:0:
214,187,27732,2,0,B|214:223|214:223|265:203,1,90
316,187,27924,2,0,B|316:223|316:223|265:203,1,90
235,246,28116,5,0,0:0:0:0:
266,148,28213,1,0,0:0:0:0:
298,244,28309,1,8,0:0:0:0:
214,187,28405,1,0,0:0:0:0:
316,187,28501,2,0,L|434:187,1,90
214,187,28790,5,0,0:0:0:0:
22,187,28886,1,0,0:0:0:0:
108,133,29078,5,8,3:0:0:0:
188,80,29174,1,8,3:0:0:0:
268,26,29270,1,0,0:0:0:0:
53,264,29655,1,0,0:0:0:0:
183,227,30040,5,0,0:0:0:0:
243,44,30168,1,0,0:0:0:0:
303,227,30296,1,0,0:0:0:0:
147,117,30424,1,0,0:0:0:0:
339,117,30552,5,0,0:0:0:0:
243,44,30681,1,0,0:0:0:0:
373,7,30809,5,0,0:0:0:0:
503,44,30905,1,0,0:0:0:0:
381,50,31001,5,0,0:0:0:0:
511,87,31097,1,0,0:0:0:0:
260,132,31193,1,0,0:0:0:0:
9,177,31386,1,0,0:0:0:0:
174,371,31578,1,8,0:0:0:0:
355,230,31770,5,0,0:0:0:0:
260,132,31866,1,0,0:0:0:0:
171,145,32059,5,0,0:0:0:0:
266,47,32155,1,0,0:0:0:0:
373,7,32347,5,0,0:0:0:0:
503,44,32443,1,0,0:0:0:0:
381,50,32539,5,0,0:0:0:0:
511,87,32635,1,0,0:0:0:0:
260,132,32731,1,0,0:0:0:0:
131,152,32924,1,8,3:0:0:0:
40,53,33117,1,8,3:0:0:0:
40,251,33501,1,8,3:0:0:0:
131,152,33694,1,8,3:0:0:0:
223,262,33886,5,8,0:0:0:0:
260,132,33982,1,8,0:0:0:0:
206,67,34078,5,8,0:0:0:0:
243,197,34174,1,8,0:0:0:0:
322,222,34270,2,0,L|306:274,1,33.7500012874604
164,172,34463,2,0,L|182:115,1,33.7500012874604
328,107,34655,5,0,0:0:0:0:
390,36,34847,1,0,0:0:0:0:
210,286,35040,1,0,0:0:0:0:
102,166,35232,1,0,0:0:0:0:
260,132,35424,5,0,0:0:0:0:
9,177,35617,1,0,0:0:0:0:
174,371,35809,1,8,0:0:0:0:
306,347,36001,5,8,0:0:0:0:
174,371,36193,5,8,0:0:0:0:
9,177,36385,1,0,0:0:0:0:
260,132,36578,2,0,B|263:138|246:177|243:212|243:212|211:232|213:271|237:299|238:310|238:310|274:280|274:280|290:260|290:260|287:286|291:309|291:309|327:320|327:320|397:332,1,364.500001390457
358,256,36963,5,0,0:0:0:0:
398,135,37059,1,0,0:0:0:0:
404,257,37155,5,0,0:0:0:0:
441,127,37251,1,0,0:0:0:0:
486,378,37347,1,0,0:0:0:0:
243,211,37540,1,0,0:0:0:0:
260,132,37732,5,0,0:0:0:0:
293,258,37924,5,0,0:0:0:0:
249,205,38020,1,0,0:0:0:0:
325,323,38213,5,0,0:0:0:0:
281,270,38309,1,0,0:0:0:0:
287,264,38501,5,0,0:0:0:0:
331,317,38597,1,0,0:0:0:0:
243,211,38693,1,0,0:0:0:0:
287,264,38789,1,0,0:0:0:0:
378,187,38886,1,0,0:0:0:0:
377,48,39078,5,0,0:0:0:0:
287,264,39270,6,0,B|180:358|180:358,3,121.500000463486
287,264,39655,1,0,0:0:0:0:
226,127,39847,1,0,0:0:0:0:
238,202,40040,5,0,0:0:0:0:
278,81,40136,1,0,0:0:0:0:
284,203,40232,5,0,0:0:0:0:
321,73,40328,1,0,0:0:0:0:
296,278,40424,1,0,0:0:0:0:
190,368,40616,1,0,0:0:0:0:
296,278,40809,1,0,0:0:0:0:
364,81,41001,5,0,0:0:0:0:
404,202,41097,1,0,0:0:0:0:
194,270,41290,5,8,0:0:0:0:
319,297,41386,1,0,0:0:0:0:
443,323,41578,5,0,0:0:0:0:
364,81,41770,1,0,0:0:0:0:
194,270,41963,1,8,0:0:0:0:
443,323,42155,5,0,0:0:0:0:
115,28,42347,2,0,L|324:214,1,243.000000926971
443,323,42732,5,0,0:0:0:0:
403,202,42828,1,0,0:0:0:0:
318,296,42924,1,8,0:0:0:0:
443,323,43020,5,0,0:0:0:0:
278,175,43116,2,0,L|382:268,2,121.500000463486
247,150,43405,1,0,0:0:0:0:
156,230,43501,5,0,0:0:0:0:
125,205,43597,1,0,0:0:0:0:
94,180,43693,1,0,0:0:0:0:
63,155,43790,1,0,0:0:0:0:
154,75,43886,5,0,0:0:0:0:
185,100,43983,1,0,0:0:0:0:
216,125,44079,1,0,0:0:0:0:
247,150,44175,1,0,0:0:0:0:
377,179,44270,5,0,3:0:0:0:
352,210,44367,1,0,3:0:0:0:
327,241,44463,1,0,3:0:0:0:
302,272,44559,1,0,3:0:0:0:
227,365,44655,5,0,3:0:0:0:
252,334,44752,1,0,3:0:0:0:
277,303,44848,1,0,3:0:0:0:
302,272,44944,1,0,3:0:0:0:
301,179,45040,5,0,0:0:0:0:
254,98,45136,1,0,0:0:0:0:
172,51,45232,1,0,3:0:0:0:
78,226,45328,1,8,3:0:0:0:
160,179,45424,2,0,P|239:283|245:395,1,243.000000926971
377,179,45713,2,0,P|298:283|292:369,2,121.500000463486
424,219,46001,1,0,0:0:0:0:
471,259,46097,1,0,0:0:0:0:
424,219,46193,5,0,0:0:0:0:
377,259,46290,1,0,0:0:0:0:
316,270,46386,1,0,3:0:0:0:
257,249,46482,1,8,3:0:0:0:
140,234,46578,5,0,0:0:0:0:
187,194,46675,1,0,0:0:0:0:
248,183,46771,1,0,3:0:0:0:
307,204,46867,1,8,3:0:0:0:
400,363,46963,5,0,0:0:0:0:
360,316,47060,1,0,0:0:0:0:
349,255,47156,1,0,3:0:0:0:
370,196,47252,1,8,3:0:0:0:
277,37,47347,5,0,0:0:0:0:
317,84,47444,1,0,0:0:0:0:
328,145,47540,1,0,3:0:0:0:
307,204,47636,1,8,3:0:0:0:
286,263,47732,2,0,L|243:377,1,121.500000463486
129,333,47924,2,0,L|172:219,1,121.500000463486
128,105,48117,5,0,3:0:0:0:
150,161,48213,1,0,0:0:0:0:
192,32,48405,5,0,3:0:0:0:
170,76,48501,1,8,0:0:0:0:
261,304,48597,1,0,0:0:0:0:
315,152,48790,5,0,3:0:0:0:
337,208,48886,1,0,0:0:0:0:
292,95,48982,1,0,0:0:0:0:
352,104,49078,5,0,3:0:0:0:
374,160,49174,1,0,3:0:0:0:
413,112,49270,2,0,B|200:82,1,121.500000463486
337,208,49463,6,0,B|256:8,1,121.500000463486
215,189,49655,1,0,0:0:0:0:
170,76,49751,2,0,B|292:96|292:96|215:190|215:190|171:74,1,364.500001390457
170,76,50040,1,0,0:0:0:0:
337,208,50136,6,0,B|214:189|214:189|258:302|258:302|333:209,1,364.500001390457
409,114,50616,1,0,0:0:0:0:
296,360,50809,2,0,L|407:221,2,157.500001502037
256,192,51097,5,0,0:0:0:0:
216,24,51193,2,0,L|105:163,2,157.500001502037
256,192,51482,5,0,0:0:0:0:
104,274,51578,2,0,L|176:186,3,67.5000025749208
272,62,51963,2,0,L|176:184,1,135.000005149842
215,20,52251,5,0,0:0:0:0:
439,183,52347,2,0,L|319:96,1,135.000005149842
482,127,52732,5,0,0:0:0:0:
396,239,52828,1,0,0:0:0:0:
482,351,52924,2,0,L|482:186,2,135.000005149842
396,351,53405,5,0,0:0:0:0:
310,351,53501,1,0,0:0:0:0:
224,216,53693,2,0,L|224:351,2,135.000005149842
310,81,54270,5,0,0:0:0:0:
224,216,54366,1,0,0:0:0:0:
310,351,54462,1,0,0:0:0:0:
309,187,54559,1,0,0:0:0:0:
139,245,54655,5,0,0:0:0:0:
240,228,54751,1,0,0:0:0:0:
181,296,54847,1,0,0:0:0:0:
94,186,54943,1,0,0:0:0:0:
310,81,55040,1,0,0:0:0:0:
310,167,55136,1,0,0:0:0:0:
310,253,55232,1,0,0:0:0:0:
310,339,55328,1,0,0:0:0:0:
310,81,55424,5,0,0:0:0:0:
396,339,55616,1,0,0:0:0:0:
129,284,55809,5,0,0:0:0:0:
54,326,55905,1,8,0:0:0:0:
55,240,56001,1,8,3:0:0:0:
203,328,56097,1,0,0:0:0:0:
128,370,56193,2,0,L|177:192,1,167.400005236359
170,208,56386,5,8,0:0:0:0:
148,124,56482,1,8,0:0:0:0:
231,147,56578,1,8,3:0:0:0:
392,190,56770,1,8,0:0:0:0:
231,147,56963,5,8,3:0:0:0:
148,124,57059,1,8,0:0:0:0:
170,208,57155,1,8,0:0:0:0:
128,370,57347,5,0,0:0:0:0:
203,328,57443,1,0,0:0:0:0:
55,240,57540,1,8,3:0:0:0:
54,326,57636,1,8,0:0:0:0:
129,284,57732,1,0,0:0:0:0:
458,58,57924,5,8,3:0:0:0:
386,105,58020,1,0,3:0:0:0:
314,152,58116,1,0,3:0:0:0:
451,125,58213,1,8,3:0:0:0:
430,174,58309,1,0,3:0:0:0:
379,172,58405,1,0,3:0:0:0:
501,167,58501,1,8,3:0:0:0:
469,240,58597,1,0,3:0:0:0:
392,237,58693,1,0,3:0:0:0:
368,96,58886,5,8,3:0:0:0:
378,167,58982,1,8,3:0:0:0:
368,96,59078,1,8,3:0:0:0:
392,237,59174,1,0,3:0:0:0:
227,120,59270,1,0,3:0:0:0:
62,237,59463,6,0,L|37:101,1,83.7000026181794
217,49,59655,1,8,3:0:0:0:
247,256,59847,1,0,3:0:0:0:
62,237,60040,5,0,0:0:0:0:
247,256,60136,1,0,0:0:0:0:
432,275,60232,1,0,3:0:0:0:
331,326,60423,5,0,3:0:0:0:
247,256,60520,1,0,0:0:0:0:
432,275,60616,1,0,3:0:0:0:
432,275,60809,5,0,3:0:0:0:
356,106,60905,1,0,0:0:0:0:
247,256,61001,1,0,0:0:0:0:
244,262,61097,5,0,0:0:0:0:
189,337,61194,5,0,0:0:0:0:
151,252,61290,1,0,3:0:0:0:
167,91,61386,5,0,3:0:0:0:
205,176,61482,1,0,0:0:0:0:
75,198,61578,2,0,P|62:291|109:334,2,83.7000026181794
205,176,61770,6,0,P|240:263|204:316,1,83.7000026181794
227,306,61963,1,0,0:0:0:0:
293,347,62059,1,0,0:0:0:0:
334,281,62155,1,8,0:0:0:0:
317,65,62347,6,0,L|267:173,1,83.7000026181794
210,113,62540,2,0,P|210:167|273:218,1,125.550003927269
334,281,62828,2,0,P|279:318|199:294,1,125.550003927269
126,304,63116,6,0,P|70:252|9:151,1,167.400005236359
50,86,63309,2,0,P|72:140|100:158,1,83.7000026181794
285,78,63501,5,0,0:0:0:0:
219,37,63597,1,0,0:0:0:0:
178,103,63693,1,8,0:0:0:0:
288,81,63790,5,0,0:0:0:0:
175,106,63886,2,0,L|118:173,1,83.7000026181794
76,220,64078,1,0,0:0:0:0:
212,333,64270,5,0,0:0:0:0:
253,267,64366,1,0,0:0:0:0:
187,226,64462,1,8,0:0:0:0:
209,336,64559,5,0,0:0:0:0:
184,223,64655,2,0,L|117:166,1,83.7000026181794
328,161,64847,2,0,L|395:218,1,83.7000026181794
203,68,65040,5,0,0:0:0:0:
147,87,65136,5,0,0:0:0:0:
96,108,65232,5,0,0:0:0:0:
416,108,65424,5,0,0:0:0:0:
328,161,65520,1,0,0:0:0:0:
240,214,65616,1,0,0:0:0:0:
152,267,65713,1,0,0:0:0:0:
242,317,65809,1,0,0:0:0:0:
152,367,65905,1,0,0:0:0:0:
242,317,66001,5,0,0:0:0:0:
152,267,66097,1,0,0:0:0:0:
62,217,66193,1,0,0:0:0:0:
238,111,66482,1,0,0:0:0:0:
414,217,66770,5,0,0:0:0:0:
62,217,66866,1,0,0:0:0:0:
414,217,66963,6,0,L|414:287,1,41.8500013090897
371,270,67059,2,0,L|370:200,1,41.8500013090897
331,215,67155,2,0,L|331:256,1,41.8500013090897
288,268,67251,2,0,L|288:226,1,41.8500013090897
260,202,67347,6,0,B|230:208|230:208|211:238|211:238,1,62.7750019636346
173,380,67540,1,0,0:0:0:0:
62,217,67636,1,0,0:0:0:0:
260,202,67732,1,0,0:0:0:0:
389,51,67828,5,0,3:0:0:0:
257,205,67924,1,0,0:0:0:0:
103,73,68020,1,0,3:0:0:0:
257,211,68116,1,0,0:0:0:0:
414,346,68309,6,0,B|376:328|376:328|372:279,1,83.7000026181794
302,287,68501,1,0,0:0:0:0:
389,51,68693,5,0,3:0:0:0:
501,110,68886,1,0,0:0:0:0:
265,24,69078,1,0,0:0:0:0:
29,110,69270,2,0,L|64:213,2,83.7000026181794
153,137,69559,5,0,3:0:0:0:
277,164,69655,5,0,3:0:0:0:
303,243,69751,1,0,0:0:0:0:
280,167,69847,1,0,3:0:0:0:
254,88,69943,5,0,3:0:0:0:
404,194,70040,6,0,L|377:114,1,83.7000026181794
430,273,70232,1,0,0:0:0:0:
29,110,70424,6,0,L|64:213,1,83.7000026181794
81,268,70616,1,0,0:0:0:0:
239,216,70809,5,0,0:0:0:0:
81,268,70905,1,0,0:0:0:0:
29,110,71001,1,0,0:0:0:0:
187,58,71097,1,0,0:0:0:0:
160,110,71193,5,0,0:0:0:0:
81,136,71289,1,0,0:0:0:0:
107,215,71385,1,0,0:0:0:0:
186,189,71481,1,0,0:0:0:0:
343,268,71578,6,0,B|422:293|422:293|396:373|396:373|317:347,1,251.100007854538
316,346,71866,1,0,0:0:0:0:
237,319,71963,6,0,B|262:240|262:240|342:266|342:266|316:345,1,251.100007854538
183,213,72347,2,0,L|146:321,1,83.7000026181794
101,186,72540,2,0,L|64:294,1,83.7000026181794
370,189,72732,2,0,L|333:297,1,83.7000026181794
288,162,72925,2,0,L|251:270,1,83.7000026181794
101,186,73116,2,0,L|379:281,2,253.79998702652
128,106,73501,6,0,L|406:201,1,253.79998702652
288,162,73790,5,0,0:0:0:0:
258,241,73886,1,0,0:0:0:0:
368,188,73982,1,0,0:0:0:0:
179,211,74078,1,0,0:0:0:0:
341,268,74174,1,0,0:0:0:0:
128,106,74270,5,0,0:0:0:0:
421,295,74463,1,0,0:0:0:0:
448,215,74655,5,0,0:0:0:0:
179,211,74847,1,0,0:0:0:0:
489,51,75040,1,0,0:0:0:0:
245,115,75232,1,0,0:0:0:0:
479,372,75425,5,0,0:0:0:0:
421,300,75520,1,0,0:0:0:0:
448,215,75616,1,0,0:0:0:0:
390,143,75713,1,0,0:0:0:0:
272,6,75809,5,0,0:0:0:0:
330,78,75904,1,0,0:0:0:0:
303,163,76000,1,0,0:0:0:0:
361,235,76097,1,0,0:0:0:0:
233,280,76193,2,0,L|49:55,2,253.79998702652
14,11,76770,1,0,0:0:0:0:
233,280,76963,5,0,0:0:0:0:
51,23,77155,1,8,0:0:0:0:
245,310,77347,2,0,L|407:364,2,126.89999351326
452,380,77636,1,0,0:0:0:0:
221,250,77732,2,0,L|100:209,2,126.89999351326
13,179,78020,1,0,0:0:0:0:
217,104,78116,1,0,0:0:0:0:
129,134,78212,2,0,L|8:174,2,126.89999351326
308,68,78501,6,0,P|408:34|348:182,1,334.800010472718
446,68,78693,1,0,0:0:0:0:
378,109,78886,5,0,0:0:0:0:
440,80,78982,1,0,0:0:0:0:
372,121,79079,1,0,0:0:0:0:
304,171,79174,5,0,0:0:0:0:
242,200,79270,2,0,L|203:301,1,83.7000026181794
310,159,79367,1,0,0:0:0:0:
310,159,79463,6,0,P|190:89|190:242,1,334.800010472718
173,231,80040,5,0,0:0:0:0:
186,91,80137,1,0,0:0:0:0:
142,157,80232,5,0,0:0:0:0:
264,91,80328,1,0,0:0:0:0:
260,229,80424,1,0,0:0:0:0:
504,97,80616,6,0,P|491:237|399:169,1,251.100007854538
291,159,81001,5,0,0:0:0:0:
295,297,81097,1,0,0:0:0:0:
173,231,81193,1,0,0:0:0:0:
169,92,81290,1,0,0:0:0:0:
304,172,81386,1,0,0:0:0:0:
280,306,81578,5,0,0:0:0:0:
158,240,81674,1,0,0:0:0:0:
19,185,81770,1,0,0:0:0:0:
141,251,81963,5,0,0:0:0:0:
263,185,82059,1,0,0:0:0:0:
402,130,82155,1,0,0:0:0:0:
507,317,82347,5,0,0:0:0:0:
385,251,82443,1,0,0:0:0:0:
246,196,82539,1,0,0:0:0:0:
107,141,82732,5,0,0:0:0:0:
119,153,82828,1,0,0:0:0:0:
131,165,82924,2,0,L|69:94,1,83.7000026181794
75,101,83116,5,0,0:0:0:0:
143,177,83213,1,0,0:0:0:0:
97,117,83309,5,0,0:0:0:0:
142,206,83406,1,0,0:0:0:0:
107,141,83501,6,0,L|201:264,1,83.7000026181794
208,140,83693,2,0,L|157:206,1,83.7000026181794
107,141,83886,2,0,B|109:157|89:70|156:150|156:150|229:79|198:165,1,167.400005236359
405,141,84270,6,0,L|321:225,2,83.7000026181794
304,142,84655,1,0,0:0:0:0:
244,201,84751,1,0,0:0:0:0:
304,142,84848,1,0,0:0:0:0:
247,87,84943,1,0,0:0:0:0:
307,28,85040,6,0,L|391:112,1,83.7000026181794
301,256,85232,2,0,L|217:340,1,83.7000026181794
73,250,85424,2,0,L|157:334,1,83.7000026181794
79,22,85616,6,0,L|226:178,2,167.400005236359,0|0|0,3:0|3:0|3:0,3:0:0:0:
249,200,86193,5,0,0:0:0:0:
427,30,86289,1,0,3:0:0:0:
255,206,86386,1,0,3:0:0:0:
425,384,86482,1,0,3:0:0:0:
261,212,86578,1,0,3:0:0:0:
79,22,86770,6,0,L|224:180,1,167.400005236359,0|0,3:0|3:0,3:0:0:0:
244,68,87155,6,0,L|363:68,2,83.7000026181794
411,131,87443,2,0,L|327:131,2,83.7000026181794
297,295,87732,5,0,0:0:0:0:
158,240,87828,1,0,0:0:0:0:
19,185,87924,1,0,0:0:0:0:
41,333,88020,1,0,0:0:0:0:
136,93,88116,5,0,0:0:0:0:
275,148,88213,1,0,0:0:0:0:
136,93,88309,2,0,L|26:50,1,83.7000026181794
414,203,88501,2,0,L|389:272,1,41.8500013090897
297,295,88693,5,0,0:0:0:0:
158,240,88790,1,0,0:0:0:0:
275,148,88886,2,0,L|289:108,1,41.8500013090897
414,203,89078,2,0,L|399:242,1,41.8500013090897
136,93,89270,6,0,P|94:160|113:210,2,128.250001223087
204,58,89559,1,0,0:0:0:0:
129,349,89655,6,0,P|118:287|157:239,1,128.250001223087
183,163,89847,6,0,P|244:152|292:191,1,128.250001223087
141,22,90040,1,0,0:0:0:0:
82,272,90232,5,0,0:0:0:0:
283,55,90328,1,0,0:0:0:0:
226,305,90424,1,0,0:0:0:0:
327,197,90520,1,0,0:0:0:0:
370,338,90616,1,0,0:0:0:0:
141,22,90809,5,0,0:0:0:0:
326,197,91193,1,0,0:0:0:0:
82,272,91578,2,0,B|97:243|97:243|129:227|129:227|139:199,1,83.7000026181794
175,168,91866,2,0,B|192:168|192:168|196:147|196:147|218:151|218:151|312:163|331:21|224:12,1,251.100007854538
407,72,92347,5,0,0:0:0:0:
229,84,92443,1,0,0:0:0:0:
399,115,92540,1,0,0:0:0:0:
221,127,92636,1,0,0:0:0:0:
200,276,92732,1,0,0:0:0:0:
188,98,92924,1,0,0:0:0:0:
200,276,93116,1,0,0:0:0:0:
233,305,93309,5,0,0:0:0:0:
221,127,93405,1,0,0:0:0:0:
241,262,93597,5,0,0:0:0:0:
229,84,93693,1,0,0:0:0:0:
389,162,93886,1,0,0:0:0:0:
233,305,93982,5,0,0:0:0:0:
188,98,94078,1,0,0:0:0:0:
430,148,94174,1,0,0:0:0:0:
200,276,94270,5,0,0:0:0:0:
422,191,94463,1,0,0:0:0:0:
204,12,94655,1,0,0:0:0:0:
