osu file format v14

[General]
AudioFilename: audio.mp3
AudioLeadIn: 0
PreviewTime: 49374
Countdown: 0
SampleSet: Normal
StackLeniency: 0.7
Mode: 0
LetterboxInBreaks: 0
WidescreenStoryboard: 1

[Editor]
Bookmarks: 1615,3857,22477,33512,37822,41788,50064,63857,83167,99719,110753,115064,119029,127305,154891,199029,215581,219719,231788,248684
DistanceSpacing: 0.9
BeatDivisor: 4
GridSize: 4
TimelineZoom: 1.9

[Metadata]
Title:key plus words
TitleUnicode:key plus words
Artist:Shihoko Hirata feat. Yumi Kawamura
ArtistUnicode:平田志穂子 feat. 川村ゆみ
Creator:Pigeons
Version:wanna see Insane?
Source:Persona4 the ANIMATION
Tags:Shin Megami Tensei: Persona 4 The Golden Animation Persona 4: The Animation P4G P4 P4A P4AG Shoji Meguro 目黒將司 Lotus Juice ペルソナ4 6【完全生産限定版】 花村陽介 Yosuke Hanamura 久慈川りせ Rise Kujikawa 天城雪子 amagi yukiko 番長 bancho 里中千枝 chie satonaka 巽完二 Kanji Tatsumi 白鐘直斗 shirogane naoto 自称特別捜査隊 jishoutokubetsusousatai 鳴上悠 narukami yui Japanese Rock J-rock Jrock role-playing video game dahkjdas anime opening full.ver version
BeatmapID:3594620
BeatmapSetID:1756555

[Difficulty]
HPDrainRate:5
CircleSize:4
OverallDifficulty:8.5
ApproachRate:8.8
SliderMultiplier:1.9
SliderTickRate:1

[Events]
//Background and Video events
0,0,"wannasee.jpg",0,0
//Break Periods
//Storyboard Layer 0 (Background)
//Storyboard Layer 1 (Fail)
//Storyboard Layer 2 (Pass)
//Storyboard Layer 3 (Foreground)
//Storyboard Layer 4 (Overlay)
//Storyboard Sound Samples

[TimingPoints]
409,344.827586206897,4,1,1,60,1,0
1960,-250,4,1,1,60,0,0
3167,-200,4,1,1,60,0,0
5926,-100,4,1,1,60,0,0
7477,-200,4,1,1,60,0,0
10236,-133.333333333333,4,1,1,70,0,0
11443,-100,4,1,1,60,0,0
22477,-100,4,1,1,65,0,0
48684,-166.666666666667,4,1,1,55,0,0
49719,-166.666666666667,4,1,1,65,0,0
50064,-100,4,1,1,70,0,1
77650,-100,4,1,1,60,0,0
79202,-200,4,1,1,60,0,0
80064,-200,4,1,1,40,0,0
80409,-200,4,1,1,60,0,0
83167,-100,4,1,1,60,0,0
84719,-200,4,1,1,60,0,0
88167,-133.333333333333,4,1,1,60,0,0
88684,-100,4,1,1,60,0,0
98512,-133.333333333333,4,1,1,60,0,0
99202,-100,4,1,1,60,0,0
99719,-100,4,1,1,60,0,0
125926,-166.666666666667,4,1,1,55,0,0
126960,-133.333333333333,4,1,1,65,0,0
127305,-100,4,1,1,70,0,1
154891,-142.857142857143,4,1,1,55,0,0
165926,-100,4,1,1,65,0,0
176960,-200,4,2,1,45,0,0
187995,-125,4,1,1,55,0,0
197305,-333.333333333333,4,1,1,45,0,0
198684,-333.333333333333,4,1,1,65,0,0
199029,-100,4,1,1,70,0,1
248684,-100,4,1,1,60,0,0
250236,-250,4,1,1,60,0,0
253340,-200,4,1,1,60,0,0
254202,-100,4,1,1,60,0,0
255753,-200,4,1,1,60,0,0
256271,-100,4,1,1,60,0,0

[Colours]
Combo1 : 250,180,240
Combo2 : 120,200,230
Combo3 : 255,230,130
Combo4 : 160,230,150

[HitObjects]
115,23,409,5,14,0:0:0:0:
5,147,581,1,10,0:0:0:0:
5,147,926,2,0,P|26:191|24:242,1,95,2|0,0:0|0:0,0:0:0:0:
167,125,1271,2,0,P|118:121|75:93,1,95,2|0,0:0|0:0,0:0:0:0:
116,272,1615,2,0,P|143:231|188:208,1,95,2|0,0:0|0:0,0:0:0:0:
354,101,1960,2,0,B|295:130|296:195|296:195|354:223|371:278,1,228,2|0,0:0|0:0,0:0:0:0:
512,363,3167,5,4,0:0:0:0:
433,384,3340,1,2,0:0:0:0:
422,375,3684,5,0,0:0:0:0:
400,297,3857,1,0,0:0:0:0:
343,354,4029,1,2,0:0:0:0:
333,345,4374,5,0,0:0:0:0:
285,231,4546,1,0,0:0:0:0:
192,304,4719,1,2,0:0:0:0:
187,312,5064,6,0,L|249:307,1,47.5,2|0,0:0|0:0,0:0:0:0:
339,221,5409,2,0,L|291:224,1,47.5,2|0,0:0|0:0,0:0:0:0:
402,16,5926,5,14,0:0:0:0:
512,140,6098,1,10,0:0:0:0:
512,140,6443,2,0,P|474:165|406:162,1,95,2|0,0:0|0:0,0:0:0:0:
283,60,6788,2,0,P|323:80|355:140,1,95,2|0,0:0|0:0,0:0:0:0:
333,298,7133,2,0,P|330:252|366:195,1,95,2|0,0:0|0:0,0:0:0:0:
377,374,7477,2,0,B|306:407|246:348|183:285|107:334,1,285,2|0,0:0|0:0,0:0:0:0:
227,152,8684,5,4,0:0:0:0:
152,223,8857,1,2,0:0:0:0:
144,235,9202,5,0,0:0:0:0:
63,186,9374,1,0,0:0:0:0:
21,270,9546,1,2,0:0:0:0:
11,258,9891,5,0,0:0:0:0:
164,384,10064,1,0,0:0:0:0:
254,354,10236,2,0,B|141:346|141:346|159:376,1,142.500005435944,10|0,0:0|0:0,0:0:0:0:
340,360,10753,6,0,P|336:325|317:296,1,71.2500027179719,8|0,0:0|0:0,0:0:0:0:
230,128,11098,1,8,0:0:0:0:
236,150,11184,1,8,0:0:0:0:
238,173,11271,1,8,0:0:0:0:
235,196,11357,1,8,0:0:0:0:
227,218,11443,5,6,0:0:0:0:
129,53,11615,2,0,P|82:51|42:75,1,95,2|8,0:0|0:0,0:0:0:0:
64,200,11960,2,0,P|110:201|150:177,1,95,2|0,0:0|0:0,0:0:0:0:
296,13,12305,1,2,0:0:0:0:
272,143,12477,1,8,0:0:0:0:
416,90,12650,2,0,P|404:136|393:182,1,95,2|0,0:0|0:0,0:0:0:0:
451,333,12995,6,0,P|396:277|284:292,1,190,2|0,0:0|0:0,0:0:0:0:
259,384,13512,2,0,P|306:377|361:372,1,95
183,311,13857,1,8,0:0:0:0:
183,311,14029,1,0,0:0:0:0:
51,384,14202,5,0,0:0:0:0:
105,224,14374,1,2,0:0:0:0:
3,258,14546,2,0,L|99:240,1,95,8|0,0:0|0:0,0:0:0:0:
282,280,14891,5,0,0:0:0:0:
228,120,15064,1,2,0:0:0:0:
330,154,15236,2,0,L|234:136,1,95,8|0,0:0|0:0,0:0:0:0:
48,162,15581,5,0,0:0:0:0:
118,6,15753,1,2,0:0:0:0:
43,173,15926,1,8,0:0:0:0:
12,42,16098,2,0,P|103:33|165:102,1,190,2|2,0:0|0:0,0:0:0:0:
263,197,16615,1,8,0:0:0:0:
164,100,16788,1,0,0:0:0:0:
297,14,16960,5,4,0:0:0:0:
486,90,17133,2,0,P|438:91|394:108,1,95,2|8,0:0|0:0,0:0:0:0:
420,257,17477,2,0,P|372:255|328:238,1,95,2|0,0:0|0:0,0:0:0:0:
266,85,17822,1,2,0:0:0:0:
199,223,17995,1,8,0:0:0:0:
87,104,18167,6,0,L|106:201,1,95,2|0,0:0|0:0,0:0:0:0:
31,303,18512,2,0,B|108:287|130:364|210:350,1,190,2|0,0:0|0:0,0:0:0:0:
209,350,18943,1,0,0:0:0:0:
209,350,19029,1,4,0:2:0:0:
359,347,19202,6,0,L|427:344,1,47.5,2|0,0:0|0:0,0:0:0:0:
288,265,19374,2,0,L|205:260,1,47.5,10|0,0:0|0:0,0:0:0:0:
279,250,19546,2,0,L|196:245,1,47.5,2|0,0:0|0:0,0:0:0:0:
404,183,19719,5,4,0:0:0:0:
481,148,19891,1,2,0:0:0:0:
492,133,20236,5,0,0:0:0:0:
415,98,20409,1,0,0:0:0:0:
239,160,20581,1,8,1:2:0:0:
239,13,20753,5,0,0:0:0:0:
292,86,20926,1,0,0:0:0:0:
153,132,21098,1,0,0:0:0:0:
153,41,21271,1,2,0:0:0:0:
239,160,21443,5,8,0:2:0:0:
153,132,21615,1,2,0:0:0:0:
139,124,21960,5,2,0:0:0:0:
25,219,22133,1,8,0:0:0:0:
19,250,22219,1,8,0:0:0:0:
23,281,22305,1,8,0:0:0:0:
36,309,22391,1,8,0:0:0:0:
57,331,22477,6,0,P|103:342|166:326,1,95,6|0,0:0|0:0,0:0:0:0:
183,228,22822,1,8,0:0:0:0:
301,374,22995,2,0,P|259:291|315:219,1,190,2|2,0:0|0:0,0:0:0:0:
419,231,23512,1,8,0:0:0:0:
468,332,23684,2,0,L|367:309,1,95,2|0,0:0|0:0,0:0:0:0:
280,129,24029,2,0,L|381:143,1,95,2|8,0:0|0:0,0:0:0:0:
466,39,24374,5,0,0:0:0:0:
466,39,24546,2,0,L|371:25,1,95
220,61,24891,2,0,P|264:91|280:148,1,95,8|0,0:0|0:0,0:0:0:0:
144,297,25236,5,4,0:0:0:0:
264,253,25409,1,2,0:0:0:0:
264,253,25581,1,8,0:0:0:0:
278,235,25753,5,0,0:0:0:0:
189,143,25926,1,4,0:0:0:0:
69,187,26098,1,2,0:0:0:0:
69,187,26271,1,8,0:0:0:0:
48,196,26443,5,0,0:0:0:0:
0,127,26615,1,4,0:0:0:0:
55,63,26788,1,2,0:0:0:0:
103,132,26960,1,8,0:0:0:0:
48,196,27133,2,0,P|37:243|19:286,1,95,2|0,0:0|0:0,0:0:0:0:
141,354,27477,2,0,P|152:307|169:263,1,95,2|8,0:0|0:0,0:0:0:0:
245,137,27822,1,0,0:0:0:0:
402,225,27995,6,0,P|357:241|300:224,1,95,6|2,0:0|0:0,0:0:0:0:
245,137,28340,1,8,0:0:0:0:
295,67,28512,2,0,P|386:63|435:140,1,190,6|6,0:0|0:0,0:0:0:0:
402,225,29029,1,8,0:0:0:0:
245,137,29202,2,0,L|224:264,1,95,2|0,0:0|0:0,0:0:0:0:
387,331,29546,2,0,B|342:303|342:303|301:303,1,95,2|8,0:0|0:0,0:0:0:0:
203,384,29891,5,0,0:0:0:0:
203,384,30064,2,0,P|145:376|101:333,1,95
0,275,30409,2,8,P|39:249|86:246,1,95,8|0,0:0|0:0,0:0:0:0:
71,153,30753,5,4,0:0:0:0:
160,175,30926,1,2,0:0:0:0:
249,197,31098,2,0,L|184:267,1,95,8|0,0:0|0:0,0:0:0:0:
108,328,31443,5,4,0:0:0:0:
82,239,31616,1,2,0:0:0:0:
57,151,31788,2,0,L|149:173,1,95,8|0,0:0|0:0,0:0:0:0:
264,201,32133,5,0,0:0:0:0:
351,183,32305,2,0,P|383:209|413:265,1,95,2|8,0:0|0:0,0:0:0:0:
443,141,32650,2,0,P|503:108|485:-7,1,190,2|2,0:0|0:0,0:0:0:0:
390,46,33167,1,8,0:0:0:0:
142,0,33512,5,4,0:0:0:0:
199,72,33684,2,0,L|177:171,1,95,2|8,0:0|0:0,0:0:0:0:
3,188,34029,2,0,B|51:154|98:183|98:183|113:238|174:248,1,190,2|2,0:0|0:0,0:0:0:0:
326,242,34546,2,0,P|284:220|237:221,1,95,8|2,0:0|0:0,0:0:0:0:
199,72,34891,5,0,0:0:0:0:
271,15,35064,2,0,L|370:37,1,95,2|8,0:0|0:0,0:0:0:0:
512,142,35409,2,0,B|485:90|430:93|430:93|391:135|332:115,1,190,2|2,0:0|0:0,0:0:0:0:
237,221,35926,2,0,P|278:199|325:200,1,95,8|0,0:0|0:0,0:0:0:0:
97,183,36271,5,4,0:0:0:0:
180,288,36443,2,0,P|177:334|153:375,1,95,2|8,0:0|0:0,0:0:0:0:
289,384,36788,5,2,0:0:0:0:
289,384,37133,2,0,P|329:375|383:356,1,95,2|8,0:0|0:0,0:0:0:0:
482,278,37477,5,2,0:0:0:0:
482,278,37822,2,0,P|483:237|496:171,1,95,2|8,0:0|0:0,0:0:0:0:
489,41,38167,1,2,0:0:0:0:
355,97,38340,6,0,P|306:101|246:83,1,95
83,14,38684,2,0,P|110:54|125:115,1,95,8|0,0:0|0:0,0:0:0:0:
139,274,39029,2,0,P|160:229|205:186,1,95,2|0,0:0|0:0,0:0:0:0:
299,347,39374,2,0,P|254:332|206:343,1,95,8|0,0:0|0:0,0:0:0:0:
372,285,39719,1,2,0:0:0:0:
335,117,39891,2,0,P|323:180|315:223,1,95,2|8,0:0|0:0,0:0:0:0:
299,347,40236,6,0,P|369:315|462:399,1,190,2|0,0:0|0:0,0:0:0:0:
232,258,40753,2,0,L|113:278,1,95,8|0,0:0|0:0,0:0:0:0:
11,168,41098,2,0,L|105:151,1,95,2|0,0:0|0:0,0:0:0:0:
133,18,41443,1,8,0:0:0:0:
145,24,41788,5,2,0:0:0:0:
223,82,41960,2,0,P|241:119|244:173,1,95,2|8,0:0|0:0,0:0:0:0:
331,104,42305,2,0,P|370:90|412:48,1,95,2|0,0:0|0:0,0:0:0:0:
291,12,42650,1,0,0:0:0:0:
368,192,42822,2,0,L|471:201,1,95,10|0,0:0|0:0,0:0:0:0:
483,303,43167,6,0,P|483:261|473:198,1,95
326,113,43512,2,0,P|325:154|330:209,1,95,8|0,0:0|0:0,0:0:0:0:
256,334,43857,1,0,0:0:0:0:
106,260,44029,1,0,0:0:0:0:
206,166,44202,2,0,P|206:207|198:261,1,95,8|0,0:0|0:0,0:0:0:0:
7,342,44546,6,0,P|3:264|41:147,1,190,14|8,0:0|0:0,0:0:0:0:
174,83,45064,2,0,P|130:74|64:70,1,95
116,165,45409,1,0,0:0:0:0:
248,27,45581,6,0,P|338:20|447:64,1,190,14|0,0:0|0:0,0:0:0:0:
400,164,46098,1,0,0:0:0:0:
297,132,46271,1,8,0:0:0:0:
265,235,46443,1,0,0:0:0:0:
367,267,46615,6,0,P|317:299|189:313,1,190,14|8,0:0|0:0,0:0:0:0:
54,242,47133,1,0,0:0:0:0:
157,210,47306,1,8,0:0:0:0:
189,313,47478,1,0,0:0:0:0:
157,210,47650,6,0,P|149:138|178:11,1,190,14|0,0:0|0:0,0:0:0:0:
335,28,48167,1,2,0:0:0:0:
408,155,48340,1,0,0:0:0:0:
277,245,48512,1,0,0:0:0:0:
277,245,48598,1,0,0:0:0:0:
277,245,48684,6,0,P|296:203|252:93,1,170.999994781494,12|8,0:3|0:3,0:0:0:0:
152,279,49374,1,2,0:0:0:0:
152,279,49460,1,0,0:0:0:0:
152,279,49546,1,2,0:0:0:0:
298,376,49719,1,8,0:2:0:0:
327,384,49805,1,8,0:0:0:0:
358,384,49891,1,8,0:0:0:0:
388,376,49977,1,8,0:0:0:0:
414,360,50064,6,0,P|415:309|404:262,1,95,14|0,0:0|0:0,0:0:0:0:
245,147,50409,2,0,P|246:188|256:253,1,95,8|0,0:0|0:0,0:0:0:0:
166,367,50753,2,0,P|124:372|62:369,1,95
0,217,51098,1,8,0:0:0:0:
125,268,51271,6,0,P|126:226|135:170,1,95
204,8,51615,1,0,0:0:0:0:
213,117,51788,1,8,0:0:0:0:
113,71,51960,1,0,0:0:0:0:
306,52,52133,1,2,0:0:0:0:
306,52,52219,1,0,0:0:0:0:
306,52,52305,1,2,0:0:0:0:
467,183,52477,2,0,P|434:150|389:137,1,95,8|0,0:0|0:0,0:0:0:0:
228,254,52822,6,0,B|267:206|321:196|321:196|352:232|408:221,1,190,6|8,0:0|0:0,0:0:0:0:
264,359,53340,1,0,0:0:0:0:
130,227,53512,2,0,P|88:221|35:208,1,95
0,335,53857,2,0,P|41:340|102:358,1,95,8|0,0:0|0:0,0:0:0:0:
257,368,54202,6,0,P|233:276|245:183,1,190,6|8,0:0|0:0,0:0:0:0:
326,33,54719,1,0,0:0:0:0:
410,150,54891,2,0,P|458:153|504:163,1,95
258,95,55236,2,0,P|211:86|164:81,1,95,8|0,0:0|0:0,0:0:0:0:
336,116,55581,6,0,B|315:178|366:221|366:221|333:290,1,190,6|8,0:0|0:0,0:0:0:0:
240,230,56098,1,0,0:0:0:0:
108,362,56271,1,0,0:0:0:0:
184,384,56443,1,0,0:0:0:0:
169,169,56615,2,0,L|74:157,1,95,10|0,0:0|0:0,0:0:0:0:
248,319,56960,6,0,L|342:330,1,95,4|0,0:0|0:0,0:0:0:0:
465,201,57305,2,0,L|366:190,1,95,8|0,0:0|0:0,0:0:0:0:
219,27,57650,1,0,0:0:0:0:
182,134,57822,1,0,0:0:0:0:
292,107,57995,2,0,P|331:91|368:49,1,95,8|0,0:0|0:0,0:0:0:0:
85,80,58340,6,0,P|96:193|111:282,1,190,6|8,0:0|0:0,0:0:0:0:
126,384,58857,1,0,0:0:0:0:
213,319,59029,2,0,P|206:278|199:217,1,95
12,270,59374,2,0,P|19:311|22:364,1,95,8|0,0:0|0:0,0:0:0:0:
136,364,59719,5,8,0:0:0:0:
363,305,59891,1,4,0:0:0:0:
194,211,60064,5,8,0:0:0:0:
383,311,60236,1,0,0:0:0:0:
301,169,60409,5,6,0:0:0:0:
301,169,60495,1,0,0:0:0:0:
301,169,60581,1,2,0:0:0:0:
201,56,60753,2,0,P|153:49|107:40,1,95,8|0,0:0|0:0,0:0:0:0:
352,3,61098,6,0,P|347:49|340:102,1,95,6|0,0:0|0:0,0:0:0:0:
277,249,61443,2,0,P|230:244|178:237,1,95,8|0,0:0|0:0,0:0:0:0:
0,313,61788,2,0,B|42:271|107:282|107:282|124:319|195:329,1,190,0|8,0:0|0:0,0:0:0:0:
404,355,62305,6,0,P|315:380|237:311,1,190
171,173,62822,1,8,0:0:0:0:
258,242,62995,1,0,0:0:0:0:
316,103,63167,1,2,0:0:0:0:
316,103,63253,1,0,0:0:0:0:
316,103,63340,1,2,0:0:0:0:
160,180,63512,1,8,0:0:0:0:
253,258,63684,1,0,0:0:0:0:
331,88,63857,6,0,P|407:146|371:245,1,190,6|8,0:0|0:0,0:0:0:0:
250,270,64374,1,0,0:0:0:0:
366,373,64546,2,0,P|319:380|273:373,1,95
149,243,64891,2,0,P|196:240|243:249,1,95,8|0,0:0|0:0,0:0:0:0:
25,374,65236,6,0,P|25:329|42:260,1,95
153,141,65581,2,0,P|153:186|136:255,1,95,8|0,0:0|0:0,0:0:0:0:
214,352,65926,1,0,0:0:0:0:
342,320,66098,1,0,0:0:0:0:
393,197,66271,1,8,0:0:0:0:
276,131,66443,1,0,0:0:0:0:
405,205,66615,6,0,P|444:217|503:228,1,95,6|0,0:0|0:0,0:0:0:0:
347,65,66960,2,0,P|308:49|219:34,1,95,8|0,0:0|0:0,0:0:0:0:
85,161,67305,2,0,P|135:152|198:123,1,95
114,65,67650,1,8,0:0:0:0:
22,233,67822,6,0,P|62:241|121:260,1,95
185,343,68167,1,0,0:0:0:0:
221,262,68340,1,8,0:0:0:0:
123,267,68512,1,0,0:0:0:0:
302,341,68684,5,2,0:0:0:0:
355,202,68857,1,2,0:0:0:0:
236,101,69029,5,10,0:0:0:0:
272,182,69202,1,2,0:0:0:0:
327,69,69374,6,0,P|399:91|483:2,1,190,4|8,0:0|0:0,0:0:0:0:
272,182,69891,1,0,0:0:0:0:
371,243,70064,2,0,P|396:210|451:192,1,95
273,294,70409,2,0,P|227:304|184:287,1,95,8|0,0:0|0:0,0:0:0:0:
125,193,70753,6,0,P|74:268|106:354,1,190,6|8,0:0|0:0,0:0:0:0:
273,294,71271,1,0,0:0:0:0:
219,194,71443,2,0,P|177:185|121:194,1,95
19,61,71788,2,0,P|61:70|117:61,1,95,8|0,0:0|0:0,0:0:0:0:
234,0,72133,6,0,L|245:96,1,95,6|0,0:0|0:0,0:0:0:0:
370,226,72477,2,0,L|360:131,1,95,8|0,0:0|0:0,0:0:0:0:
477,0,72822,2,0,B|442:22|433:56|433:56|478:98|463:167,1,190,0|8,0:0|0:0,0:0:0:0:
266,207,73340,6,0,P|238:118|277:33,1,190
360,131,73857,1,8,0:0:0:0:
413,249,74030,1,0,0:0:0:0:
287,224,74202,1,0,0:0:0:0:
364,356,74374,5,0,0:0:0:0:
512,314,74547,1,8,0:0:0:0:
443,162,74719,1,0,0:0:0:0:
266,206,74891,6,0,P|186:259|186:354,1,190,6|8,0:0|0:0,0:0:0:0:
69,170,75409,2,0,P|115:169|167:149,1,95,2|0,0:0|0:0,0:0:0:0:
244,121,75753,1,0,0:0:0:0:
97,280,75926,2,0,P|54:259|7:254,1,95,8|0,0:0|0:0,0:0:0:0:
110,384,76271,5,10,0:0:0:0:
278,353,76443,1,10,0:0:0:0:
446,322,76615,2,0,P|457:270|456:216,1,95,10|0,0:0|0:0,0:0:0:0:
336,89,76960,1,0,0:0:0:0:
355,263,77133,1,8,0:0:0:0:
442,111,77305,1,8,0:0:0:0:
282,182,77477,1,0,0:0:0:0:
282,182,77564,1,0,0:0:0:0:
282,182,77650,6,0,L|167:185,1,95,6|10,0:0|0:0,0:0:0:0:
15,54,78167,1,2,0:0:0:0:
93,92,78512,1,2,0:0:0:0:
175,63,78857,1,2,0:0:0:0:
253,101,79202,2,0,B|378:130|363:48|486:73,1,237.5,2|8,0:0|0:2,0:0:0:0:
479,87,80409,5,0,0:0:0:0:
497,171,80581,1,2,0:0:0:0:
479,87,80753,1,8,0:2:0:0:
484,190,80926,5,0,0:0:0:0:
404,222,81098,1,0,0:0:0:0:
422,306,81271,1,2,0:0:0:0:
404,222,81443,1,8,0:2:0:0:
409,325,81615,5,0,0:0:0:0:
257,360,81788,1,0,0:0:0:0:
261,262,81960,1,2,0:0:0:0:
193,308,82133,1,8,0:2:0:0:
325,314,82305,1,2,0:0:0:0:
102,356,82650,2,0,P|111:315|103:253,1,95,2|0,0:0|0:0,0:0:0:0:
0,155,83167,6,0,L|104:149,1,95,14|10,0:0|0:0,0:0:0:0:
267,43,83684,1,2,0:0:0:0:
283,127,84029,1,2,0:0:0:0:
299,211,84374,1,2,0:0:0:0:
315,295,84719,2,0,P|410:327|379:233,1,237.5,2|8,0:0|0:2,0:0:0:0:
128,255,85926,5,12,0:2:0:0:
198,300,86098,1,2,0:0:0:0:
128,255,86271,1,0,0:0:0:0:
209,309,86443,5,0,0:0:0:0:
180,195,86615,1,12,0:2:0:0:
60,223,86788,1,2,0:0:0:0:
180,195,86960,1,0,0:0:0:0:
47,210,87133,5,0,0:0:0:0:
136,255,87305,1,12,0:2:0:0:
200,183,87477,1,2,0:0:0:0:
261,107,87650,1,8,0:2:0:0:
341,158,87822,1,2,0:0:0:0:
353,169,88167,2,0,P|358:220|359:243,2,71.2500027179719,2|8|0,0:0|0:2|0:0,0:0:0:0:
284,289,88684,5,4,0:0:0:0:
110,192,88857,2,0,P|150:167|197:169,1,95,2|8,0:0|0:0,0:0:0:0:
154,338,89202,2,0,P|107:339|66:315,1,95,2|0,0:0|0:0,0:0:0:0:
209,178,89546,1,2,0:0:0:0:
272,312,89719,1,8,0:0:0:0:
392,183,89891,2,0,P|381:227|367:289,1,95,2|0,0:0|0:0,0:0:0:0:
488,147,90236,6,0,P|419:85|328:100,1,190,2|0,0:0|0:0,0:0:0:0:
209,178,90753,2,0,P|256:182|303:189,1,95
183,62,91098,1,8,0:0:0:0:
183,62,91271,1,0,0:0:0:0:
72,293,91443,5,4,0:0:0:0:
126,133,91615,1,2,0:0:0:0:
19,129,91788,2,0,L|115:147,1,95,8|0,0:0|0:0,0:0:0:0:
241,373,92133,5,0,0:0:0:0:
187,213,92305,1,2,0:0:0:0:
292,209,92477,2,0,L|196:227,1,95,8|0,0:0|0:0,0:0:0:0:
421,335,92822,5,0,0:0:0:0:
475,175,92995,1,2,0:0:0:0:
419,347,93167,1,8,0:0:0:0:
370,171,93339,2,0,L|466:189,1,95,2|0,0:0|0:0,0:0:0:0:
350,79,93684,1,2,0:0:0:0:
225,142,93857,1,8,0:0:0:0:
130,48,94029,1,0,0:0:0:0:
252,0,94202,5,6,0:0:0:0:
454,71,94374,2,0,P|407:73|363:90,1,95,2|8,0:0|0:0,0:0:0:0:
402,240,94719,2,0,P|354:238|310:221,1,95,2|0,0:0|0:0,0:0:0:0:
271,73,95064,1,2,0:0:0:0:
213,229,95236,1,8,0:0:0:0:
97,155,95409,6,0,P|107:200|116:252,1,95,2|0,0:0|0:0,0:0:0:0:
0,122,95753,2,0,P|69:60|160:75,1,190,2|0,0:0|0:0,0:0:0:0:
158,74,96184,1,0,0:2:0:0:
158,74,96271,1,4,0:2:0:0:
313,59,96443,6,0,L|381:56,1,47.5,2|0,0:0|0:0,0:0:0:0:
283,183,96615,2,0,L|200:178,1,47.5,10|0,0:0|0:0,0:0:0:0:
274,168,96788,2,0,L|191:163,1,47.5,2|0,0:0|0:0,0:0:0:0:
436,204,96960,5,12,0:0:0:0:
279,315,97133,1,2,0:0:0:0:
272,324,97477,5,0,0:0:0:0:
335,368,97650,1,0,0:0:0:0:
405,332,97822,1,2,0:0:0:0:
419,340,98167,5,0,0:0:0:0:
344,259,98340,1,0,0:0:0:0:
416,187,98512,2,0,P|431:154|422:103,1,71.2500027179719,2|0,0:0|0:0,0:0:0:0:
347,36,98857,1,2,0:0:0:0:
339,54,99202,5,2,0:0:0:0:
245,238,99374,1,8,0:0:0:0:
220,218,99460,1,8,0:0:0:0:
189,210,99546,1,8,0:0:0:0:
160,214,99633,1,8,0:0:0:0:
132,229,99719,6,0,P|98:199|29:192,1,95,6|0,0:0|0:0,0:0:0:0:
162,128,100064,1,8,0:0:0:0:
7,42,100236,2,0,P|92:61|168:-5,1,190,2|2,0:0|0:0,0:0:0:0:
296,124,100753,1,8,0:0:0:0:
268,17,100925,2,0,L|280:117,1,95,2|0,0:0|0:0,0:0:0:0:
481,103,101271,2,0,L|380:89,1,95,2|8,0:0|0:0,0:0:0:0:
271,206,101615,5,0,0:0:0:0:
271,206,101787,2,0,L|366:220,1,95
487,362,102133,2,0,L|393:348,1,95,8|0,0:0|0:0,0:0:0:0:
51,205,102477,5,4,0:0:0:0:
124,266,102650,1,2,0:0:0:0:
89,366,102822,2,0,P|132:347|179:351,1,95,10|0,0:0|0:0,0:0:0:0:
354,262,103167,5,0,0:0:0:0:
264,311,103340,1,2,0:0:0:0:
179,351,103512,1,8,0:0:0:0:
266,220,103684,6,0,P|219:212|167:171,1,95,2|0,0:0|0:0,0:0:0:0:
176,61,104029,1,2,0:0:0:0:
249,120,104202,1,8,0:0:0:0:
0,45,104374,2,0,P|99:25|182:65,1,190,2|2,0:0|0:0,0:0:0:0:
346,182,104891,1,8,0:0:0:0:
269,28,105064,1,0,0:0:0:0:
425,83,105236,6,0,P|380:99|323:82,1,95,6|0,0:0|0:0,0:0:0:0:
243,133,105581,1,8,0:0:0:0:
278,227,105753,2,0,P|361:218|456:277,1,190,2|2,0:0|0:0,0:0:0:0:
404,355,106271,1,8,0:0:0:0:
297,384,106443,2,0,P|251:372|204:364,1,95,2|0,0:0|0:0,0:0:0:0:
34,253,106788,2,0,P|74:259|135:275,1,95,2|8,0:0|0:0,0:0:0:0:
235,184,107133,5,0,0:0:0:0:
124,77,107305,2,0,P|110:117|102:178,1,95
150,265,107650,1,8,0:0:0:0:
252,176,107822,1,0,0:0:0:0:
227,36,107995,5,4,0:0:0:0:
317,14,108167,2,0,P|315:56|288:107,1,95,2|8,0:0|0:0,0:0:0:0:
235,157,108512,1,0,0:0:0:0:
470,142,108684,5,0,0:0:0:0:
380,120,108857,2,0,P|382:162|409:213,1,95,2|8,0:0|0:0,0:0:0:0:
462,263,109201,1,0,0:0:0:0:
236,340,109374,5,0,0:0:0:0:
206,235,109546,1,2,0:0:0:0:
311,205,109719,1,8,0:0:0:0:
341,310,109891,1,2,0:0:0:0:
322,320,110236,5,2,0:0:0:0:
393,254,110409,1,8,0:0:0:0:
311,205,110581,1,0,0:0:0:0:
240,271,110753,5,4,0:0:0:0:
336,329,110926,2,0,P|372:333|435:356,1,95,2|8,0:0|0:0,0:0:0:0:
326,200,111271,2,0,P|414:145|454:58,1,190,2|2,0:0|0:0,0:0:0:0:
216,30,111788,2,0,P|224:76|241:120,1,95,8|2,0:0|0:0,0:0:0:0:
186,248,112133,5,0,0:0:0:0:
79,183,112305,2,0,P|70:136|43:74,1,95,2|8,0:0|0:0,0:0:0:0:
18,277,112650,2,0,P|61:231|186:252,1,190,2|2,0:0|0:0,0:0:0:0:
243,114,113167,1,8,0:0:0:0:
94,15,113340,1,0,0:0:0:0:
147,111,113512,5,0,0:0:0:0:
208,8,113684,2,0,L|314:-2,1,95,2|8,0:0|0:0,0:0:0:0:
492,69,114029,2,0,P|457:95|397:114,1,95,2|0,0:0|0:0,0:0:0:0:
248,104,114374,2,0,P|288:121|334:163,1,95,2|8,0:0|0:0,0:0:0:0:
403,296,114719,2,0,P|397:252|411:191,1,95,2|0,0:0|0:0,0:0:0:0:
293,232,115064,1,2,0:0:0:0:
254,345,115236,1,8,0:0:0:0:
305,253,115409,1,0,0:0:0:0:
266,366,115581,6,0,P|226:379|162:371,1,95
58,374,115926,2,0,P|66:332|105:281,1,95,8|0,0:0|0:0,0:0:0:0:
153,175,116271,6,0,P|184:203|209:262,1,95,2|0,0:0|0:0,0:0:0:0:
109,273,116615,2,0,P|67:264|16:225,1,95,8|0,0:0|0:0,0:0:0:0:
6,121,116960,1,2,0:0:0:0:
106,39,117133,2,0,P|151:49|190:77,1,95,2|8,0:0|0:0,0:0:0:0:
382,139,117477,6,0,B|349:135|317:149|317:149|271:94|316:19,1,190,6|0,0:0|0:0,0:0:0:0:
492,41,117995,2,0,P|455:24|399:20,1,95,8|0,0:0|0:0,0:0:0:0:
304,172,118340,2,0,P|307:212|332:263,1,95,2|2,0:0|0:0,0:0:0:0:
427,375,118684,1,8,0:0:0:0:
509,334,118857,1,0,0:0:0:0:
422,174,119029,5,6,0:0:0:0:
344,232,119201,2,0,P|326:269|323:323,1,95,2|8,0:0|0:0,0:0:0:0:
160,229,119546,2,0,P|199:215|241:173,1,95,2|0,0:0|0:0,0:0:0:0:
322,322,119891,1,0,0:0:0:0:
242,371,120064,2,0,P|210:344|153:328,1,95,8|0,0:0|0:0,0:0:0:0:
8,359,120409,5,0,0:0:0:0:
95,384,120581,1,0,0:0:0:0:
171,251,120753,1,8,0:0:0:0:
84,226,120926,1,0,0:0:0:0:
2,67,121098,6,0,P|41:91|55:135,1,95
226,106,121443,2,0,P|200:138|144:158,1,95,8|0,0:0|0:0,0:0:0:0:
128,12,121788,6,0,P|220:25|325:33,1,190,14|8,0:0|0:0,0:0:0:0:
443,0,122305,1,2,0:0:0:0:
471,143,122477,2,0,P|445:111|389:91,1,95
307,163,122822,1,8,0:0:0:0:
482,243,122995,6,0,P|394:243|279:252,1,190,14|0,0:0|0:0,0:0:0:0:
327,384,123512,2,0,P|386:357|411:325,1,95,8|0,0:0|0:0,0:0:0:0:
217,146,123857,6,0,P|168:198|188:315,1,190,14|8,0:0|0:0,0:0:0:0:
32,198,124374,2,0,L|139:223,1,95,2|0,0:0|0:0,0:0:0:0:
217,146,124719,1,0,0:0:0:0:
63,356,124891,2,0,L|251:331,1,190,14|0,0:0|0:0,0:0:0:0:
329,156,125409,1,10,0:0:0:0:
478,297,125581,6,0,L|381:289,1,95
358,264,125840,1,0,0:0:0:0:
358,264,125926,2,0,P|423:237|444:141,1,170.999994781494,12|8,0:3|0:3,0:0:0:0:
385,0,126615,5,2,0:0:0:0:
385,0,126702,1,0,0:0:0:0:
385,0,126788,1,2,0:0:0:0:
251,39,126960,1,8,0:0:0:0:
226,59,127046,1,8,0:0:0:0:
196,68,127133,1,8,0:0:0:0:
164,66,127219,1,8,0:0:0:0:
136,53,127305,6,0,P|89:42|30:68,1,95,14|0,0:0|0:0,0:0:0:0:
4,155,127650,2,0,P|17:200|51:232,1,95,8|0,0:0|0:0,0:0:0:0:
152,223,127995,2,0,P|184:189|194:143,1,95
99,143,128340,1,8,0:0:0:0:
196,68,128512,6,0,L|168:259,1,190
81,374,129029,1,8,0:0:0:0:
231,330,129202,1,0,0:0:0:0:
84,232,129374,1,2,0:0:0:0:
84,232,129459,1,0,0:0:0:0:
84,232,129546,1,2,0:0:0:0:
296,272,129719,6,0,P|248:292|229:342,1,95,8|0,0:0|0:0,0:0:0:0:
450,210,130064,2,0,P|366:209|291:121,1,190,6|8,0:0|0:0,0:0:0:0:
268,0,130581,1,0,0:0:0:0:
452,115,130753,2,0,P|414:84|352:80,1,95
265,13,131098,2,0,P|248:57|216:92,1,95,8|0,0:0|0:0,0:0:0:0:
21,108,131443,6,0,B|71:86|115:119|115:119|130:173|187:192,1,190,6|8,0:0|0:0,0:0:0:0:
307,171,131960,1,0,0:0:0:0:
418,281,132133,2,0,P|443:241|449:194,1,95
240,322,132477,2,0,P|284:340|332:339,1,95,8|0,0:0|0:0,0:0:0:0:
111,258,132822,5,6,0:0:0:0:
29,217,132995,1,0,0:0:0:0:
102,344,133167,1,8,0:0:0:0:
249,310,133340,1,0,0:0:0:0:
196,241,133512,1,0,0:0:0:0:
183,384,133684,1,0,0:0:0:0:
13,329,133857,6,0,B|61:323|61:323|104:345,1,95,10|0,0:0|0:0,0:0:0:0:
193,125,134202,2,0,P|185:186|195:231,1,95,4|0,0:0|0:0,0:0:0:0:
340,384,134546,2,0,P|347:322|337:277,1,95,8|0,0:0|0:0,0:0:0:0:
465,176,134891,1,0,0:0:0:0:
365,92,135064,1,0,0:0:0:0:
293,209,135236,1,8,0:0:0:0:
193,124,135409,1,0,0:0:0:0:
286,12,135581,6,0,P|315:97|296:206,1,190,6|8,0:0|0:0,0:0:0:0:
244,311,136098,1,0,0:0:0:0:
103,222,136271,2,0,P|143:215|203:222,1,95
162,368,136615,2,0,P|122:375|62:368,1,95,8|0,0:0|0:0,0:0:0:0:
3,290,136960,5,8,0:0:0:0:
55,59,137133,1,4,0:0:0:0:
198,211,137305,5,8,0:0:0:0:
44,48,137477,1,0,0:0:0:0:
204,2,137650,1,6,0:0:0:0:
204,2,137736,1,0,0:0:0:0:
204,2,137822,1,2,0:0:0:0:
261,161,137995,2,0,P|212:135|162:134,1,95,8|0,0:0|0:0,0:0:0:0:
242,272,138340,6,0,L|336:277,1,95,6|0,0:0|0:0,0:0:0:0:
505,371,138684,2,0,L|410:365,1,95,8|0,0:0|0:0,0:0:0:0:
332,260,139029,2,0,P|352:169|427:115,1,190,0|8,0:0|0:0,0:0:0:0:
512,87,139546,6,0,P|423:114|338:76,1,190
193,174,140064,1,8,0:0:0:0:
133,43,140236,1,0,0:0:0:0:
232,87,140409,1,2,0:0:0:0:
232,87,140495,1,0,0:0:0:0:
232,87,140581,1,2,0:0:0:0:
74,160,140753,1,8,0:0:0:0:
44,9,140926,1,0,0:0:0:0:
272,18,141098,6,0,P|338:82|348:175,1,190,6|8,0:0|0:0,0:0:0:0:
254,317,141615,1,0,0:0:0:0:
358,265,141788,2,0,P|404:271|456:280,1,95
247,328,142133,2,0,P|200:319|153:313,1,95,8|0,0:0|0:0,0:0:0:0:
68,239,142477,6,0,P|32:270|26:328,1,95
185,218,142822,2,0,P|173:171|122:132,1,95,8|0,0:0|0:0,0:0:0:0:
20,64,143167,1,0,0:0:0:0:
132,147,143340,1,0,0:0:0:0:
286,57,143512,1,8,0:0:0:0:
214,0,143684,1,0,0:0:0:0:
146,63,143857,6,0,P|130:100|124:163,1,95,6|0,0:0|0:0,0:0:0:0:
285,259,144202,2,8,P|302:222|308:153,1,95,8|0,0:0|0:0,0:0:0:0:
198,206,144546,1,0,0:0:0:0:
389,292,144719,1,0,0:0:0:0:
314,157,144891,1,8,0:0:0:0:
217,334,145064,6,0,P|291:357|390:286,1,190
486,231,145581,2,0,P|448:205|383:193,1,95,8|0,0:0|0:0,0:0:0:0:
300,40,145926,1,2,0:0:0:0:
319,149,146098,1,2,0:0:0:0:
215,28,146271,1,10,0:0:0:0:
234,137,146443,1,2,0:0:0:0:
205,16,146615,6,0,B|199:62|163:82|163:82|116:48|40:51,1,190,4|8,0:0|0:0,0:0:0:0:
0,171,147133,1,0,0:0:0:0:
130,228,147305,2,0,P|182:209|240:212,1,95
98,326,147650,2,0,P|54:308|6:306,1,95,8|0,0:0|0:0,0:0:0:0:
204,365,147995,6,0,B|233:311|297:316|297:316|337:352|382:347,2,190,6|8|0,0:0|0:0|0:0,0:0:0:0:
387,259,148857,1,0,0:0:0:0:
278,186,149029,2,0,P|285:231|288:283,1,95,8|0,0:0|0:0,0:0:0:0:
500,179,149374,6,0,P|452:179|405:176,1,95,6|0,0:0|0:0,0:0:0:0:
292,0,149719,2,0,P|339:0|386:2,1,95,8|0,0:0|0:0,0:0:0:0:
490,90,150064,2,0,B|442:67|395:90|395:90|342:111|300:79,1,190,0|8,0:0|0:0,0:0:0:0:
164,8,150581,6,0,P|211:41|167:159,1,190
0,213,151098,1,8,0:0:0:0:
88,184,151271,1,0,0:0:0:0:
228,233,151443,1,0,0:0:0:0:
318,227,151615,5,0,0:0:0:0:
182,154,151788,1,8,0:0:0:0:
126,311,151960,1,0,0:0:0:0:
274,374,152133,6,0,P|367:359|461:368,1,190,6|8,0:0|0:0,0:0:0:0:
399,234,152650,2,0,P|382:276|376:329,1,95,2|0,0:0|0:0,0:0:0:0:
485,188,152995,1,0,0:0:0:0:
376,78,153167,2,0,P|343:127|327:176,1,95,8|0,0:0|0:0,0:0:0:0:
462,52,153512,5,10,0:0:0:0:
277,93,153684,1,10,0:0:0:0:
91,135,153857,2,0,P|97:94|57:24,1,95,10|0,0:0|0:0,0:0:0:0:
214,28,154202,1,0,0:0:0:0:
350,153,154374,1,8,0:0:0:0:
258,181,154546,1,8,0:0:0:0:
306,0,154719,1,0,0:0:0:0:
306,0,154805,1,0,0:0:0:0:
306,0,154891,5,10,0:0:0:0:
277,93,155064,2,0,P|167:145|207:260,1,265.999991882324,6|0,0:0|0:0,0:0:0:0:
356,270,155926,2,0,P|299:248|182:393,1,265.999991882324,8|8,1:2|0:2,0:0:0:0:
179,378,156788,5,2,0:0:0:0:
179,378,156874,1,2,0:0:0:0:
179,378,156960,2,0,L|99:370,1,66.4999979705811,2|0,0:0|0:0,0:0:0:0:
7,274,157305,2,0,L|84:280,1,66.4999979705811,8|0,0:2|0:0,0:0:0:0:
155,217,157650,5,14,0:0:0:0:
325,187,157822,1,2,0:0:0:0:
246,122,157995,2,0,L|233:264,1,132.999995941162,10|0,0:2|0:0,0:0:0:0:
160,150,158512,2,0,L|153:230,1,66.4999979705811,2|8,0:0|0:2,0:0:0:0:
3,43,158857,6,0,P|43:35|139:70,1,132.999995941162,2|0,0:0|0:0,0:0:0:0:
130,62,159288,1,2,0:0:0:0:
130,62,159374,2,0,P|112:83|68:110,1,66.4999979705811,10|0,0:2|0:0,0:0:0:0:
0,137,159719,2,0,P|17:158|61:187,1,66.4999979705811,2|0,0:0|0:0,0:0:0:0:
135,212,160064,1,8,0:2:0:0:
75,271,160236,1,0,0:0:0:0:
212,295,160409,5,14,0:0:0:0:
382,272,160581,1,2,0:0:0:0:
222,281,161271,5,2,0:0:0:0:
298,314,161443,2,0,P|313:330|332:385,1,66.4999979705811,2|2,0:0|0:0,0:0:0:0:
366,260,161788,5,14,0:0:0:0:
335,120,161960,1,0,0:0:0:0:
459,191,162133,2,0,L|393:181,1,66.4999979705811,2|0,0:0|0:0,0:0:0:0:
335,120,162477,5,14,0:0:0:0:
230,217,162650,1,0,0:0:0:0:
192,118,162822,2,0,L|267:142,1,66.4999979705811,2|0,0:0|0:0,0:0:0:0:
393,181,163167,5,14,0:0:0:0:
362,41,163339,1,0,0:0:0:0:
486,112,163512,2,0,L|420:102,1,66.4999979705811,2|0,0:0|0:0,0:0:0:0:
335,120,163857,1,2,0:0:0:0:
393,181,164029,2,0,L|458:190,1,66.4999979705811,2|0,0:0|0:0,0:0:0:0:
505,264,164374,1,2,0:0:0:0:
383,361,164546,5,8,0:0:0:0:
302,210,164719,2,0,P|312:281|268:350,1,132.999995941162,12|0,0:2|0:0,0:0:0:0:
137,302,165236,1,4,0:2:0:0:
198,376,165409,1,2,0:0:0:0:
43,296,165581,1,10,0:0:0:0:
35,277,165667,1,10,0:0:0:0:
30,257,165753,1,10,0:0:0:0:
31,236,165840,1,10,0:0:0:0:
36,216,165926,6,0,L|62:161,1,47.5,6|0,0:0|0:0,0:0:0:0:
11,68,166098,2,0,L|71:58,1,47.5,6|0,0:0|0:0,0:0:0:0:
154,9,166271,2,0,L|191:69,1,47.5,10|0,0:0|0:0,0:0:0:0:
276,178,166443,2,0,L|178:199,1,95,2|0,0:0|0:0,0:0:0:0:
183,197,166702,1,2,0:0:0:0:
183,197,166788,1,2,0:0:0:0:
357,247,166960,1,8,0:0:0:0:
272,86,167133,6,0,P|265:138|277:180,1,95,2|0,0:0|0:0,0:0:0:0:
208,30,167477,2,0,P|305:7|358:78,1,190,2|2,0:0|0:0,0:0:0:0:
356,68,167909,1,2,0:0:0:0:
355,67,167995,1,2,0:0:0:0:
458,30,168167,2,0,P|469:75|463:126,1,95,2|8,0:0|0:0,0:0:0:0:
357,152,168512,6,0,P|427:147|516:242,1,190,2|0,0:0|0:0,0:0:0:0:
504,234,168943,1,2,0:0:0:0:
497,243,169029,2,0,L|447:243,1,47.5,10|0,0:0|0:0,0:0:0:0:
441,250,169202,2,0,L|488:249,1,47.5,2|0,0:0|0:0,0:0:0:0:
282,229,169374,2,0,L|283:181,1,47.5,2|0,0:0|0:0,0:0:0:0:
278,190,169547,2,0,L|277:237,1,47.5,2|0,0:0|0:0,0:0:0:0:
291,367,169719,2,0,L|338:367,1,47.5,10|0,0:0|0:0,0:0:0:0:
485,370,169891,6,0,P|402:369|277:386,1,190,2|2,0:0|0:0,0:0:0:0:
98,306,170409,1,10,0:0:0:0:
186,376,170581,2,0,P|195:332|225:293,1,95,2|0,0:0|0:0,0:0:0:0:
141,197,170926,2,0,P|98:211|49:204,1,95,2|8,0:0|0:0,0:0:0:0:
141,78,171271,1,2,0:0:0:0:
256,41,171443,5,6,0:0:0:0:
259,235,171615,1,2,0:0:0:0:
259,235,171702,1,2,0:0:0:0:
259,235,171788,1,10,0:0:0:0:
330,136,171960,1,2,0:0:0:0:
400,324,172133,2,0,B|352:368|306:345|306:345|277:308|221:319,1,190,2|10,0:0|0:0,0:0:0:0:
455,215,172650,6,0,P|394:219|356:240,1,95,2|0,0:0|0:0,0:0:0:0:
215,152,172995,2,0,P|276:148|314:127,1,95,2|8,0:0|0:0,0:0:0:0:
162,41,173340,2,0,P|82:15|-1:72,1,190,2|2,0:0|0:0,0:0:0:0:
120,191,173857,2,0,P|112:134|76:93,1,95,10|0,0:0|0:0,0:0:0:0:
0,331,174202,6,0,P|78:306|172:398,1,190,6|8,0:0|0:0,0:0:0:0:
282,224,174719,2,0,P|204:249|110:157,1,190,6|0,0:0|0:0,0:0:0:0:
295,134,175236,1,10,0:0:0:0:
439,286,175409,2,0,L|344:299,1,95,2|0,0:0|0:0,0:0:0:0:
295,134,175753,1,0,0:0:0:0:
376,95,175926,2,0,P|419:105|460:146,1,95,8|0,0:0|0:0,0:0:0:0:
300,39,176271,5,0,0:0:0:0:
218,79,176444,1,0,0:0:0:0:
129,49,176615,1,8,0:2:0:0:
49,94,176788,1,2,0:0:0:0:
49,94,176960,6,0,P|65:213|84:350,1,237.5,2|0,0:0|0:0,0:0:0:0:
0,247,177995,1,8,0:2:0:0:
0,247,178167,2,0,L|141:256,1,142.5,2|10,0:0|0:2,0:0:0:0:
217,337,179029,2,0,P|264:332|310:322,1,95,2|10,0:0|0:2,0:0:0:0:
393,366,179546,6,0,P|404:273|424:70,1,285,2|0,0:0|0:0,0:0:0:0:
489,177,180753,1,8,0:2:0:0:
489,177,180926,2,0,L|338:187,1,142.5,2|10,0:0|0:2,0:0:0:0:
284,252,181788,2,0,L|275:356,1,95,2|10,0:0|0:2,0:0:0:0:
105,292,182477,6,0,L|212:279,1,95,2|10,0:0|0:2,0:0:0:0:
147,201,182995,1,2,0:0:0:0:
147,201,183167,2,0,L|45:188,1,95,2|8,0:0|0:2,0:0:0:0:
105,81,183857,1,0,0:0:0:0:
195,123,184202,2,0,L|188:29,2,95,10|2|10,0:2|0:2|0:0,0:0:0:0:
324,29,185236,6,0,L|315:141,2,95,2|10|0,0:0|0:2|0:0,0:0:0:0:
413,87,186271,2,0,L|404:144,1,47.5,10|0,0:0|0:0,0:0:0:0:
497,123,186615,6,0,P|504:74|481:13,1,95,2|8,0:0|0:2,0:0:0:0:
306,15,187305,1,2,0:2:0:0:
306,15,187477,1,2,0:2:0:0:
282,93,187650,1,10,0:2:0:0:
282,93,187822,1,2,0:2:0:0:
206,140,187995,6,0,P|146:147|52:152,1,152,0|8,0:0|0:2,0:0:0:0:
140,45,188684,2,0,P|178:42|228:39,1,76
286,112,189029,1,8,0:2:0:0:
390,69,189202,6,0,P|373:142|361:227,1,152,2|0,0:2|0:0,0:0:0:0:
383,311,189719,2,0,P|425:301|468:302,1,76,10|0,0:2|0:0,0:0:0:0:
324,384,190064,2,0,P|291:382|238:356,1,76,2|0,0:2|0:0,0:0:0:0:
151,273,190409,1,10,0:2:0:0:
71,317,190581,2,0,P|179:295|307:282,1,228,2|8,0:2|0:2,0:0:0:0:
64,230,191443,2,0,P|31:240|-3:280,1,76
158,265,191788,1,8,0:2:0:0:
146,183,191960,6,0,P|161:134|84:39,1,152,2|0,0:2|0:0,0:0:0:0:
0,148,192477,2,0,P|37:145|71:127,1,76,10|0,0:2|0:0,0:0:0:0:
125,44,192822,2,0,P|163:52|204:53,1,76,2|0,0:2|0:0,0:0:0:0:
316,11,193167,2,0,P|295:71|293:83,1,76,10|0,0:2|0:2,0:0:0:0:
241,184,193512,6,8,P|281:164|410:186,1,152,2|8,0:2|0:2,0:2:0:0:
459,228,194029,1,2,0:2:0:0:
409,384,194202,2,0,P|426:350|437:313,1,76,0|0,0:2|0:0,0:0:0:0:
326,344,194546,2,0,P|279:337|250:338,1,76,8|0,0:2|0:0,0:0:0:0:
168,377,194891,5,0,0:0:0:0:
103,305,195064,1,0,0:0:0:0:
233,259,195236,2,0,P|241:316|242:340,1,76,8|0,0:2|0:0,0:0:0:0:
155,236,195581,2,0,P|163:179|164:155,1,76,2|0,0:2|0:0,0:0:0:0:
110,79,195926,2,0,L|29:93,1,76,10|0,0:2|0:0,0:0:0:0:
79,171,196271,6,0,L|162:154,1,76,2|0,0:2|0:0,0:0:0:0:
237,103,196615,2,0,P|245:160|246:184,1,76,10|0,0:2|0:0,0:0:0:0:
383,66,196960,2,0,P|349:63|306:52,1,76,2|0,0:2|0:0,0:0:0:0:
333,201,197305,2,0,P|352:173|456:177,1,142.499995651245,6|0,0:0|0:0,0:0:0:0:
512,275,198340,5,2,0:0:0:0:
512,275,198426,1,0,0:0:0:0:
512,275,198512,1,2,0:0:0:0:
439,352,198684,1,8,0:0:0:0:
413,332,198771,1,8,0:0:0:0:
380,325,198857,1,8,0:0:0:0:
350,335,198943,1,8,0:0:0:0:
326,359,199029,6,0,P|289:373|223:361,1,95,14|0,0:0|0:0,0:0:0:0:
66,276,199374,2,0,P|103:262|169:274,1,95,8|0,0:0|0:0,0:0:0:0:
274,207,199719,2,0,P|257:163|222:132,1,95
133,47,200064,1,8,0:0:0:0:
42,168,200236,2,0,P|93:159|159:151,1,95
295,78,200581,1,0,0:0:0:0:
339,0,200753,1,8,0:0:0:0:
442,99,200926,1,0,0:0:0:0:
357,146,201098,5,2,0:0:0:0:
357,146,201184,1,0,0:0:0:0:
357,146,201271,1,2,0:0:0:0:
133,47,201443,2,0,P|175:26|222:24,1,95,8|0,0:0|0:0,0:0:0:0:
470,187,201788,6,0,L|256:205,1,190,6|8,0:0|0:0,0:0:0:0:
220,130,202305,1,0,0:0:0:0:
325,292,202477,2,0,P|355:319|379:377,1,95
173,208,202822,2,0,P|203:180|220:125,1,95,8|0,0:0|0:0,0:0:0:0:
35,307,203167,6,0,L|224:291,1,190,6|8,0:0|0:0,0:0:0:0:
330,348,203684,1,0,0:0:0:0:
396,218,203857,1,0,0:0:0:0:
306,236,204029,1,0,0:0:0:0:
420,329,204202,2,0,P|460:323|512:337,1,95,8|0,0:0|0:0,0:0:0:0:
330,348,204546,6,0,P|310:285|400:218,1,190,6|8,0:0|0:0,0:0:0:0:
502,45,205064,1,0,0:0:0:0:
365,122,205236,1,0,0:0:0:0:
455,149,205409,1,0,0:0:0:0:
411,15,205581,2,0,L|305:0,1,95,10|0,0:0|0:0,0:0:0:0:
188,99,205926,6,0,P|253:101|288:77,1,95
102,31,206271,2,0,P|81:67|78:128,1,95,8|0,0:0|0:0,0:0:0:0:
167,257,206615,1,0,0:0:0:0:
36,323,206788,1,0,0:0:0:0:
247,365,206960,1,8,0:0:0:0:
160,246,207133,1,0,0:0:0:0:
258,377,207305,6,0,B|289:338|338:337|338:337|376:376|448:379,1,190,6|8,0:0|0:0,0:0:0:0:
364,254,207822,2,0,P|388:199|320:96,1,190
214,14,208340,2,0,P|219:55|229:123,1,95,8|0,0:0|0:0,0:0:0:0:
295,191,208684,5,12,0:0:0:0:
100,312,208857,1,0,0:0:0:0:
308,197,209029,5,8,0:0:0:0:
147,137,209202,1,0,0:0:0:0:
252,312,209374,5,6,0:0:0:0:
252,312,209460,1,0,0:0:0:0:
252,312,209546,1,2,0:0:0:0:
57,234,209719,1,8,0:0:0:0:
147,384,209891,1,0,0:0:0:0:
47,222,210064,6,0,P|65:183|47:108,1,95,6|0,0:0|0:0,0:0:0:0:
43,0,210409,2,0,P|67:35|141:57,1,95,8|0,0:0|0:0,0:0:0:0:
302,39,210753,1,0,0:0:0:0:
233,107,210926,2,0,P|190:110|134:164,1,95,0|8,0:0|0:0,0:0:0:0:
336,205,211271,6,0,B|315:86|405:153|386:22,1,190
427,187,211788,2,0,P|465:201|516:229,1,95,8|0,0:0|0:0,0:0:0:0:
369,303,212133,5,2,0:0:0:0:
369,303,212219,1,0,0:0:0:0:
369,303,212305,1,2,0:0:0:0:
230,382,212477,1,8,0:0:0:0:
155,215,212650,1,0,0:0:0:0:
8,291,212822,6,0,B|81:249|125:333|197:298,1,190,6|8,0:0|0:0,0:0:0:0:
259,206,213340,1,0,0:0:0:0:
331,87,213512,2,0,P|307:87|223:103,1,95
125,15,213857,2,0,P|125:38|141:122,1,95,8|0,0:0|0:0,0:0:0:0:
61,227,214202,6,0,P|84:226|168:210,1,95
271,299,214546,2,0,P|270:275|254:191,1,95,8|0,0:0|0:0,0:0:0:0:
384,19,214891,5,0,0:0:0:0:
335,165,215064,1,0,0:0:0:0:
464,82,215236,2,0,L|441:174,1,95,8|0,0:0|0:0,0:0:0:0:
453,311,215581,6,0,P|408:326|362:320,1,95,6|0,0:0|0:0,0:0:0:0:
257,205,215926,2,0,P|301:188|348:195,1,95,8|0,0:0|0:0,0:0:0:0:
148,226,216271,2,0,P|107:217|33:209,1,95
119,130,216615,1,8,0:0:0:0:
231,305,216788,6,0,P|191:313|132:332,1,95
308,384,217133,1,0,0:0:0:0:
344,303,217305,1,8,0:0:0:0:
246,308,217477,1,0,0:0:0:0:
398,383,217650,1,0,0:0:0:0:
442,301,217822,5,0,0:0:0:0:
303,210,217995,1,8,0:0:0:0:
339,291,218167,1,0,0:0:0:0:
357,132,218340,6,0,P|285:110|201:199,1,190,6|8,0:0|0:0,0:0:0:0:
172,293,218857,1,0,0:0:0:0:
0,207,219029,2,0,P|41:204|90:235,1,95
217,384,219374,1,8,0:0:0:0:
61,327,219546,1,0,0:0:0:0:
126,151,219719,1,12,0:0:0:0:
269,262,219891,2,0,L|174:273,1,95,8|0,0:0|0:0,0:0:0:0:
375,183,220236,5,8,0:2:0:0:
194,78,220409,1,10,0:0:0:0:
194,78,220495,1,0,0:0:0:0:
194,78,220581,2,0,P|225:79|255:71,1,47.5,2|0,0:0|0:0,0:0:0:0:
340,20,220753,1,8,0:0:0:0:
369,12,220840,1,8,0:0:0:0:
400,12,220926,1,8,0:0:0:0:
430,20,221012,1,8,0:0:0:0:
456,36,221098,6,0,P|472:82|447:128,1,95,14|0,0:0|0:0,0:0:0:0:
288,225,221443,2,0,P|269:175|296:130,1,95,8|0,0:0|0:0,0:0:0:0:
455,290,221788,2,0,P|413:295|351:292,1,95
278,215,222133,1,8,0:0:0:0:
163,361,222305,6,0,P|205:362|261:371,1,95
106,148,222650,1,0,0:0:0:0:
131,254,222822,1,8,0:0:0:0:
25,224,222995,1,0,0:0:0:0:
213,175,223167,1,2,0:0:0:0:
213,175,223253,1,0,0:0:0:0:
213,175,223340,1,2,0:0:0:0:
106,58,223512,2,0,P|60:70|27:104,1,95,8|0,0:0|0:0,0:0:0:0:
265,257,223857,6,0,B|226:209|172:199|172:199|141:235|85:224,1,190,6|8,0:0|0:0,0:0:0:0:
233,383,224374,1,0,0:0:0:0:
358,204,224546,2,0,P|400:198|453:185,1,95
472,361,224891,2,0,P|431:366|370:384,1,95,8|0,0:0|0:0,0:0:0:0:
326,296,225236,6,0,L|521:258,1,190,6|8,0:0|0:0,0:0:0:0:
474,105,225753,1,0,0:0:0:0:
358,204,225926,2,0,P|311:194|264:191,1,95
158,54,226271,2,0,P|206:58|252:67,1,95,8|0,0:0|0:0,0:0:0:0:
53,25,226615,6,0,B|33:85|82:126|82:126|44:208,1,190,6|8,0:0|0:0,0:0:0:0:
172,265,227133,1,0,0:0:0:0:
1,325,227305,1,0,0:0:0:0:
63,382,227477,1,0,0:0:0:0:
123,203,227650,2,0,P|76:194|29:186,1,95,10|0,0:0|0:0,0:0:0:0:
143,365,227995,6,0,P|189:372|236:381,1,95
372,276,228340,2,0,P|325:266|278:259,1,95,8|0,0:0|0:0,0:0:0:0:
224,71,228684,1,0,0:0:0:0:
307,148,228857,1,0,0:0:0:0:
197,174,229029,2,0,L|224:78,1,95,8|0,0:0|0:0,0:0:0:0:
367,1,229374,6,0,B|336:103|427:89|389:204,1,190,6|8,0:0|0:0,0:0:0:0:
425,371,229891,1,0,0:0:0:0:
512,306,230064,2,0,P|505:265|498:204,1,95
311,257,230409,2,0,P|318:298|321:351,1,95,8|0,0:0|0:0,0:0:0:0:
224,206,230753,5,12,0:0:0:0:
429,267,230926,1,0,0:0:0:0:
168,352,231098,5,8,0:0:0:0:
411,265,231271,1,0,0:0:0:0:
133,157,231443,5,6,0:0:0:0:
133,157,231529,1,0,0:0:0:0:
133,157,231616,1,2,0:0:0:0:
207,14,231788,1,8,0:0:0:0:
236,1,231874,1,8,0:0:0:0:
267,3,231961,1,8,0:0:0:0:
297,14,232047,1,8,0:0:0:0:
322,32,232133,6,0,P|317:78|310:131,1,95,6|0,0:0|0:0,0:0:0:0:
473,188,232477,2,0,P|426:183|374:176,1,95,8|0,0:0|0:0,0:0:0:0:
118,208,232822,2,0,B|160:166|225:177|225:177|242:214|313:224,1,190,0|8,0:0|0:0,0:0:0:0:
454,303,233340,6,0,P|365:278|282:372,1,190
108,300,233857,1,8,0:0:0:0:
180,368,234029,1,0,0:0:0:0:
240,278,234202,1,2,0:0:0:0:
240,278,234288,1,0,0:0:0:0:
240,278,234374,1,2,0:0:0:0:
90,302,234546,1,8,0:0:0:0:
175,384,234719,1,0,0:0:0:0:
342,305,234891,6,0,B|409:264|475:295|475:295|458:315|429:310,1,190,6|8,0:0|0:0,0:0:0:0:
313,207,235409,1,0,0:0:0:0:
473,148,235581,2,0,P|425:145|381:130,1,95
243,0,235926,2,0,P|290:2|334:17,1,95,8|0,0:0|0:0,0:0:0:0:
284,187,236271,6,0,P|273:140|279:83,1,95
117,15,236615,2,0,P|121:63|110:109,1,95,8|0,0:0|0:0,0:0:0:0:
178,300,236960,1,0,0:0:0:0:
261,269,237133,1,0,0:0:0:0:
177,161,237305,1,8,0:0:0:0:
94,192,237477,1,0,0:0:0:0:
109,362,237650,6,0,P|148:374|207:385,1,95,6|0,0:0|0:0,0:0:0:0:
351,297,237995,2,0,P|312:281|223:266,1,95,8|0,0:0|0:0,0:0:0:0:
372,186,238340,2,0,L|355:71,1,95
261,159,238684,1,8,0:0:0:0:
466,273,238857,6,0,P|474:233|493:174,1,95
464,77,239202,1,0,0:0:0:0:
484,169,239374,1,8,0:0:0:0:
394,135,239546,1,0,0:0:0:0:
318,13,239719,5,2,0:0:0:0:
265,152,239891,1,2,0:0:0:0:
157,278,240064,5,10,0:0:0:0:
121,197,240236,1,2,0:0:0:0:
242,281,240409,6,0,B|281:235|341:248|341:248|368:294|420:303,1,190,4|8,0:0|0:0,0:0:0:0:
423,220,240926,1,0,0:0:0:0:
274,381,241098,2,0,P|227:376|179:350,1,95
70,265,241443,2,0,P|86:308|81:361,1,95,8|0,0:0|0:0,0:0:0:0:
0,173,241788,6,0,L|199:153,1,190,6|8,0:0|0:0,0:0:0:0:
277,214,242305,1,0,0:0:0:0:
346,101,242477,2,0,P|306:84|249:83,1,95
378,244,242822,2,0,P|425:243|469:226,1,95,8|0,0:0|0:0,0:0:0:0:
235,0,243167,6,0,L|246:96,1,95,6|0,0:0|0:0,0:0:0:0:
378,244,243512,2,0,L|368:149,1,95,8|0,0:0|0:0,0:0:0:0:
502,44,243857,2,0,B|474:12|439:9|439:9|405:60|334:56,1,190,0|8,0:0|0:0,0:0:0:0:
201,219,244374,6,0,P|285:211|373:141,1,190
245,97,244891,1,8,0:0:0:0:
173,30,245064,1,0,0:0:0:0:
52,92,245236,1,0,0:0:0:0:
124,156,245409,5,0,0:0:0:0:
227,280,245581,1,8,0:0:0:0:
82,351,245753,1,0,0:0:0:0:
0,211,245926,6,0,P|77:259|83:351,1,190,6|8,0:0|0:0,0:0:0:0:
124,156,246443,2,0,P|170:151|220:125,1,95,2|0,0:0|0:0,0:0:0:0:
298,38,246788,1,0,0:0:0:0:
423,239,246960,2,0,P|380:218|333:213,1,95,8|0,0:0|0:0,0:0:0:0:
443,321,247305,5,10,0:0:0:0:
255,345,247477,1,10,0:0:0:0:
66,367,247650,2,0,P|57:318|22:255,1,95,10|0,0:0|0:0,0:0:0:0:
120,97,247995,1,0,0:0:0:0:
36,166,248167,1,8,0:0:0:0:
181,262,248340,1,8,0:0:0:0:
265,193,248512,1,8,0:0:0:0:
265,193,248598,1,8,0:0:0:0:
265,193,248684,5,14,0:0:0:0:
481,324,248857,1,10,0:0:0:0:
381,288,249029,1,8,0:2:0:0:
481,324,249202,2,0,P|460:280|462:229,1,95,2|0,0:0|0:0,0:0:0:0:
312,357,249546,2,0,P|361:361|404:389,1,95,2|8,0:0|0:2,0:0:0:0:
349,192,249891,2,0,P|322:233|277:256,1,95,2|0,0:0|0:0,0:0:0:0:
132,360,250236,2,0,B|191:331|190:266|190:266|132:238|135:172,1,228,2|0,0:0|0:0,0:0:0:0:
4,54,251443,5,4,0:0:0:0:
77,12,251615,1,2,0:0:0:0:
4,54,251788,1,8,0:0:0:0:
78,97,251960,5,0,0:0:0:0:
79,177,252133,1,4,0:0:0:0:
149,135,252305,1,2,0:0:0:0:
79,177,252477,1,8,0:0:0:0:
217,90,252650,5,0,0:0:0:0:
265,204,252822,1,4,0:0:0:0:
358,131,252995,1,2,0:0:0:0:
265,204,253167,1,8,0:0:0:0:
436,164,253340,6,0,L|498:159,1,47.5,2|0,0:0|0:0,0:0:0:0:
390,265,253684,2,0,L|342:268,2,47.5,2|8|0,0:0|0:0|0:0,0:0:0:0:
358,131,254202,5,6,0:0:0:0:
247,304,254374,1,2,0:0:0:0:
305,380,254546,1,8,0:2:0:0:
247,304,254719,2,0,P|209:279|141:282,1,95,2|0,0:0|0:0,0:0:0:0:
18,384,255064,2,0,P|58:364|90:304,1,95,2|8,0:0|0:2,0:0:0:0:
68,146,255409,2,0,P|65:192|101:249,1,95,2|0,0:0|0:0,0:0:0:0:
247,304,255753,2,0,P|209:279|141:282,1,95,6|0,0:0|0:0,0:0:0:0:
160,275,256184,1,0,0:0:0:0:
160,275,256271,1,4,0:2:0:0:
217,180,256443,6,0,L|149:177,1,47.5,2|0,0:0|0:0,0:0:0:0:
247,304,256615,2,0,L|330:299,1,47.5,10|0,0:0|0:0,0:0:0:0:
256,289,256788,2,0,L|339:284,1,47.5,2|0,0:0|0:0,0:0:0:0:
437,199,256960,5,8,0:0:0:0:
389,273,257133,1,2,0:0:0:0:
280,126,257477,5,0,0:0:0:0:
358,156,257650,1,0,0:0:0:0:
443,189,257822,1,2,0:0:0:0:
344,45,258167,5,0,0:0:0:0:
285,113,258340,1,0,0:0:0:0:
202,81,258512,1,2,0:0:0:0:
108,239,258857,2,0,L|133:337,1,95,2|0,0:0|0:0,0:0:0:0:
156,154,259202,1,8,0:2:0:0:
20,225,259374,5,8,0:0:0:0:
19,247,259460,1,8,0:0:0:0:
23,270,259546,1,8,0:0:0:0:
32,291,259633,1,8,0:0:0:0:
