osu file format v14

[General]
AudioFilename: audio.mp3
AudioLeadIn: 0
PreviewTime: 57439
Countdown: 0
SampleSet: Soft
StackLeniency: 0.7
Mode: 3
LetterboxInBreaks: 0
SpecialStyle: 0
WidescreenStoryboard: 1

[Editor]
DistanceSpacing: 1.1
BeatDivisor: 4
GridSize: 4
TimelineZoom: 2.2

[Metadata]
Title:Houkago Mermaid (Cut Ver.)
TitleUnicode:放課後マーメイド (Cut Ver.)
Artist:Shigure Ui
ArtistUnicode:しぐれうい
Creator:Uimii
Version:Normal
Source:
Tags:j-pop japanese pop vtuber virtual youtuber SNCL-66 yashikin やしきん mada ame wa yamanai まだ雨はやまない the rain doesn't stop yet cut version
BeatmapID:3768989
BeatmapSetID:1778884

[Difficulty]
HPDrainRate:7.5
CircleSize:4
OverallDifficulty:7
ApproachRate:5
SliderMultiplier:1.4
SliderTickRate:1

[Events]
//Background and Video events
0,0,"bg.jpg",0,0
//Break Periods
//Storyboard Layer 0 (Background)
//Storyboard Layer 1 (Fail)
//Storyboard Layer 2 (Pass)
//Storyboard Layer 3 (Foreground)
//Storyboard Layer 4 (Overlay)
//Storyboard Sound Samples

[TimingPoints]
915,365.853658536586,4,2,1,60,1,0
17012,-100,4,2,1,60,0,1
28719,-100,4,2,1,60,0,0
57988,-100,4,2,1,60,0,1
72622,-100,4,2,1,60,0,0
74085,-100,4,2,1,60,0,1
84329,-100,4,2,1,60,0,0

[HitObjects]
448,192,915,1,0,0:0:0:0:
448,192,1280,128,0,1646:0:0:0:0:
64,192,1646,1,0,0:0:0:0:
448,192,1829,1,0,0:0:0:0:
448,192,2195,1,0,0:0:0:0:
320,192,2561,1,0,0:0:0:0:
192,192,2927,1,0,0:0:0:0:
320,192,3110,1,0,0:0:0:0:
192,192,3293,1,0,0:0:0:0:
320,192,3475,128,0,3841:0:0:0:0:
64,192,3841,1,0,0:0:0:0:
64,192,4207,128,0,4573:0:0:0:0:
448,192,4573,1,0,0:0:0:0:
64,192,4756,1,0,0:0:0:0:
64,192,5122,1,0,0:0:0:0:
192,192,5488,1,0,0:0:0:0:
320,192,5854,1,0,0:0:0:0:
192,192,6036,1,0,0:0:0:0:
320,192,6219,1,0,0:0:0:0:
192,192,6402,128,0,6768:0:0:0:0:
320,192,6768,1,0,0:0:0:0:
448,192,6768,1,0,0:0:0:0:
320,192,7134,1,0,0:0:0:0:
448,192,7134,128,0,7500:0:0:0:0:
64,192,7500,1,0,0:0:0:0:
448,192,7683,1,0,0:0:0:0:
192,192,7866,1,0,0:0:0:0:
448,192,8049,1,0,0:0:0:0:
64,192,8232,1,0,0:0:0:0:
320,192,8415,1,0,0:0:0:0:
448,192,8597,1,0,0:0:0:0:
192,192,8780,1,0,0:0:0:0:
448,192,8963,1,0,0:0:0:0:
320,192,8963,1,0,0:0:0:0:
192,192,9146,1,0,0:0:0:0:
64,192,9329,1,0,0:0:0:0:
320,192,9329,128,0,9695:0:0:0:0:
192,192,9695,1,0,0:0:0:0:
64,192,9695,1,0,0:0:0:0:
192,192,10061,1,0,0:0:0:0:
64,192,10061,128,0,10427:0:0:0:0:
448,192,10427,1,0,0:0:0:0:
64,192,10610,1,0,0:0:0:0:
320,192,10793,1,0,0:0:0:0:
64,192,10975,1,0,0:0:0:0:
448,192,11158,1,0,0:0:0:0:
192,192,11341,1,0,0:0:0:0:
64,192,11524,1,0,0:0:0:0:
320,192,11707,1,0,0:0:0:0:
64,192,11890,1,0,0:0:0:0:
192,192,11890,1,0,0:0:0:0:
320,192,12073,1,0,0:0:0:0:
192,192,12256,128,0,12622:0:0:0:0:
448,192,12256,1,0,0:0:0:0:
448,192,12622,1,0,0:0:0:0:
320,192,12622,1,0,0:0:0:0:
448,192,12988,1,0,0:0:0:0:
320,192,12988,128,0,13354:0:0:0:0:
192,192,13354,1,0,0:0:0:0:
320,192,13536,1,0,0:0:0:0:
64,192,13719,1,0,0:0:0:0:
320,192,13902,1,0,0:0:0:0:
192,192,14085,1,0,0:0:0:0:
448,192,14268,1,0,0:0:0:0:
320,192,14451,1,0,0:0:0:0:
64,192,14634,1,0,0:0:0:0:
320,192,14817,1,0,0:0:0:0:
448,192,14817,1,0,0:0:0:0:
64,192,15000,1,0,0:0:0:0:
448,192,15183,128,0,15549:0:0:0:0:
192,192,15183,1,0,0:0:0:0:
320,192,15549,1,0,0:0:0:0:
64,192,15732,1,0,0:0:0:0:
448,192,15915,1,0,0:0:0:0:
64,192,16097,1,0,0:0:0:0:
448,192,16280,128,0,16463:0:0:0:0:
64,192,16463,128,0,16646:0:0:0:0:
320,192,16646,1,0,0:0:0:0:
448,192,16646,1,0,0:0:0:0:
320,192,16829,1,0,0:0:0:0:
192,192,17012,1,0,0:0:0:0:
64,192,17012,128,0,17378:0:0:0:0:
320,192,17378,1,0,0:0:0:0:
448,192,17378,1,0,0:0:0:0:
192,192,17561,1,0,0:0:0:0:
64,192,17744,1,0,0:0:0:0:
320,192,17927,1,0,0:0:0:0:
192,192,18110,1,0,0:0:0:0:
64,192,18110,1,0,0:0:0:0:
448,192,18293,1,0,0:0:0:0:
64,192,18475,1,0,0:0:0:0:
192,192,18658,128,0,18841:0:0:0:0:
448,192,18841,1,0,0:0:0:0:
64,192,18841,1,0,0:0:0:0:
320,192,19024,128,0,19207:0:0:0:0:
448,192,19207,1,0,0:0:0:0:
64,192,19390,128,0,19573:0:0:0:0:
320,192,19573,1,0,0:0:0:0:
448,192,19573,1,0,0:0:0:0:
192,192,19756,1,0,0:0:0:0:
448,192,19939,128,0,20305:0:0:0:0:
64,192,20305,1,0,0:0:0:0:
192,192,20305,1,0,0:0:0:0:
320,192,20488,1,0,0:0:0:0:
448,192,20671,1,0,0:0:0:0:
192,192,20854,1,0,0:0:0:0:
320,192,21036,1,0,0:0:0:0:
448,192,21036,1,0,0:0:0:0:
64,192,21219,1,0,0:0:0:0:
320,192,21402,1,0,0:0:0:0:
448,192,21585,128,0,21768:0:0:0:0:
64,192,21768,1,0,0:0:0:0:
192,192,21768,128,0,21951:0:0:0:0:
320,192,21951,128,0,22134:0:0:0:0:
64,192,22134,128,0,22317:0:0:0:0:
192,192,22317,128,0,22500:0:0:0:0:
448,192,22500,1,0,0:0:0:0:
320,192,22500,128,0,22683:0:0:0:0:
64,192,22683,128,0,22866:0:0:0:0:
448,192,22866,128,0,23232:0:0:0:0:
192,192,23232,1,0,0:0:0:0:
64,192,23232,1,0,0:0:0:0:
320,192,23415,1,0,0:0:0:0:
448,192,23597,1,0,0:0:0:0:
192,192,23780,1,0,0:0:0:0:
320,192,23963,1,0,0:0:0:0:
448,192,23963,1,0,0:0:0:0:
64,192,24146,1,0,0:0:0:0:
448,192,24329,1,0,0:0:0:0:
320,192,24512,128,0,24695:0:0:0:0:
64,192,24695,1,0,0:0:0:0:
448,192,24695,1,0,0:0:0:0:
192,192,24878,128,0,25061:0:0:0:0:
64,192,25061,1,0,0:0:0:0:
448,192,25244,128,0,25427:0:0:0:0:
64,192,25427,1,0,0:0:0:0:
192,192,25427,1,0,0:0:0:0:
320,192,25610,1,0,0:0:0:0:
192,192,25793,128,0,26524:0:0:0:0:
448,192,26158,1,0,0:0:0:0:
320,192,26158,1,0,0:0:0:0:
64,192,26524,1,0,0:0:0:0:
448,192,26707,1,0,0:0:0:0:
192,192,26890,1,0,0:0:0:0:
64,192,26890,1,0,0:0:0:0:
320,192,27073,1,0,0:0:0:0:
448,192,27256,1,0,0:0:0:0:
192,192,27439,128,0,27622:0:0:0:0:
320,192,27622,1,0,0:0:0:0:
192,192,27805,1,0,0:0:0:0:
320,192,27988,128,0,28354:0:0:0:0:
64,192,28171,1,0,0:0:0:0:
448,192,28354,1,0,0:0:0:0:
192,192,28536,1,0,0:0:0:0:
320,192,28719,1,0,0:0:0:0:
448,192,28719,1,0,0:0:0:0:
192,192,29085,1,0,0:0:0:0:
64,192,29085,1,0,0:0:0:0:
320,192,29451,1,0,0:0:0:0:
448,192,29817,1,0,0:0:0:0:
64,192,29817,1,0,0:0:0:0:
192,192,30183,128,0,30549:0:0:0:0:
320,192,30549,1,0,0:0:0:0:
448,192,30549,1,0,0:0:0:0:
192,192,30915,1,0,0:0:0:0:
448,192,31097,1,0,0:0:0:0:
64,192,31280,1,0,0:0:0:0:
320,192,31280,1,0,0:0:0:0:
192,192,31463,128,0,31646:0:0:0:0:
448,192,31646,128,0,32012:0:0:0:0:
192,192,32012,1,0,0:0:0:0:
64,192,32012,1,0,0:0:0:0:
448,192,32378,1,0,0:0:0:0:
320,192,32744,1,0,0:0:0:0:
192,192,32744,1,0,0:0:0:0:
64,192,33110,128,0,33475:0:0:0:0:
320,192,33475,1,0,0:0:0:0:
448,192,33475,1,0,0:0:0:0:
64,192,33841,1,0,0:0:0:0:
320,192,34024,1,0,0:0:0:0:
192,192,34207,1,0,0:0:0:0:
448,192,34207,1,0,0:0:0:0:
64,192,34390,128,0,34573:0:0:0:0:
320,192,34573,128,0,34939:0:0:0:0:
192,192,34939,1,0,0:0:0:0:
64,192,34939,1,0,0:0:0:0:
320,192,35305,1,0,0:0:0:0:
448,192,35671,1,0,0:0:0:0:
192,192,35671,1,0,0:0:0:0:
64,192,36036,128,0,36402:0:0:0:0:
320,192,36402,1,0,0:0:0:0:
448,192,36402,1,0,0:0:0:0:
64,192,36768,1,0,0:0:0:0:
448,192,36951,1,0,0:0:0:0:
192,192,37134,1,0,0:0:0:0:
320,192,37134,1,0,0:0:0:0:
64,192,37317,128,0,37500:0:0:0:0:
448,192,37500,128,0,37866:0:0:0:0:
64,192,37866,1,0,0:0:0:0:
192,192,37866,1,0,0:0:0:0:
448,192,38232,1,0,0:0:0:0:
320,192,38597,1,0,0:0:0:0:
64,192,38597,1,0,0:0:0:0:
192,192,38963,128,0,39329:0:0:0:0:
320,192,39329,1,0,0:0:0:0:
448,192,39329,1,0,0:0:0:0:
64,192,39695,1,0,0:0:0:0:
192,192,39878,1,0,0:0:0:0:
448,192,40061,1,0,0:0:0:0:
320,192,40244,1,0,0:0:0:0:
192,192,40427,1,0,0:0:0:0:
64,192,40427,1,0,0:0:0:0:
320,192,40793,1,0,0:0:0:0:
448,192,40793,1,0,0:0:0:0:
192,192,41158,1,0,0:0:0:0:
320,192,41341,1,0,0:0:0:0:
320,192,41524,1,0,0:0:0:0:
64,192,41524,1,0,0:0:0:0:
448,192,41890,1,0,0:0:0:0:
192,192,42073,1,0,0:0:0:0:
192,192,42256,1,0,0:0:0:0:
320,192,42256,1,0,0:0:0:0:
64,192,42622,1,0,0:0:0:0:
448,192,42805,1,0,0:0:0:0:
448,192,42988,1,0,0:0:0:0:
192,192,42988,1,0,0:0:0:0:
192,192,43354,1,0,0:0:0:0:
64,192,43354,1,0,0:0:0:0:
320,192,43719,1,0,0:0:0:0:
448,192,43719,1,0,0:0:0:0:
64,192,44085,1,0,0:0:0:0:
448,192,44268,1,0,0:0:0:0:
448,192,44451,1,0,0:0:0:0:
192,192,44451,1,0,0:0:0:0:
320,192,44817,1,0,0:0:0:0:
64,192,45000,1,0,0:0:0:0:
64,192,45183,1,0,0:0:0:0:
448,192,45183,1,0,0:0:0:0:
192,192,45549,1,0,0:0:0:0:
320,192,45732,1,0,0:0:0:0:
320,192,45915,1,0,0:0:0:0:
64,192,45915,1,0,0:0:0:0:
192,192,46097,1,0,0:0:0:0:
448,192,46097,128,0,46463:0:0:0:0:
64,192,46463,1,0,0:0:0:0:
320,192,46646,1,0,0:0:0:0:
448,192,46646,1,0,0:0:0:0:
192,192,47012,1,0,0:0:0:0:
64,192,47012,1,0,0:0:0:0:
320,192,47195,1,0,0:0:0:0:
192,192,47378,1,0,0:0:0:0:
448,192,47378,1,0,0:0:0:0:
320,192,47744,1,0,0:0:0:0:
64,192,47744,1,0,0:0:0:0:
192,192,47927,1,0,0:0:0:0:
320,192,48110,1,0,0:0:0:0:
448,192,48110,1,0,0:0:0:0:
192,192,48475,1,0,0:0:0:0:
64,192,48475,1,0,0:0:0:0:
320,192,48658,1,0,0:0:0:0:
192,192,48841,1,0,0:0:0:0:
448,192,48841,1,0,0:0:0:0:
320,192,49024,1,0,0:0:0:0:
64,192,49024,128,0,49390:0:0:0:0:
448,192,49390,1,0,0:0:0:0:
192,192,49573,1,0,0:0:0:0:
64,192,49573,1,0,0:0:0:0:
320,192,49939,1,0,0:0:0:0:
448,192,49939,1,0,0:0:0:0:
64,192,50122,1,0,0:0:0:0:
192,192,50305,1,0,0:0:0:0:
320,192,50305,1,0,0:0:0:0:
64,192,50671,1,0,0:0:0:0:
448,192,50671,1,0,0:0:0:0:
320,192,50854,1,0,0:0:0:0:
192,192,51036,1,0,0:0:0:0:
64,192,51036,1,0,0:0:0:0:
320,192,51402,1,0,0:0:0:0:
448,192,51402,1,0,0:0:0:0:
192,192,51585,1,0,0:0:0:0:
64,192,51768,1,0,0:0:0:0:
320,192,51768,1,0,0:0:0:0:
192,192,51951,1,0,0:0:0:0:
448,192,51951,128,0,52317:0:0:0:0:
64,192,52317,1,0,0:0:0:0:
192,192,52500,1,0,0:0:0:0:
320,192,52866,1,0,0:0:0:0:
64,192,53232,1,0,0:0:0:0:
448,192,53597,1,0,0:0:0:0:
192,192,53963,1,0,0:0:0:0:
320,192,54329,1,0,0:0:0:0:
448,192,54512,1,0,0:0:0:0:
64,192,54695,1,0,0:0:0:0:
192,192,54878,1,0,0:0:0:0:
320,192,54878,1,0,0:0:0:0:
448,192,55061,1,0,0:0:0:0:
64,192,55244,1,0,0:0:0:0:
192,192,55427,1,0,0:0:0:0:
320,192,55610,1,0,0:0:0:0:
448,192,55793,1,0,0:0:0:0:
64,192,55975,1,0,0:0:0:0:
192,192,56158,1,0,0:0:0:0:
320,192,56341,1,0,0:0:0:0:
448,192,56341,1,0,0:0:0:0:
64,192,56524,1,0,0:0:0:0:
320,192,56707,1,0,0:0:0:0:
192,192,56890,1,0,0:0:0:0:
448,192,57073,1,0,0:0:0:0:
64,192,57256,128,0,57439:0:0:0:0:
192,192,57439,128,0,57622:0:0:0:0:
320,192,57622,128,0,57805:0:0:0:0:
448,192,57805,128,0,57988:0:0:0:0:
64,192,57988,1,0,0:0:0:0:
192,192,57988,128,0,58354:0:0:0:0:
448,192,58354,1,0,0:0:0:0:
320,192,58354,1,0,0:0:0:0:
64,192,58536,1,0,0:0:0:0:
320,192,58719,128,0,59085:0:0:0:0:
192,192,59085,1,0,0:0:0:0:
64,192,59085,1,0,0:0:0:0:
448,192,59268,1,0,0:0:0:0:
192,192,59451,1,0,0:0:0:0:
320,192,59634,1,0,0:0:0:0:
448,192,59817,1,0,0:0:0:0:
64,192,59817,128,0,60183:0:0:0:0:
320,192,60183,1,0,0:0:0:0:
192,192,60366,1,0,0:0:0:0:
320,192,60549,1,0,0:0:0:0:
448,192,60549,1,0,0:0:0:0:
64,192,60732,1,0,0:0:0:0:
192,192,60915,1,0,0:0:0:0:
64,192,61280,1,0,0:0:0:0:
448,192,61280,128,0,62378:0:0:0:0:
320,192,61646,1,0,0:0:0:0:
192,192,62012,1,0,0:0:0:0:
64,192,62012,1,0,0:0:0:0:
320,192,62378,1,0,0:0:0:0:
192,192,62561,128,0,62744:0:0:0:0:
64,192,62744,1,0,0:0:0:0:
448,192,62744,1,0,0:0:0:0:
320,192,62927,128,0,63110:0:0:0:0:
192,192,63110,128,0,63475:0:0:0:0:
320,192,63293,1,0,0:0:0:0:
448,192,63475,1,0,0:0:0:0:
64,192,63475,1,0,0:0:0:0:
192,192,63658,128,0,63841:0:0:0:0:
320,192,63841,128,0,64207:0:0:0:0:
448,192,63841,1,0,0:0:0:0:
64,192,64207,1,0,0:0:0:0:
192,192,64207,1,0,0:0:0:0:
448,192,64390,1,0,0:0:0:0:
192,192,64573,128,0,64939:0:0:0:0:
320,192,64939,1,0,0:0:0:0:
448,192,64939,1,0,0:0:0:0:
64,192,65122,1,0,0:0:0:0:
320,192,65305,1,0,0:0:0:0:
192,192,65488,1,0,0:0:0:0:
64,192,65671,1,0,0:0:0:0:
448,192,65671,1,0,0:0:0:0:
320,192,65854,1,0,0:0:0:0:
192,192,66036,1,0,0:0:0:0:
320,192,66219,1,0,0:0:0:0:
192,192,66402,1,0,0:0:0:0:
64,192,66402,1,0,0:0:0:0:
448,192,66585,1,0,0:0:0:0:
320,192,66768,1,0,0:0:0:0:
448,192,67134,1,0,0:0:0:0:
64,192,67134,128,0,68232:0:0:0:0:
192,192,67500,1,0,0:0:0:0:
320,192,67866,1,0,0:0:0:0:
448,192,67866,1,0,0:0:0:0:
192,192,68232,1,0,0:0:0:0:
320,192,68415,128,0,68597:0:0:0:0:
64,192,68597,1,0,0:0:0:0:
448,192,68597,128,0,68780:0:0:0:0:
192,192,68780,128,0,68963:0:0:0:0:
320,192,68963,128,0,69146:0:0:0:0:
192,192,69146,128,0,69329:0:0:0:0:
64,192,69329,1,0,0:0:0:0:
448,192,69329,1,0,0:0:0:0:
320,192,69512,128,0,69695:0:0:0:0:
192,192,69695,1,0,0:0:0:0:
64,192,69695,1,0,0:0:0:0:
320,192,70061,1,0,0:0:0:0:
448,192,70061,1,0,0:0:0:0:
192,192,70427,1,0,0:0:0:0:
64,192,70427,1,0,0:0:0:0:
320,192,70793,1,0,0:0:0:0:
448,192,70793,1,0,0:0:0:0:
64,192,71158,1,0,0:0:0:0:
192,192,71158,1,0,0:0:0:0:
320,192,71524,1,0,0:0:0:0:
448,192,71524,1,0,0:0:0:0:
64,192,71890,1,0,0:0:0:0:
192,192,72073,1,0,0:0:0:0:
320,192,72256,1,0,0:0:0:0:
448,192,72439,1,0,0:0:0:0:
64,192,72622,1,0,0:0:0:0:
320,192,72805,1,0,0:0:0:0:
192,192,72988,1,0,0:0:0:0:
320,192,73171,1,0,0:0:0:0:
192,192,73354,128,0,73536:0:0:0:0:
320,192,73536,128,0,73719:0:0:0:0:
192,192,73719,1,0,0:0:0:0:
64,192,73719,1,0,0:0:0:0:
64,192,73902,1,0,0:0:0:0:
320,192,74085,1,0,0:0:0:0:
448,192,74085,128,0,74451:0:0:0:0:
192,192,74451,1,0,0:0:0:0:
64,192,74451,1,0,0:0:0:0:
320,192,74634,1,0,0:0:0:0:
448,192,74817,1,0,0:0:0:0:
192,192,75000,1,0,0:0:0:0:
320,192,75183,1,0,0:0:0:0:
448,192,75183,1,0,0:0:0:0:
64,192,75366,1,0,0:0:0:0:
448,192,75549,1,0,0:0:0:0:
320,192,75732,128,0,75915:0:0:0:0:
64,192,75915,1,0,0:0:0:0:
448,192,75915,1,0,0:0:0:0:
192,192,76097,128,0,76280:0:0:0:0:
64,192,76280,1,0,0:0:0:0:
448,192,76463,128,0,76646:0:0:0:0:
192,192,76646,1,0,0:0:0:0:
64,192,76646,1,0,0:0:0:0:
320,192,76829,1,0,0:0:0:0:
64,192,77012,128,0,77378:0:0:0:0:
448,192,77378,1,0,0:0:0:0:
320,192,77378,1,0,0:0:0:0:
192,192,77561,1,0,0:0:0:0:
64,192,77744,1,0,0:0:0:0:
320,192,77927,1,0,0:0:0:0:
192,192,78110,1,0,0:0:0:0:
64,192,78110,1,0,0:0:0:0:
448,192,78293,1,0,0:0:0:0:
192,192,78475,1,0,0:0:0:0:
64,192,78658,128,0,78841:0:0:0:0:
448,192,78841,1,0,0:0:0:0:
320,192,78841,128,0,79024:0:0:0:0:
192,192,79024,128,0,79207:0:0:0:0:
448,192,79207,128,0,79390:0:0:0:0:
320,192,79390,128,0,79573:0:0:0:0:
64,192,79573,1,0,0:0:0:0:
192,192,79573,128,0,79756:0:0:0:0:
448,192,79756,128,0,79939:0:0:0:0:
64,192,79939,128,0,80305:0:0:0:0:
320,192,80305,1,0,0:0:0:0:
448,192,80305,1,0,0:0:0:0:
192,192,80488,1,0,0:0:0:0:
64,192,80671,1,0,0:0:0:0:
320,192,80854,1,0,0:0:0:0:
192,192,81036,1,0,0:0:0:0:
64,192,81036,1,0,0:0:0:0:
448,192,81219,1,0,0:0:0:0:
64,192,81402,1,0,0:0:0:0:
192,192,81585,128,0,81768:0:0:0:0:
448,192,81768,1,0,0:0:0:0:
64,192,81768,1,0,0:0:0:0:
320,192,81951,128,0,82134:0:0:0:0:
448,192,82134,1,0,0:0:0:0:
64,192,82317,128,0,82500:0:0:0:0:
448,192,82500,1,0,0:0:0:0:
320,192,82500,1,0,0:0:0:0:
192,192,82683,1,0,0:0:0:0:
320,192,82866,128,0,83597:0:0:0:0:
64,192,83232,1,0,0:0:0:0:
192,192,83232,1,0,0:0:0:0:
448,192,83597,1,0,0:0:0:0:
64,192,83780,1,0,0:0:0:0:
320,192,83963,1,0,0:0:0:0:
448,192,83963,1,0,0:0:0:0:
192,192,84146,1,0,0:0:0:0:
64,192,84329,1,0,0:0:0:0:
320,192,84512,128,0,84695:0:0:0:0:
192,192,84695,1,0,0:0:0:0:
320,192,84878,1,0,0:0:0:0:
192,192,85061,128,0,85427:0:0:0:0:
448,192,85244,1,0,0:0:0:0:
64,192,85427,1,0,0:0:0:0:
320,192,85610,1,0,0:0:0:0:
192,192,85793,1,0,0:0:0:0:
320,192,86158,1,0,0:0:0:0:
448,192,86158,128,0,87622:0:0:0:0:
