osu file format v14

[General]
AudioFilename: audio.mp3
AudioLeadIn: 0
PreviewTime: 57439
Countdown: 0
SampleSet: Soft
StackLeniency: 0.7
Mode: 3
LetterboxInBreaks: 0
SpecialStyle: 0
WidescreenStoryboard: 1

[Editor]
DistanceSpacing: 1.1
BeatDivisor: 4
GridSize: 4
TimelineZoom: 2.2

[Metadata]
Title:Houkago Mermaid (Cut Ver.)
TitleUnicode:放課後マーメイド (Cut Ver.)
Artist:Shigure Ui
ArtistUnicode:しぐれうい
Creator:Uimii
Version:Insane
Source:
Tags:j-pop japanese pop vtuber virtual youtuber SNCL-66 yashikin やしきん mada ame wa yamanai まだ雨はやまない the rain doesn't stop yet cut version
BeatmapID:3643197
BeatmapSetID:1778884

[Difficulty]
HPDrainRate:8.5
CircleSize:4
OverallDifficulty:8
ApproachRate:5
SliderMultiplier:1.4
SliderTickRate:1

[Events]
//Background and Video events
0,0,"bg.jpg",0,0
//Break Periods
//Storyboard Layer 0 (Background)
//Storyboard Layer 1 (Fail)
//Storyboard Layer 2 (Pass)
//Storyboard Layer 3 (Foreground)
//Storyboard Layer 4 (Overlay)
//Storyboard Sound Samples

[TimingPoints]
915,365.853658536586,4,2,1,60,1,0
17012,-100,4,2,1,60,0,1
28719,-100,4,2,1,60,0,0
57988,-100,4,2,1,60,0,1
72622,-100,4,2,1,60,0,0
74085,-100,4,2,1,60,0,1
84329,-100,4,2,1,60,0,0

[HitObjects]
448,192,915,128,0,1097:0:0:0:0:
64,192,915,1,0,0:0:0:0:
448,192,1280,128,0,1646:0:0:0:0:
64,192,1280,1,0,0:0:0:0:
64,192,1463,1,0,0:0:0:0:
320,192,1646,128,0,1829:0:0:0:0:
448,192,1829,128,0,2012:0:0:0:0:
64,192,2012,1,0,0:0:0:0:
448,192,2195,128,0,2378:0:0:0:0:
64,192,2561,128,0,2744:0:0:0:0:
448,192,2744,1,0,0:0:0:0:
448,192,2927,1,0,0:0:0:0:
192,192,2927,128,0,3110:0:0:0:0:
64,192,3110,128,0,3293:0:0:0:0:
192,192,3293,128,0,3475:0:0:0:0:
448,192,3293,1,0,0:0:0:0:
64,192,3475,128,0,3841:0:0:0:0:
448,192,3475,1,0,0:0:0:0:
320,192,3841,128,0,4024:0:0:0:0:
320,192,4207,128,0,4573:0:0:0:0:
192,192,4207,1,0,0:0:0:0:
192,192,4390,1,0,0:0:0:0:
448,192,4573,128,0,4756:0:0:0:0:
320,192,4756,128,0,4939:0:0:0:0:
192,192,4939,1,0,0:0:0:0:
320,192,5122,128,0,5305:0:0:0:0:
192,192,5488,128,0,5671:0:0:0:0:
320,192,5671,1,0,0:0:0:0:
64,192,5854,128,0,6036:0:0:0:0:
320,192,5854,1,0,0:0:0:0:
192,192,6036,128,0,6219:0:0:0:0:
64,192,6219,128,0,6402:0:0:0:0:
320,192,6219,1,0,0:0:0:0:
192,192,6402,128,0,6768:0:0:0:0:
320,192,6402,1,0,0:0:0:0:
64,192,6768,1,0,0:0:0:0:
448,192,6768,128,0,6951:0:0:0:0:
64,192,7134,1,0,0:0:0:0:
448,192,7134,128,0,7500:0:0:0:0:
192,192,7134,1,0,0:0:0:0:
192,192,7317,1,0,0:0:0:0:
64,192,7500,1,0,0:0:0:0:
320,192,7500,128,0,7683:0:0:0:0:
448,192,7683,128,0,7866:0:0:0:0:
64,192,7866,1,0,0:0:0:0:
192,192,7866,1,0,0:0:0:0:
448,192,8049,128,0,8232:0:0:0:0:
320,192,8232,1,0,0:0:0:0:
192,192,8232,1,0,0:0:0:0:
64,192,8415,128,0,8597:0:0:0:0:
320,192,8597,1,0,0:0:0:0:
448,192,8597,1,0,0:0:0:0:
448,192,8780,1,0,0:0:0:0:
192,192,8780,128,0,8963:0:0:0:0:
320,192,8963,1,0,0:0:0:0:
64,192,8963,128,0,9146:0:0:0:0:
448,192,9146,1,0,0:0:0:0:
192,192,9146,128,0,9329:0:0:0:0:
320,192,9329,1,0,0:0:0:0:
64,192,9329,128,0,9695:0:0:0:0:
448,192,9329,1,0,0:0:0:0:
192,192,9695,1,0,0:0:0:0:
320,192,9695,128,0,9878:0:0:0:0:
192,192,10061,1,0,0:0:0:0:
320,192,10061,128,0,10427:0:0:0:0:
64,192,10061,1,0,0:0:0:0:
64,192,10244,1,0,0:0:0:0:
192,192,10427,1,0,0:0:0:0:
448,192,10427,128,0,10610:0:0:0:0:
320,192,10610,128,0,10793:0:0:0:0:
192,192,10793,1,0,0:0:0:0:
64,192,10793,1,0,0:0:0:0:
320,192,10975,128,0,11158:0:0:0:0:
448,192,11158,1,0,0:0:0:0:
64,192,11158,1,0,0:0:0:0:
192,192,11341,128,0,11524:0:0:0:0:
448,192,11524,1,0,0:0:0:0:
320,192,11524,1,0,0:0:0:0:
64,192,11707,128,0,11890:0:0:0:0:
320,192,11707,1,0,0:0:0:0:
448,192,11890,1,0,0:0:0:0:
192,192,11890,128,0,12073:0:0:0:0:
64,192,12073,128,0,12256:0:0:0:0:
320,192,12073,1,0,0:0:0:0:
448,192,12256,1,0,0:0:0:0:
192,192,12256,128,0,12622:0:0:0:0:
320,192,12256,1,0,0:0:0:0:
64,192,12622,1,0,0:0:0:0:
448,192,12622,128,0,12805:0:0:0:0:
64,192,12988,1,0,0:0:0:0:
448,192,12988,128,0,13354:0:0:0:0:
192,192,12988,1,0,0:0:0:0:
192,192,13171,1,0,0:0:0:0:
64,192,13354,1,0,0:0:0:0:
320,192,13354,128,0,13536:0:0:0:0:
448,192,13536,128,0,13719:0:0:0:0:
64,192,13719,1,0,0:0:0:0:
192,192,13719,1,0,0:0:0:0:
448,192,13902,128,0,14085:0:0:0:0:
320,192,14085,1,0,0:0:0:0:
192,192,14085,1,0,0:0:0:0:
64,192,14268,128,0,14634:0:0:0:0:
320,192,14451,1,0,0:0:0:0:
448,192,14451,1,0,0:0:0:0:
192,192,14634,128,0,14817:0:0:0:0:
320,192,14817,1,0,0:0:0:0:
64,192,14817,128,0,15000:0:0:0:0:
192,192,15000,128,0,15183:0:0:0:0:
320,192,15183,1,0,0:0:0:0:
64,192,15183,128,0,15549:0:0:0:0:
448,192,15549,1,0,0:0:0:0:
192,192,15732,1,0,0:0:0:0:
64,192,15732,1,0,0:0:0:0:
192,192,15915,1,0,0:0:0:0:
64,192,15915,1,0,0:0:0:0:
64,192,16097,1,0,0:0:0:0:
192,192,16097,1,0,0:0:0:0:
320,192,16189,1,0,0:0:0:0:
448,192,16280,1,0,0:0:0:0:
64,192,16280,1,0,0:0:0:0:
192,192,16372,1,0,0:0:0:0:
320,192,16463,1,0,0:0:0:0:
448,192,16463,1,0,0:0:0:0:
192,192,16555,1,0,0:0:0:0:
64,192,16646,1,0,0:0:0:0:
448,192,16646,1,0,0:0:0:0:
320,192,16829,1,0,0:0:0:0:
192,192,16829,1,0,0:0:0:0:
64,192,17012,128,0,17378:0:0:0:0:
448,192,17012,1,0,0:0:0:0:
320,192,17012,128,0,17195:0:0:0:0:
192,192,17195,1,0,0:0:0:0:
320,192,17378,128,0,17469:0:0:0:0:
192,192,17378,1,0,0:0:0:0:
448,192,17378,128,0,17744:0:0:0:0:
320,192,17561,128,0,17744:0:0:0:0:
64,192,17744,128,0,17927:0:0:0:0:
192,192,17744,1,0,0:0:0:0:
320,192,17927,128,0,18018:0:0:0:0:
320,192,18110,128,0,18293:0:0:0:0:
448,192,18110,1,0,0:0:0:0:
64,192,18110,1,0,0:0:0:0:
192,192,18293,128,0,18475:0:0:0:0:
64,192,18475,1,0,0:0:0:0:
320,192,18475,1,0,0:0:0:0:
448,192,18658,128,0,18841:0:0:0:0:
320,192,18750,128,0,18841:0:0:0:0:
192,192,18841,128,0,19024:0:0:0:0:
64,192,18841,128,0,18933:0:0:0:0:
448,192,19024,128,0,19207:0:0:0:0:
320,192,19116,128,0,19207:0:0:0:0:
192,192,19207,128,0,19390:0:0:0:0:
64,192,19207,128,0,19299:0:0:0:0:
448,192,19390,128,0,19482:0:0:0:0:
320,192,19482,128,0,19573:0:0:0:0:
448,192,19573,1,0,0:0:0:0:
192,192,19573,1,0,0:0:0:0:
64,192,19573,128,0,19665:0:0:0:0:
64,192,19756,128,0,19939:0:0:0:0:
448,192,19939,128,0,20305:0:0:0:0:
192,192,19939,128,0,20122:0:0:0:0:
320,192,20122,1,0,0:0:0:0:
320,192,20305,1,0,0:0:0:0:
192,192,20305,128,0,20396:0:0:0:0:
64,192,20305,128,0,20671:0:0:0:0:
192,192,20488,128,0,20671:0:0:0:0:
320,192,20671,1,0,0:0:0:0:
448,192,20671,128,0,20854:0:0:0:0:
192,192,20854,128,0,21036:0:0:0:0:
64,192,21036,1,0,0:0:0:0:
320,192,21036,1,0,0:0:0:0:
448,192,21036,1,0,0:0:0:0:
192,192,21219,128,0,21402:0:0:0:0:
64,192,21219,128,0,21402:0:0:0:0:
320,192,21402,1,0,0:0:0:0:
448,192,21402,1,0,0:0:0:0:
448,192,21585,128,0,21768:0:0:0:0:
320,192,21677,128,0,21768:0:0:0:0:
64,192,21768,128,0,21951:0:0:0:0:
192,192,21768,128,0,22134:0:0:0:0:
320,192,21951,128,0,22134:0:0:0:0:
448,192,22134,128,0,22317:0:0:0:0:
64,192,22134,128,0,22500:0:0:0:0:
320,192,22317,128,0,22408:0:0:0:0:
192,192,22408,128,0,22500:0:0:0:0:
320,192,22500,128,0,22591:0:0:0:0:
448,192,22500,128,0,22866:0:0:0:0:
64,192,22591,128,0,22683:0:0:0:0:
192,192,22683,128,0,22774:0:0:0:0:
64,192,22774,128,0,22866:0:0:0:0:
320,192,22866,128,0,23049:0:0:0:0:
192,192,22866,128,0,23232:0:0:0:0:
64,192,23049,1,0,0:0:0:0:
320,192,23232,128,0,23323:0:0:0:0:
64,192,23232,1,0,0:0:0:0:
448,192,23232,128,0,23597:0:0:0:0:
320,192,23415,128,0,23597:0:0:0:0:
192,192,23597,128,0,23780:0:0:0:0:
64,192,23597,1,0,0:0:0:0:
320,192,23780,128,0,23872:0:0:0:0:
320,192,23963,128,0,24146:0:0:0:0:
448,192,23963,1,0,0:0:0:0:
192,192,23963,1,0,0:0:0:0:
64,192,24146,128,0,24329:0:0:0:0:
192,192,24329,1,0,0:0:0:0:
320,192,24329,1,0,0:0:0:0:
448,192,24512,128,0,24695:0:0:0:0:
320,192,24604,128,0,24695:0:0:0:0:
64,192,24695,128,0,24878:0:0:0:0:
192,192,24695,128,0,24786:0:0:0:0:
448,192,24878,128,0,25061:0:0:0:0:
320,192,24969,128,0,25061:0:0:0:0:
64,192,25061,128,0,25244:0:0:0:0:
192,192,25061,128,0,25152:0:0:0:0:
448,192,25244,128,0,25335:0:0:0:0:
320,192,25335,128,0,25427:0:0:0:0:
448,192,25427,1,0,0:0:0:0:
64,192,25427,1,0,0:0:0:0:
192,192,25427,128,0,25518:0:0:0:0:
192,192,25610,128,0,25793:0:0:0:0:
64,192,25793,128,0,26707:0:0:0:0:
448,192,25793,1,0,0:0:0:0:
320,192,25975,1,0,0:0:0:0:
192,192,26158,1,0,0:0:0:0:
320,192,26158,1,0,0:0:0:0:
448,192,26158,1,0,0:0:0:0:
192,192,26341,1,0,0:0:0:0:
320,192,26524,1,0,0:0:0:0:
448,192,26524,1,0,0:0:0:0:
192,192,26707,1,0,0:0:0:0:
192,192,26890,1,0,0:0:0:0:
64,192,26890,1,0,0:0:0:0:
448,192,26890,1,0,0:0:0:0:
448,192,27073,128,0,27256:0:0:0:0:
320,192,27256,1,0,0:0:0:0:
64,192,27256,1,0,0:0:0:0:
192,192,27347,1,0,0:0:0:0:
448,192,27439,1,0,0:0:0:0:
320,192,27530,1,0,0:0:0:0:
192,192,27622,1,0,0:0:0:0:
64,192,27622,1,0,0:0:0:0:
320,192,27713,1,0,0:0:0:0:
448,192,27805,1,0,0:0:0:0:
192,192,27896,1,0,0:0:0:0:
64,192,27988,1,0,0:0:0:0:
448,192,27988,1,0,0:0:0:0:
320,192,28079,1,0,0:0:0:0:
64,192,28171,1,0,0:0:0:0:
192,192,28262,1,0,0:0:0:0:
320,192,28354,1,0,0:0:0:0:
448,192,28354,1,0,0:0:0:0:
192,192,28445,1,0,0:0:0:0:
64,192,28536,1,0,0:0:0:0:
320,192,28628,1,0,0:0:0:0:
448,192,28719,1,0,0:0:0:0:
64,192,28719,1,0,0:0:0:0:
192,192,28719,1,0,0:0:0:0:
320,192,28902,128,0,29268:0:0:0:0:
192,192,29085,1,0,0:0:0:0:
64,192,29085,1,0,0:0:0:0:
448,192,29085,128,0,29268:0:0:0:0:
64,192,29268,1,0,0:0:0:0:
192,192,29451,128,0,29817:0:0:0:0:
320,192,29451,1,0,0:0:0:0:
64,192,29634,128,0,29817:0:0:0:0:
448,192,29817,1,0,0:0:0:0:
320,192,29817,1,0,0:0:0:0:
448,192,30000,128,0,30366:0:0:0:0:
64,192,30183,128,0,30366:0:0:0:0:
192,192,30183,128,0,30366:0:0:0:0:
320,192,30366,1,0,0:0:0:0:
448,192,30549,1,0,0:0:0:0:
64,192,30549,1,0,0:0:0:0:
320,192,30549,128,0,30732:0:0:0:0:
192,192,30732,1,0,0:0:0:0:
448,192,30915,1,0,0:0:0:0:
192,192,30915,128,0,31280:0:0:0:0:
320,192,31097,1,0,0:0:0:0:
64,192,31097,1,0,0:0:0:0:
64,192,31280,1,0,0:0:0:0:
320,192,31280,1,0,0:0:0:0:
448,192,31280,1,0,0:0:0:0:
192,192,31463,1,0,0:0:0:0:
320,192,31646,128,0,31829:0:0:0:0:
448,192,31646,128,0,31829:0:0:0:0:
192,192,31829,1,0,0:0:0:0:
64,192,32012,1,0,0:0:0:0:
320,192,32012,1,0,0:0:0:0:
192,192,32012,128,0,32195:0:0:0:0:
448,192,32195,1,0,0:0:0:0:
448,192,32378,1,0,0:0:0:0:
64,192,32378,1,0,0:0:0:0:
64,192,32561,128,0,32927:0:0:0:0:
192,192,32744,1,0,0:0:0:0:
320,192,32744,1,0,0:0:0:0:
448,192,32744,1,0,0:0:0:0:
320,192,32927,128,0,33110:0:0:0:0:
64,192,33110,128,0,33293:0:0:0:0:
192,192,33110,128,0,33293:0:0:0:0:
448,192,33293,128,0,33475:0:0:0:0:
320,192,33475,1,0,0:0:0:0:
192,192,33475,1,0,0:0:0:0:
64,192,33475,1,0,0:0:0:0:
448,192,33658,128,0,34024:0:0:0:0:
320,192,33841,128,0,34024:0:0:0:0:
64,192,33841,1,0,0:0:0:0:
192,192,34024,1,0,0:0:0:0:
64,192,34024,1,0,0:0:0:0:
192,192,34207,1,0,0:0:0:0:
320,192,34207,128,0,34573:0:0:0:0:
448,192,34207,128,0,34573:0:0:0:0:
64,192,34390,1,0,0:0:0:0:
64,192,34573,128,0,34756:0:0:0:0:
192,192,34573,128,0,34756:0:0:0:0:
320,192,34756,1,0,0:0:0:0:
320,192,34939,1,0,0:0:0:0:
64,192,34939,1,0,0:0:0:0:
448,192,34939,1,0,0:0:0:0:
64,192,35122,128,0,35305:0:0:0:0:
192,192,35305,1,0,0:0:0:0:
448,192,35305,1,0,0:0:0:0:
448,192,35488,128,0,35671:0:0:0:0:
320,192,35671,1,0,0:0:0:0:
64,192,35671,1,0,0:0:0:0:
192,192,35671,1,0,0:0:0:0:
192,192,35854,128,0,36219:0:0:0:0:
320,192,36036,128,0,36219:0:0:0:0:
448,192,36036,128,0,36219:0:0:0:0:
64,192,36219,1,0,0:0:0:0:
64,192,36402,1,0,0:0:0:0:
448,192,36402,1,0,0:0:0:0:
320,192,36402,128,0,36768:0:0:0:0:
192,192,36585,1,0,0:0:0:0:
448,192,36768,1,0,0:0:0:0:
64,192,36768,128,0,36951:0:0:0:0:
320,192,36951,1,0,0:0:0:0:
192,192,36951,1,0,0:0:0:0:
192,192,37134,1,0,0:0:0:0:
64,192,37134,1,0,0:0:0:0:
448,192,37134,1,0,0:0:0:0:
448,192,37317,128,0,37500:0:0:0:0:
320,192,37500,128,0,38232:0:0:0:0:
192,192,37500,128,0,37683:0:0:0:0:
64,192,37683,1,0,0:0:0:0:
64,192,37866,1,0,0:0:0:0:
192,192,37866,1,0,0:0:0:0:
448,192,38049,1,0,0:0:0:0:
448,192,38232,1,0,0:0:0:0:
64,192,38232,1,0,0:0:0:0:
192,192,38415,1,0,0:0:0:0:
320,192,38597,1,0,0:0:0:0:
448,192,38597,1,0,0:0:0:0:
64,192,38597,128,0,38780:0:0:0:0:
192,192,38780,1,0,0:0:0:0:
448,192,38963,128,0,39329:0:0:0:0:
320,192,38963,128,0,39146:0:0:0:0:
64,192,39146,1,0,0:0:0:0:
192,192,39329,1,0,0:0:0:0:
64,192,39329,1,0,0:0:0:0:
320,192,39329,1,0,0:0:0:0:
320,192,39512,128,0,39695:0:0:0:0:
64,192,39695,1,0,0:0:0:0:
192,192,39695,128,0,40061:0:0:0:0:
448,192,39786,1,0,0:0:0:0:
320,192,39878,1,0,0:0:0:0:
448,192,40061,1,0,0:0:0:0:
64,192,40061,1,0,0:0:0:0:
320,192,40152,1,0,0:0:0:0:
192,192,40244,1,0,0:0:0:0:
320,192,40427,1,0,0:0:0:0:
448,192,40427,1,0,0:0:0:0:
64,192,40427,1,0,0:0:0:0:
192,192,40610,1,0,0:0:0:0:
320,192,40793,1,0,0:0:0:0:
64,192,40793,1,0,0:0:0:0:
448,192,40793,1,0,0:0:0:0:
448,192,40975,128,0,41158:0:0:0:0:
192,192,41158,128,0,41341:0:0:0:0:
64,192,41341,128,0,41707:0:0:0:0:
320,192,41341,1,0,0:0:0:0:
448,192,41524,1,0,0:0:0:0:
192,192,41524,1,0,0:0:0:0:
320,192,41524,1,0,0:0:0:0:
448,192,41707,128,0,42622:0:0:0:0:
64,192,41890,1,0,0:0:0:0:
192,192,42073,1,0,0:0:0:0:
320,192,42073,1,0,0:0:0:0:
64,192,42256,1,0,0:0:0:0:
320,192,42256,1,0,0:0:0:0:
192,192,42256,1,0,0:0:0:0:
64,192,42439,1,0,0:0:0:0:
320,192,42622,1,0,0:0:0:0:
192,192,42805,1,0,0:0:0:0:
64,192,42805,1,0,0:0:0:0:
320,192,42988,1,0,0:0:0:0:
448,192,42988,1,0,0:0:0:0:
64,192,42988,128,0,43354:0:0:0:0:
192,192,43171,1,0,0:0:0:0:
448,192,43354,1,0,0:0:0:0:
320,192,43354,128,0,43719:0:0:0:0:
64,192,43536,1,0,0:0:0:0:
192,192,43719,1,0,0:0:0:0:
64,192,43719,1,0,0:0:0:0:
448,192,43719,1,0,0:0:0:0:
448,192,43902,128,0,44085:0:0:0:0:
192,192,44085,128,0,44268:0:0:0:0:
320,192,44268,1,0,0:0:0:0:
448,192,44268,1,0,0:0:0:0:
192,192,44451,1,0,0:0:0:0:
64,192,44451,1,0,0:0:0:0:
320,192,44451,128,0,44634:0:0:0:0:
64,192,44634,128,0,45000:0:0:0:0:
448,192,44817,1,0,0:0:0:0:
320,192,45000,1,0,0:0:0:0:
192,192,45000,128,0,45183:0:0:0:0:
64,192,45183,1,0,0:0:0:0:
320,192,45183,1,0,0:0:0:0:
448,192,45183,128,0,45549:0:0:0:0:
192,192,45366,1,0,0:0:0:0:
64,192,45549,128,0,45915:0:0:0:0:
320,192,45732,1,0,0:0:0:0:
448,192,45732,1,0,0:0:0:0:
192,192,45915,1,0,0:0:0:0:
320,192,45915,1,0,0:0:0:0:
448,192,45915,1,0,0:0:0:0:
64,192,46097,128,0,46463:0:0:0:0:
192,192,46097,128,0,46463:0:0:0:0:
448,192,46097,128,0,46280:0:0:0:0:
320,192,46463,1,0,0:0:0:0:
448,192,46463,1,0,0:0:0:0:
192,192,46646,1,0,0:0:0:0:
64,192,46646,1,0,0:0:0:0:
320,192,46646,128,0,47012:0:0:0:0:
64,192,46829,1,0,0:0:0:0:
448,192,47012,1,0,0:0:0:0:
192,192,47012,128,0,47378:0:0:0:0:
320,192,47195,1,0,0:0:0:0:
64,192,47195,1,0,0:0:0:0:
320,192,47378,1,0,0:0:0:0:
448,192,47378,1,0,0:0:0:0:
64,192,47378,1,0,0:0:0:0:
448,192,47561,128,0,48110:0:0:0:0:
320,192,47744,1,0,0:0:0:0:
64,192,47744,1,0,0:0:0:0:
192,192,47927,1,0,0:0:0:0:
64,192,47927,1,0,0:0:0:0:
192,192,48110,1,0,0:0:0:0:
320,192,48110,1,0,0:0:0:0:
64,192,48110,128,0,48475:0:0:0:0:
448,192,48293,1,0,0:0:0:0:
192,192,48475,1,0,0:0:0:0:
320,192,48475,128,0,48658:0:0:0:0:
64,192,48658,1,0,0:0:0:0:
448,192,48658,1,0,0:0:0:0:
320,192,48841,1,0,0:0:0:0:
448,192,48841,1,0,0:0:0:0:
192,192,48841,1,0,0:0:0:0:
64,192,49024,128,0,49390:0:0:0:0:
192,192,49024,128,0,49390:0:0:0:0:
320,192,49024,128,0,49207:0:0:0:0:
320,192,49390,1,0,0:0:0:0:
448,192,49390,1,0,0:0:0:0:
64,192,49573,1,0,0:0:0:0:
192,192,49573,1,0,0:0:0:0:
448,192,49573,128,0,49939:0:0:0:0:
192,192,49756,1,0,0:0:0:0:
320,192,49939,1,0,0:0:0:0:
64,192,49939,128,0,50305:0:0:0:0:
448,192,50122,1,0,0:0:0:0:
192,192,50122,1,0,0:0:0:0:
448,192,50305,1,0,0:0:0:0:
320,192,50305,1,0,0:0:0:0:
192,192,50305,1,0,0:0:0:0:
320,192,50488,128,0,51036:0:0:0:0:
448,192,50671,1,0,0:0:0:0:
192,192,50671,1,0,0:0:0:0:
64,192,50854,1,0,0:0:0:0:
192,192,50854,1,0,0:0:0:0:
64,192,51036,1,0,0:0:0:0:
448,192,51036,1,0,0:0:0:0:
192,192,51036,128,0,51402:0:0:0:0:
320,192,51219,1,0,0:0:0:0:
64,192,51402,1,0,0:0:0:0:
448,192,51402,128,0,51768:0:0:0:0:
192,192,51585,1,0,0:0:0:0:
320,192,51585,1,0,0:0:0:0:
192,192,51768,1,0,0:0:0:0:
320,192,51768,1,0,0:0:0:0:
64,192,51768,1,0,0:0:0:0:
64,192,51951,128,0,52134:0:0:0:0:
320,192,51951,128,0,52317:0:0:0:0:
448,192,51951,128,0,52317:0:0:0:0:
192,192,52317,1,0,0:0:0:0:
64,192,52500,1,0,0:0:0:0:
192,192,52500,128,0,52683:0:0:0:0:
320,192,52683,1,0,0:0:0:0:
448,192,52866,1,0,0:0:0:0:
320,192,52866,128,0,53049:0:0:0:0:
64,192,53049,1,0,0:0:0:0:
320,192,53232,1,0,0:0:0:0:
64,192,53232,128,0,53415:0:0:0:0:
192,192,53415,1,0,0:0:0:0:
448,192,53597,1,0,0:0:0:0:
192,192,53597,128,0,53780:0:0:0:0:
320,192,53780,1,0,0:0:0:0:
64,192,53963,1,0,0:0:0:0:
320,192,53963,128,0,54146:0:0:0:0:
448,192,54146,1,0,0:0:0:0:
192,192,54329,1,0,0:0:0:0:
448,192,54329,128,0,54512:0:0:0:0:
64,192,54512,1,0,0:0:0:0:
320,192,54512,128,0,54695:0:0:0:0:
448,192,54695,1,0,0:0:0:0:
64,192,54695,128,0,54878:0:0:0:0:
320,192,54878,1,0,0:0:0:0:
192,192,54878,128,0,55061:0:0:0:0:
448,192,54969,1,0,0:0:0:0:
64,192,55061,1,0,0:0:0:0:
448,192,55244,1,0,0:0:0:0:
320,192,55335,1,0,0:0:0:0:
192,192,55427,1,0,0:0:0:0:
448,192,55427,128,0,55610:0:0:0:0:
64,192,55610,1,0,0:0:0:0:
192,192,55701,1,0,0:0:0:0:
320,192,55793,1,0,0:0:0:0:
64,192,55793,128,0,55975:0:0:0:0:
192,192,55975,1,0,0:0:0:0:
320,192,56067,5,0,0:0:0:0:
64,192,56158,1,0,0:0:0:0:
448,192,56158,1,0,0:0:0:0:
192,192,56250,1,0,0:0:0:0:
320,192,56341,1,0,0:0:0:0:
448,192,56341,1,0,0:0:0:0:
64,192,56341,1,0,0:0:0:0:
192,192,56433,1,0,0:0:0:0:
320,192,56524,1,0,0:0:0:0:
448,192,56524,1,0,0:0:0:0:
192,192,56707,1,0,0:0:0:0:
64,192,56707,1,0,0:0:0:0:
192,192,56890,1,0,0:0:0:0:
320,192,56890,1,0,0:0:0:0:
320,192,57073,1,0,0:0:0:0:
448,192,57073,1,0,0:0:0:0:
64,192,57256,5,0,0:0:0:0:
192,192,57302,1,0,0:0:0:0:
320,192,57347,1,0,0:0:0:0:
448,192,57393,1,0,0:0:0:0:
64,192,57439,1,0,0:0:0:0:
192,192,57485,1,0,0:0:0:0:
320,192,57530,1,0,0:0:0:0:
448,192,57576,1,0,0:0:0:0:
192,192,57622,1,0,0:0:0:0:
64,192,57668,1,0,0:0:0:0:
448,192,57713,1,0,0:0:0:0:
320,192,57759,1,0,0:0:0:0:
192,192,57805,1,0,0:0:0:0:
64,192,57850,1,0,0:0:0:0:
448,192,57896,1,0,0:0:0:0:
320,192,57942,1,0,0:0:0:0:
64,192,57988,128,0,58354:0:0:0:0:
192,192,57988,1,0,0:0:0:0:
320,192,58171,1,0,0:0:0:0:
192,192,58354,1,0,0:0:0:0:
320,192,58354,128,0,58536:0:0:0:0:
448,192,58354,128,0,58719:0:0:0:0:
64,192,58536,1,0,0:0:0:0:
192,192,58719,1,0,0:0:0:0:
64,192,58719,128,0,59085:0:0:0:0:
448,192,58902,1,0,0:0:0:0:
192,192,59085,1,0,0:0:0:0:
320,192,59085,1,0,0:0:0:0:
448,192,59085,1,0,0:0:0:0:
192,192,59268,128,0,59451:0:0:0:0:
64,192,59451,1,0,0:0:0:0:
448,192,59451,1,0,0:0:0:0:
320,192,59634,1,0,0:0:0:0:
448,192,59817,1,0,0:0:0:0:
64,192,59817,1,0,0:0:0:0:
320,192,59817,128,0,60183:0:0:0:0:
192,192,60000,1,0,0:0:0:0:
448,192,60183,1,0,0:0:0:0:
64,192,60183,128,0,60366:0:0:0:0:
448,192,60366,1,0,0:0:0:0:
192,192,60366,1,0,0:0:0:0:
64,192,60549,1,0,0:0:0:0:
192,192,60549,1,0,0:0:0:0:
320,192,60549,1,0,0:0:0:0:
320,192,60732,128,0,60915:0:0:0:0:
192,192,60915,1,0,0:0:0:0:
64,192,60915,1,0,0:0:0:0:
448,192,61097,128,0,61280:0:0:0:0:
192,192,61280,1,0,0:0:0:0:
64,192,61280,1,0,0:0:0:0:
320,192,61280,128,0,61646:0:0:0:0:
192,192,61463,128,0,61646:0:0:0:0:
64,192,61646,1,0,0:0:0:0:
448,192,61646,128,0,61829:0:0:0:0:
64,192,61829,128,0,62012:0:0:0:0:
192,192,62012,128,0,62378:0:0:0:0:
320,192,62012,1,0,0:0:0:0:
448,192,62012,1,0,0:0:0:0:
320,192,62195,128,0,62378:0:0:0:0:
448,192,62378,1,0,0:0:0:0:
64,192,62378,128,0,62561:0:0:0:0:
448,192,62561,128,0,62744:0:0:0:0:
320,192,62744,1,0,0:0:0:0:
64,192,62744,1,0,0:0:0:0:
192,192,62744,128,0,63110:0:0:0:0:
448,192,62927,128,0,63293:0:0:0:0:
64,192,63110,1,0,0:0:0:0:
320,192,63110,128,0,63293:0:0:0:0:
192,192,63293,1,0,0:0:0:0:
192,192,63475,1,0,0:0:0:0:
320,192,63475,1,0,0:0:0:0:
448,192,63475,1,0,0:0:0:0:
64,192,63658,1,0,0:0:0:0:
448,192,63841,1,0,0:0:0:0:
320,192,63841,128,0,64207:0:0:0:0:
64,192,63841,1,0,0:0:0:0:
192,192,64024,1,0,0:0:0:0:
64,192,64207,128,0,64573:0:0:0:0:
192,192,64207,128,0,64390:0:0:0:0:
448,192,64207,1,0,0:0:0:0:
320,192,64390,1,0,0:0:0:0:
320,192,64573,128,0,64939:0:0:0:0:
448,192,64573,1,0,0:0:0:0:
64,192,64756,1,0,0:0:0:0:
64,192,64939,1,0,0:0:0:0:
192,192,64939,1,0,0:0:0:0:
448,192,64939,1,0,0:0:0:0:
448,192,65122,128,0,65305:0:0:0:0:
64,192,65305,1,0,0:0:0:0:
320,192,65305,1,0,0:0:0:0:
192,192,65488,1,0,0:0:0:0:
192,192,65671,128,0,65854:0:0:0:0:
320,192,65671,1,0,0:0:0:0:
64,192,65671,1,0,0:0:0:0:
448,192,65854,128,0,66036:0:0:0:0:
320,192,66036,128,0,66219:0:0:0:0:
64,192,66036,1,0,0:0:0:0:
448,192,66219,1,0,0:0:0:0:
64,192,66219,128,0,66402:0:0:0:0:
192,192,66402,1,0,0:0:0:0:
320,192,66402,1,0,0:0:0:0:
448,192,66402,128,0,66585:0:0:0:0:
192,192,66585,128,0,66768:0:0:0:0:
448,192,66768,1,0,0:0:0:0:
320,192,66768,1,0,0:0:0:0:
64,192,66951,1,0,0:0:0:0:
64,192,67134,1,0,0:0:0:0:
320,192,67134,1,0,0:0:0:0:
448,192,67134,1,0,0:0:0:0:
320,192,67317,128,0,67500:0:0:0:0:
192,192,67500,1,0,0:0:0:0:
64,192,67500,128,0,67683:0:0:0:0:
448,192,67683,1,0,0:0:0:0:
64,192,67866,1,0,0:0:0:0:
448,192,67866,1,0,0:0:0:0:
192,192,67866,1,0,0:0:0:0:
192,192,68049,128,0,68415:0:0:0:0:
64,192,68232,1,0,0:0:0:0:
448,192,68232,1,0,0:0:0:0:
320,192,68415,1,0,0:0:0:0:
448,192,68597,1,0,0:0:0:0:
192,192,68597,1,0,0:0:0:0:
320,192,68597,128,0,68780:0:0:0:0:
64,192,68780,1,0,0:0:0:0:
64,192,68963,128,0,69329:0:0:0:0:
448,192,68963,128,0,69055:0:0:0:0:
448,192,69146,128,0,69329:0:0:0:0:
192,192,69146,1,0,0:0:0:0:
192,192,69329,1,0,0:0:0:0:
320,192,69329,1,0,0:0:0:0:
320,192,69512,128,0,69695:0:0:0:0:
192,192,69695,1,0,0:0:0:0:
64,192,69695,1,0,0:0:0:0:
448,192,69695,1,0,0:0:0:0:
64,192,69878,1,0,0:0:0:0:
192,192,70061,1,0,0:0:0:0:
448,192,70061,128,0,70427:0:0:0:0:
192,192,70244,128,0,70427:0:0:0:0:
320,192,70427,1,0,0:0:0:0:
64,192,70427,1,0,0:0:0:0:
448,192,70610,128,0,70793:0:0:0:0:
320,192,70793,1,0,0:0:0:0:
192,192,70793,1,0,0:0:0:0:
64,192,70975,128,0,71341:0:0:0:0:
320,192,71158,1,0,0:0:0:0:
448,192,71158,1,0,0:0:0:0:
192,192,71341,1,0,0:0:0:0:
192,192,71524,1,0,0:0:0:0:
320,192,71524,1,0,0:0:0:0:
320,192,71707,128,0,71890:0:0:0:0:
192,192,71890,1,0,0:0:0:0:
64,192,71890,1,0,0:0:0:0:
448,192,71982,1,0,0:0:0:0:
320,192,72073,1,0,0:0:0:0:
64,192,72165,1,0,0:0:0:0:
192,192,72256,1,0,0:0:0:0:
320,192,72256,1,0,0:0:0:0:
448,192,72347,1,0,0:0:0:0:
192,192,72439,1,0,0:0:0:0:
64,192,72530,1,0,0:0:0:0:
320,192,72622,1,0,0:0:0:0:
448,192,72622,1,0,0:0:0:0:
192,192,72805,1,0,0:0:0:0:
64,192,72805,1,0,0:0:0:0:
192,192,72988,5,0,0:0:0:0:
64,192,72988,1,0,0:0:0:0:
192,192,73171,1,0,0:0:0:0:
64,192,73171,1,0,0:0:0:0:
320,192,73262,1,0,0:0:0:0:
64,192,73354,1,0,0:0:0:0:
448,192,73354,1,0,0:0:0:0:
192,192,73445,1,0,0:0:0:0:
320,192,73536,1,0,0:0:0:0:
448,192,73536,1,0,0:0:0:0:
192,192,73628,1,0,0:0:0:0:
448,192,73719,1,0,0:0:0:0:
64,192,73719,1,0,0:0:0:0:
320,192,73902,1,0,0:0:0:0:
192,192,73902,1,0,0:0:0:0:
64,192,74085,128,0,74451:0:0:0:0:
448,192,74085,1,0,0:0:0:0:
320,192,74085,128,0,74268:0:0:0:0:
192,192,74268,1,0,0:0:0:0:
320,192,74451,128,0,74543:0:0:0:0:
192,192,74451,1,0,0:0:0:0:
448,192,74451,128,0,74817:0:0:0:0:
320,192,74634,128,0,74817:0:0:0:0:
64,192,74817,128,0,75000:0:0:0:0:
192,192,74817,1,0,0:0:0:0:
320,192,75000,128,0,75091:0:0:0:0:
320,192,75183,128,0,75366:0:0:0:0:
448,192,75183,1,0,0:0:0:0:
64,192,75183,1,0,0:0:0:0:
192,192,75366,128,0,75549:0:0:0:0:
64,192,75549,1,0,0:0:0:0:
320,192,75549,1,0,0:0:0:0:
448,192,75732,128,0,75915:0:0:0:0:
320,192,75823,128,0,75915:0:0:0:0:
192,192,75915,128,0,76097:0:0:0:0:
64,192,75915,128,0,76006:0:0:0:0:
448,192,76097,128,0,76280:0:0:0:0:
320,192,76189,128,0,76280:0:0:0:0:
192,192,76280,128,0,76463:0:0:0:0:
64,192,76280,128,0,76372:0:0:0:0:
448,192,76463,128,0,76555:0:0:0:0:
320,192,76555,128,0,76646:0:0:0:0:
448,192,76646,1,0,0:0:0:0:
192,192,76646,1,0,0:0:0:0:
64,192,76646,128,0,76738:0:0:0:0:
64,192,76829,128,0,77012:0:0:0:0:
448,192,77012,128,0,77378:0:0:0:0:
192,192,77012,128,0,77195:0:0:0:0:
320,192,77195,1,0,0:0:0:0:
320,192,77378,1,0,0:0:0:0:
192,192,77378,128,0,77469:0:0:0:0:
64,192,77378,128,0,77744:0:0:0:0:
192,192,77561,128,0,77744:0:0:0:0:
320,192,77744,1,0,0:0:0:0:
448,192,77744,128,0,77927:0:0:0:0:
192,192,77927,128,0,78110:0:0:0:0:
64,192,78110,1,0,0:0:0:0:
320,192,78110,1,0,0:0:0:0:
448,192,78110,1,0,0:0:0:0:
192,192,78293,128,0,78475:0:0:0:0:
64,192,78293,128,0,78475:0:0:0:0:
320,192,78475,1,0,0:0:0:0:
448,192,78475,1,0,0:0:0:0:
448,192,78658,128,0,78841:0:0:0:0:
320,192,78750,128,0,78841:0:0:0:0:
64,192,78841,128,0,79024:0:0:0:0:
192,192,78841,128,0,79207:0:0:0:0:
320,192,79024,128,0,79207:0:0:0:0:
64,192,79207,128,0,79573:0:0:0:0:
448,192,79207,128,0,79390:0:0:0:0:
320,192,79390,128,0,79482:0:0:0:0:
192,192,79482,128,0,79573:0:0:0:0:
320,192,79573,128,0,79665:0:0:0:0:
448,192,79573,128,0,79939:0:0:0:0:
64,192,79665,128,0,79756:0:0:0:0:
192,192,79756,128,0,79847:0:0:0:0:
64,192,79847,128,0,79939:0:0:0:0:
320,192,79939,128,0,80122:0:0:0:0:
192,192,79939,128,0,80305:0:0:0:0:
64,192,80122,1,0,0:0:0:0:
320,192,80305,128,0,80396:0:0:0:0:
64,192,80305,1,0,0:0:0:0:
448,192,80305,128,0,80671:0:0:0:0:
320,192,80488,128,0,80671:0:0:0:0:
192,192,80671,128,0,80854:0:0:0:0:
64,192,80671,1,0,0:0:0:0:
320,192,80854,128,0,80945:0:0:0:0:
320,192,81036,128,0,81219:0:0:0:0:
448,192,81036,1,0,0:0:0:0:
192,192,81036,1,0,0:0:0:0:
64,192,81219,128,0,81402:0:0:0:0:
192,192,81402,1,0,0:0:0:0:
320,192,81402,1,0,0:0:0:0:
448,192,81585,128,0,81768:0:0:0:0:
320,192,81677,128,0,81768:0:0:0:0:
64,192,81768,128,0,81951:0:0:0:0:
192,192,81768,128,0,81860:0:0:0:0:
448,192,81951,128,0,82134:0:0:0:0:
320,192,82043,128,0,82134:0:0:0:0:
64,192,82134,128,0,82317:0:0:0:0:
192,192,82134,128,0,82225:0:0:0:0:
448,192,82317,128,0,82408:0:0:0:0:
320,192,82408,128,0,82500:0:0:0:0:
448,192,82500,1,0,0:0:0:0:
64,192,82500,1,0,0:0:0:0:
192,192,82500,128,0,82591:0:0:0:0:
192,192,82683,128,0,82866:0:0:0:0:
64,192,82866,128,0,83780:0:0:0:0:
448,192,82866,1,0,0:0:0:0:
320,192,83049,1,0,0:0:0:0:
192,192,83232,1,0,0:0:0:0:
320,192,83232,1,0,0:0:0:0:
448,192,83232,1,0,0:0:0:0:
192,192,83415,1,0,0:0:0:0:
320,192,83597,1,0,0:0:0:0:
448,192,83597,1,0,0:0:0:0:
192,192,83780,1,0,0:0:0:0:
192,192,83963,1,0,0:0:0:0:
64,192,83963,1,0,0:0:0:0:
448,192,83963,1,0,0:0:0:0:
448,192,84146,128,0,84329:0:0:0:0:
320,192,84329,1,0,0:0:0:0:
64,192,84329,1,0,0:0:0:0:
192,192,84421,1,0,0:0:0:0:
448,192,84512,1,0,0:0:0:0:
320,192,84604,1,0,0:0:0:0:
192,192,84695,1,0,0:0:0:0:
64,192,84695,1,0,0:0:0:0:
320,192,84786,1,0,0:0:0:0:
448,192,84878,1,0,0:0:0:0:
192,192,84969,1,0,0:0:0:0:
64,192,85061,1,0,0:0:0:0:
448,192,85061,1,0,0:0:0:0:
320,192,85152,1,0,0:0:0:0:
64,192,85244,1,0,0:0:0:0:
192,192,85335,1,0,0:0:0:0:
320,192,85427,1,0,0:0:0:0:
448,192,85427,1,0,0:0:0:0:
64,192,85518,1,0,0:0:0:0:
320,192,85610,1,0,0:0:0:0:
192,192,85701,1,0,0:0:0:0:
448,192,85793,128,0,85975:0:0:0:0:
64,192,86158,128,0,87622:0:0:0:0:
192,192,86158,128,0,87622:0:0:0:0:
320,192,86158,1,0,0:0:0:0:
