osu file format v14

[General]
AudioFilename: audio.mp3
AudioLeadIn: 0
PreviewTime: 57439
Countdown: 0
SampleSet: Soft
StackLeniency: 0.7
Mode: 3
LetterboxInBreaks: 0
SpecialStyle: 0
WidescreenStoryboard: 1

[Editor]
DistanceSpacing: 1.1
BeatDivisor: 4
GridSize: 4
TimelineZoom: 2.2

[Metadata]
Title:Houkago Mermaid (Cut Ver.)
TitleUnicode:放課後マーメイド (Cut Ver.)
Artist:Shigure Ui
ArtistUnicode:しぐれうい
Creator:Uimii
Version:Hard
Source:
Tags:j-pop japanese pop vtuber virtual youtuber SNCL-66 yashikin やしきん mada ame wa yamanai まだ雨はやまない the rain doesn't stop yet cut version
BeatmapID:3643195
BeatmapSetID:1778884

[Difficulty]
HPDrainRate:8
CircleSize:4
OverallDifficulty:7.5
ApproachRate:5
SliderMultiplier:1.4
SliderTickRate:1

[Events]
//Background and Video events
0,0,"bg.jpg",0,0
//Break Periods
//Storyboard Layer 0 (Background)
//Storyboard Layer 1 (Fail)
//Storyboard Layer 2 (Pass)
//Storyboard Layer 3 (Foreground)
//Storyboard Layer 4 (Overlay)
//Storyboard Sound Samples

[TimingPoints]
915,365.853658536586,4,2,1,60,1,0
17012,-100,4,2,1,60,0,1
28719,-100,4,2,1,60,0,0
57988,-100,4,2,1,60,0,1
72622,-100,4,2,1,60,0,0
74085,-100,4,2,1,60,0,1
84329,-100,4,2,1,60,0,0

[HitObjects]
320,192,915,5,0,0:0:0:0:
448,192,915,128,0,1280:0:0:0:0:
64,192,1280,1,0,0:0:0:0:
192,192,1463,1,0,0:0:0:0:
448,192,1646,128,0,2012:0:0:0:0:
64,192,2012,1,0,0:0:0:0:
320,192,2195,1,0,0:0:0:0:
192,192,2378,1,0,0:0:0:0:
64,192,2561,1,0,0:0:0:0:
64,192,2744,128,0,3110:0:0:0:0:
448,192,3110,1,0,0:0:0:0:
320,192,3293,1,0,0:0:0:0:
320,192,3475,1,0,0:0:0:0:
320,192,3658,1,0,0:0:0:0:
64,192,3841,1,0,0:0:0:0:
192,192,4024,1,0,0:0:0:0:
192,192,4207,1,0,0:0:0:0:
448,192,4390,1,0,0:0:0:0:
320,192,4573,1,0,0:0:0:0:
64,192,4756,1,0,0:0:0:0:
448,192,4939,1,0,0:0:0:0:
192,192,5122,1,0,0:0:0:0:
64,192,5305,1,0,0:0:0:0:
448,192,5488,1,0,0:0:0:0:
320,192,5671,128,0,6036:0:0:0:0:
64,192,6036,1,0,0:0:0:0:
448,192,6219,1,0,0:0:0:0:
192,192,6402,1,0,0:0:0:0:
320,192,6585,1,0,0:0:0:0:
192,192,6768,1,0,0:0:0:0:
64,192,6768,128,0,7134:0:0:0:0:
448,192,7134,1,0,0:0:0:0:
320,192,7134,1,0,0:0:0:0:
320,192,7317,1,0,0:0:0:0:
64,192,7500,1,0,0:0:0:0:
192,192,7500,128,0,7866:0:0:0:0:
320,192,7866,1,0,0:0:0:0:
448,192,7866,1,0,0:0:0:0:
448,192,8049,1,0,0:0:0:0:
192,192,8232,1,0,0:0:0:0:
64,192,8232,1,0,0:0:0:0:
320,192,8415,1,0,0:0:0:0:
64,192,8597,1,0,0:0:0:0:
448,192,8597,1,0,0:0:0:0:
192,192,8780,1,0,0:0:0:0:
320,192,8963,1,0,0:0:0:0:
448,192,8963,1,0,0:0:0:0:
192,192,9146,1,0,0:0:0:0:
64,192,9329,1,0,0:0:0:0:
448,192,9329,128,0,9695:0:0:0:0:
192,192,9695,1,0,0:0:0:0:
64,192,9695,1,0,0:0:0:0:
320,192,9878,1,0,0:0:0:0:
192,192,10061,1,0,0:0:0:0:
448,192,10061,1,0,0:0:0:0:
64,192,10244,1,0,0:0:0:0:
192,192,10427,1,0,0:0:0:0:
320,192,10427,1,0,0:0:0:0:
448,192,10610,1,0,0:0:0:0:
320,192,10793,1,0,0:0:0:0:
64,192,10793,1,0,0:0:0:0:
192,192,10975,128,0,11341:0:0:0:0:
448,192,11158,1,0,0:0:0:0:
320,192,11158,1,0,0:0:0:0:
64,192,11341,1,0,0:0:0:0:
64,192,11524,1,0,0:0:0:0:
320,192,11524,1,0,0:0:0:0:
448,192,11707,1,0,0:0:0:0:
192,192,11890,1,0,0:0:0:0:
448,192,11890,128,0,12256:0:0:0:0:
320,192,12073,1,0,0:0:0:0:
64,192,12256,1,0,0:0:0:0:
192,192,12256,1,0,0:0:0:0:
320,192,12622,1,0,0:0:0:0:
448,192,12622,1,0,0:0:0:0:
192,192,12805,1,0,0:0:0:0:
64,192,12988,1,0,0:0:0:0:
320,192,12988,1,0,0:0:0:0:
192,192,13171,1,0,0:0:0:0:
64,192,13354,1,0,0:0:0:0:
448,192,13354,1,0,0:0:0:0:
320,192,13536,1,0,0:0:0:0:
192,192,13719,1,0,0:0:0:0:
448,192,13719,1,0,0:0:0:0:
320,192,13902,128,0,14268:0:0:0:0:
192,192,14085,1,0,0:0:0:0:
64,192,14085,1,0,0:0:0:0:
448,192,14268,1,0,0:0:0:0:
448,192,14451,1,0,0:0:0:0:
64,192,14451,1,0,0:0:0:0:
192,192,14634,128,0,15000:0:0:0:0:
320,192,14817,1,0,0:0:0:0:
448,192,14817,1,0,0:0:0:0:
64,192,15000,128,0,15366:0:0:0:0:
192,192,15183,1,0,0:0:0:0:
320,192,15183,1,0,0:0:0:0:
448,192,15366,128,0,15549:0:0:0:0:
64,192,15549,1,0,0:0:0:0:
320,192,15732,1,0,0:0:0:0:
192,192,15915,1,0,0:0:0:0:
320,192,16097,1,0,0:0:0:0:
192,192,16189,1,0,0:0:0:0:
64,192,16280,1,0,0:0:0:0:
448,192,16280,1,0,0:0:0:0:
320,192,16372,1,0,0:0:0:0:
192,192,16463,1,0,0:0:0:0:
320,192,16555,1,0,0:0:0:0:
448,192,16646,1,0,0:0:0:0:
64,192,16646,1,0,0:0:0:0:
192,192,16829,1,0,0:0:0:0:
320,192,17012,1,0,0:0:0:0:
448,192,17012,1,0,0:0:0:0:
64,192,17012,1,0,0:0:0:0:
192,192,17195,128,0,17378:0:0:0:0:
64,192,17378,1,0,0:0:0:0:
448,192,17378,128,0,17744:0:0:0:0:
320,192,17561,1,0,0:0:0:0:
192,192,17744,1,0,0:0:0:0:
64,192,17744,1,0,0:0:0:0:
448,192,17927,1,0,0:0:0:0:
320,192,18110,1,0,0:0:0:0:
192,192,18110,1,0,0:0:0:0:
64,192,18293,1,0,0:0:0:0:
320,192,18475,1,0,0:0:0:0:
448,192,18475,1,0,0:0:0:0:
192,192,18658,1,0,0:0:0:0:
320,192,18750,1,0,0:0:0:0:
448,192,18841,1,0,0:0:0:0:
64,192,18841,1,0,0:0:0:0:
320,192,19024,1,0,0:0:0:0:
192,192,19116,1,0,0:0:0:0:
64,192,19207,1,0,0:0:0:0:
448,192,19207,1,0,0:0:0:0:
192,192,19390,1,0,0:0:0:0:
320,192,19482,1,0,0:0:0:0:
448,192,19573,1,0,0:0:0:0:
64,192,19573,1,0,0:0:0:0:
448,192,19756,1,0,0:0:0:0:
192,192,19939,1,0,0:0:0:0:
64,192,19939,1,0,0:0:0:0:
320,192,20122,128,0,20305:0:0:0:0:
448,192,20305,1,0,0:0:0:0:
64,192,20305,128,0,20671:0:0:0:0:
192,192,20488,1,0,0:0:0:0:
320,192,20671,1,0,0:0:0:0:
448,192,20671,1,0,0:0:0:0:
64,192,20854,1,0,0:0:0:0:
192,192,21036,1,0,0:0:0:0:
320,192,21036,1,0,0:0:0:0:
448,192,21219,1,0,0:0:0:0:
192,192,21402,1,0,0:0:0:0:
64,192,21402,1,0,0:0:0:0:
320,192,21585,1,0,0:0:0:0:
64,192,21677,1,0,0:0:0:0:
192,192,21768,1,0,0:0:0:0:
448,192,21768,128,0,21951:0:0:0:0:
64,192,21951,128,0,22134:0:0:0:0:
192,192,22134,1,0,0:0:0:0:
320,192,22134,128,0,22317:0:0:0:0:
448,192,22317,1,0,0:0:0:0:
192,192,22408,1,0,0:0:0:0:
320,192,22500,1,0,0:0:0:0:
64,192,22500,1,0,0:0:0:0:
448,192,22591,1,0,0:0:0:0:
192,192,22683,1,0,0:0:0:0:
64,192,22774,1,0,0:0:0:0:
320,192,22866,1,0,0:0:0:0:
448,192,22866,1,0,0:0:0:0:
64,192,23049,128,0,23232:0:0:0:0:
192,192,23232,1,0,0:0:0:0:
320,192,23232,128,0,23597:0:0:0:0:
448,192,23415,1,0,0:0:0:0:
192,192,23597,1,0,0:0:0:0:
64,192,23597,1,0,0:0:0:0:
320,192,23780,1,0,0:0:0:0:
448,192,23963,1,0,0:0:0:0:
64,192,23963,1,0,0:0:0:0:
192,192,24146,1,0,0:0:0:0:
320,192,24329,1,0,0:0:0:0:
448,192,24329,1,0,0:0:0:0:
64,192,24512,1,0,0:0:0:0:
448,192,24604,1,0,0:0:0:0:
320,192,24695,1,0,0:0:0:0:
192,192,24695,1,0,0:0:0:0:
448,192,24878,1,0,0:0:0:0:
64,192,24969,1,0,0:0:0:0:
192,192,25061,1,0,0:0:0:0:
320,192,25061,1,0,0:0:0:0:
64,192,25244,1,0,0:0:0:0:
448,192,25335,1,0,0:0:0:0:
320,192,25427,1,0,0:0:0:0:
192,192,25427,1,0,0:0:0:0:
320,192,25610,1,0,0:0:0:0:
192,192,25793,1,0,0:0:0:0:
64,192,25793,1,0,0:0:0:0:
448,192,25975,1,0,0:0:0:0:
320,192,26158,1,0,0:0:0:0:
64,192,26158,1,0,0:0:0:0:
448,192,26341,1,0,0:0:0:0:
320,192,26524,1,0,0:0:0:0:
192,192,26524,1,0,0:0:0:0:
64,192,26707,1,0,0:0:0:0:
192,192,26890,1,0,0:0:0:0:
448,192,26890,1,0,0:0:0:0:
64,192,27073,1,0,0:0:0:0:
320,192,27256,1,0,0:0:0:0:
448,192,27256,1,0,0:0:0:0:
192,192,27347,1,0,0:0:0:0:
64,192,27439,1,0,0:0:0:0:
448,192,27530,1,0,0:0:0:0:
320,192,27622,1,0,0:0:0:0:
64,192,27713,1,0,0:0:0:0:
448,192,27805,1,0,0:0:0:0:
192,192,27896,1,0,0:0:0:0:
64,192,27988,1,0,0:0:0:0:
320,192,28079,1,0,0:0:0:0:
448,192,28171,1,0,0:0:0:0:
192,192,28262,1,0,0:0:0:0:
320,192,28354,1,0,0:0:0:0:
64,192,28445,1,0,0:0:0:0:
192,192,28536,1,0,0:0:0:0:
320,192,28628,1,0,0:0:0:0:
448,192,28719,1,0,0:0:0:0:
192,192,28719,1,0,0:0:0:0:
64,192,28719,1,0,0:0:0:0:
320,192,28902,1,0,0:0:0:0:
448,192,29085,1,0,0:0:0:0:
64,192,29085,128,0,29451:0:0:0:0:
192,192,29268,1,0,0:0:0:0:
320,192,29451,1,0,0:0:0:0:
448,192,29451,1,0,0:0:0:0:
192,192,29634,128,0,29817:0:0:0:0:
64,192,29817,1,0,0:0:0:0:
448,192,29817,1,0,0:0:0:0:
320,192,30000,128,0,30366:0:0:0:0:
192,192,30183,1,0,0:0:0:0:
64,192,30183,1,0,0:0:0:0:
448,192,30366,1,0,0:0:0:0:
448,192,30549,1,0,0:0:0:0:
64,192,30549,1,0,0:0:0:0:
64,192,30732,1,0,0:0:0:0:
320,192,30915,1,0,0:0:0:0:
448,192,30915,128,0,31280:0:0:0:0:
192,192,31097,1,0,0:0:0:0:
320,192,31280,1,0,0:0:0:0:
64,192,31280,1,0,0:0:0:0:
448,192,31463,1,0,0:0:0:0:
192,192,31646,1,0,0:0:0:0:
64,192,31646,1,0,0:0:0:0:
320,192,31829,1,0,0:0:0:0:
320,192,32012,1,0,0:0:0:0:
64,192,32012,1,0,0:0:0:0:
192,192,32195,1,0,0:0:0:0:
192,192,32378,1,0,0:0:0:0:
448,192,32378,1,0,0:0:0:0:
320,192,32561,128,0,32927:0:0:0:0:
64,192,32744,1,0,0:0:0:0:
448,192,32744,1,0,0:0:0:0:
192,192,32927,128,0,33110:0:0:0:0:
320,192,33110,1,0,0:0:0:0:
448,192,33110,1,0,0:0:0:0:
64,192,33293,128,0,33475:0:0:0:0:
192,192,33475,1,0,0:0:0:0:
448,192,33475,1,0,0:0:0:0:
64,192,33658,128,0,33841:0:0:0:0:
320,192,33841,1,0,0:0:0:0:
192,192,33841,128,0,34207:0:0:0:0:
448,192,34024,1,0,0:0:0:0:
64,192,34207,1,0,0:0:0:0:
320,192,34207,128,0,34573:0:0:0:0:
448,192,34390,1,0,0:0:0:0:
192,192,34573,1,0,0:0:0:0:
64,192,34573,1,0,0:0:0:0:
320,192,34756,1,0,0:0:0:0:
64,192,34939,1,0,0:0:0:0:
320,192,34939,1,0,0:0:0:0:
64,192,35122,1,0,0:0:0:0:
320,192,35305,1,0,0:0:0:0:
448,192,35305,1,0,0:0:0:0:
448,192,35488,128,0,35671:0:0:0:0:
64,192,35671,1,0,0:0:0:0:
192,192,35671,1,0,0:0:0:0:
320,192,35854,128,0,36219:0:0:0:0:
64,192,36036,1,0,0:0:0:0:
448,192,36036,1,0,0:0:0:0:
192,192,36219,1,0,0:0:0:0:
320,192,36402,1,0,0:0:0:0:
192,192,36402,128,0,36768:0:0:0:0:
64,192,36585,1,0,0:0:0:0:
320,192,36768,1,0,0:0:0:0:
448,192,36768,128,0,36951:0:0:0:0:
64,192,36951,1,0,0:0:0:0:
448,192,37134,1,0,0:0:0:0:
192,192,37134,128,0,37317:0:0:0:0:
320,192,37317,128,0,37500:0:0:0:0:
192,192,37500,1,0,0:0:0:0:
64,192,37500,128,0,38232:0:0:0:0:
448,192,37683,1,0,0:0:0:0:
320,192,37866,1,0,0:0:0:0:
192,192,37866,1,0,0:0:0:0:
192,192,38049,1,0,0:0:0:0:
320,192,38232,1,0,0:0:0:0:
448,192,38232,1,0,0:0:0:0:
64,192,38415,1,0,0:0:0:0:
448,192,38597,1,0,0:0:0:0:
192,192,38597,128,0,38780:0:0:0:0:
320,192,38780,1,0,0:0:0:0:
64,192,38963,1,0,0:0:0:0:
448,192,38963,128,0,39329:0:0:0:0:
192,192,39146,1,0,0:0:0:0:
320,192,39329,1,0,0:0:0:0:
64,192,39329,128,0,39512:0:0:0:0:
448,192,39512,128,0,39695:0:0:0:0:
64,192,39695,1,0,0:0:0:0:
192,192,39695,1,0,0:0:0:0:
320,192,39786,1,0,0:0:0:0:
64,192,39878,1,0,0:0:0:0:
448,192,40061,1,0,0:0:0:0:
192,192,40152,1,0,0:0:0:0:
320,192,40244,1,0,0:0:0:0:
192,192,40427,1,0,0:0:0:0:
64,192,40427,1,0,0:0:0:0:
448,192,40427,1,0,0:0:0:0:
320,192,40610,1,0,0:0:0:0:
64,192,40793,1,0,0:0:0:0:
448,192,40793,1,0,0:0:0:0:
192,192,40975,1,0,0:0:0:0:
320,192,41158,128,0,43354:0:0:0:0:
64,192,41341,1,0,0:0:0:0:
64,192,41524,1,0,0:0:0:0:
192,192,41524,1,0,0:0:0:0:
448,192,41707,1,0,0:0:0:0:
64,192,41890,1,0,0:0:0:0:
192,192,42073,1,0,0:0:0:0:
192,192,42256,1,0,0:0:0:0:
64,192,42256,1,0,0:0:0:0:
448,192,42439,1,0,0:0:0:0:
192,192,42622,1,0,0:0:0:0:
448,192,42805,1,0,0:0:0:0:
64,192,42988,1,0,0:0:0:0:
448,192,42988,128,0,43354:0:0:0:0:
192,192,43171,1,0,0:0:0:0:
192,192,43354,1,0,0:0:0:0:
64,192,43354,1,0,0:0:0:0:
320,192,43536,1,0,0:0:0:0:
192,192,43719,1,0,0:0:0:0:
448,192,43719,1,0,0:0:0:0:
320,192,43902,1,0,0:0:0:0:
64,192,44085,1,0,0:0:0:0:
448,192,44085,128,0,44451:0:0:0:0:
192,192,44268,1,0,0:0:0:0:
64,192,44451,1,0,0:0:0:0:
320,192,44451,1,0,0:0:0:0:
192,192,44634,128,0,45915:0:0:0:0:
448,192,44817,1,0,0:0:0:0:
320,192,45000,1,0,0:0:0:0:
320,192,45183,1,0,0:0:0:0:
448,192,45183,1,0,0:0:0:0:
64,192,45366,1,0,0:0:0:0:
320,192,45549,1,0,0:0:0:0:
64,192,45732,1,0,0:0:0:0:
448,192,45915,1,0,0:0:0:0:
64,192,45915,1,0,0:0:0:0:
320,192,46097,1,0,0:0:0:0:
448,192,46097,1,0,0:0:0:0:
192,192,46097,1,0,0:0:0:0:
192,192,46463,1,0,0:0:0:0:
64,192,46463,1,0,0:0:0:0:
192,192,46646,1,0,0:0:0:0:
448,192,46646,128,0,47012:0:0:0:0:
320,192,46829,1,0,0:0:0:0:
192,192,47012,1,0,0:0:0:0:
64,192,47012,1,0,0:0:0:0:
320,192,47195,1,0,0:0:0:0:
448,192,47195,1,0,0:0:0:0:
320,192,47378,1,0,0:0:0:0:
64,192,47378,1,0,0:0:0:0:
192,192,47561,1,0,0:0:0:0:
320,192,47744,1,0,0:0:0:0:
448,192,47744,1,0,0:0:0:0:
64,192,47927,1,0,0:0:0:0:
192,192,47927,1,0,0:0:0:0:
64,192,48110,1,0,0:0:0:0:
448,192,48110,1,0,0:0:0:0:
320,192,48293,1,0,0:0:0:0:
192,192,48475,1,0,0:0:0:0:
64,192,48475,1,0,0:0:0:0:
448,192,48658,1,0,0:0:0:0:
320,192,48658,128,0,48841:0:0:0:0:
192,192,48841,1,0,0:0:0:0:
64,192,48841,1,0,0:0:0:0:
64,192,49024,1,0,0:0:0:0:
320,192,49024,128,0,49390:0:0:0:0:
448,192,49024,128,0,49390:0:0:0:0:
192,192,49390,1,0,0:0:0:0:
64,192,49390,1,0,0:0:0:0:
64,192,49573,1,0,0:0:0:0:
320,192,49573,1,0,0:0:0:0:
448,192,49756,1,0,0:0:0:0:
192,192,49939,1,0,0:0:0:0:
64,192,49939,1,0,0:0:0:0:
320,192,50122,1,0,0:0:0:0:
448,192,50122,1,0,0:0:0:0:
192,192,50305,1,0,0:0:0:0:
448,192,50305,1,0,0:0:0:0:
64,192,50488,1,0,0:0:0:0:
320,192,50671,1,0,0:0:0:0:
448,192,50671,1,0,0:0:0:0:
192,192,50854,1,0,0:0:0:0:
64,192,50854,1,0,0:0:0:0:
192,192,51036,1,0,0:0:0:0:
320,192,51036,1,0,0:0:0:0:
448,192,51219,1,0,0:0:0:0:
192,192,51402,1,0,0:0:0:0:
64,192,51402,1,0,0:0:0:0:
320,192,51585,1,0,0:0:0:0:
448,192,51585,1,0,0:0:0:0:
192,192,51768,1,0,0:0:0:0:
64,192,51768,1,0,0:0:0:0:
320,192,51951,1,0,0:0:0:0:
64,192,51951,128,0,52317:0:0:0:0:
448,192,51951,128,0,52317:0:0:0:0:
192,192,52317,1,0,0:0:0:0:
320,192,52500,1,0,0:0:0:0:
192,192,52683,1,0,0:0:0:0:
320,192,52866,1,0,0:0:0:0:
64,192,53049,1,0,0:0:0:0:
448,192,53232,1,0,0:0:0:0:
64,192,53415,1,0,0:0:0:0:
448,192,53597,1,0,0:0:0:0:
192,192,53780,1,0,0:0:0:0:
64,192,53963,1,0,0:0:0:0:
320,192,54146,1,0,0:0:0:0:
192,192,54329,1,0,0:0:0:0:
448,192,54512,1,0,0:0:0:0:
320,192,54695,1,0,0:0:0:0:
192,192,54878,1,0,0:0:0:0:
64,192,54878,1,0,0:0:0:0:
320,192,54969,1,0,0:0:0:0:
448,192,55061,1,0,0:0:0:0:
192,192,55244,1,0,0:0:0:0:
64,192,55335,1,0,0:0:0:0:
192,192,55427,1,0,0:0:0:0:
448,192,55610,1,0,0:0:0:0:
320,192,55701,1,0,0:0:0:0:
448,192,55793,1,0,0:0:0:0:
64,192,55975,1,0,0:0:0:0:
192,192,56067,1,0,0:0:0:0:
64,192,56158,1,0,0:0:0:0:
192,192,56250,1,0,0:0:0:0:
448,192,56341,1,0,0:0:0:0:
320,192,56341,1,0,0:0:0:0:
64,192,56524,1,0,0:0:0:0:
192,192,56524,1,0,0:0:0:0:
192,192,56707,1,0,0:0:0:0:
320,192,56890,1,0,0:0:0:0:
448,192,56890,1,0,0:0:0:0:
320,192,57073,1,0,0:0:0:0:
192,192,57256,1,0,0:0:0:0:
64,192,57256,1,0,0:0:0:0:
448,192,57347,1,0,0:0:0:0:
64,192,57439,1,0,0:0:0:0:
320,192,57530,1,0,0:0:0:0:
448,192,57622,1,0,0:0:0:0:
192,192,57622,1,0,0:0:0:0:
64,192,57713,1,0,0:0:0:0:
320,192,57805,1,0,0:0:0:0:
192,192,57896,1,0,0:0:0:0:
448,192,57988,1,0,0:0:0:0:
64,192,57988,1,0,0:0:0:0:
320,192,57988,128,0,58171:0:0:0:0:
192,192,58171,128,0,58354:0:0:0:0:
64,192,58354,1,0,0:0:0:0:
448,192,58354,128,0,58719:0:0:0:0:
64,192,58536,1,0,0:0:0:0:
192,192,58719,1,0,0:0:0:0:
320,192,58719,1,0,0:0:0:0:
448,192,58902,1,0,0:0:0:0:
64,192,59085,1,0,0:0:0:0:
192,192,59085,1,0,0:0:0:0:
64,192,59268,1,0,0:0:0:0:
192,192,59451,1,0,0:0:0:0:
448,192,59451,1,0,0:0:0:0:
320,192,59634,1,0,0:0:0:0:
320,192,59817,1,0,0:0:0:0:
64,192,59817,1,0,0:0:0:0:
192,192,60000,1,0,0:0:0:0:
320,192,60183,1,0,0:0:0:0:
448,192,60183,1,0,0:0:0:0:
448,192,60366,1,0,0:0:0:0:
192,192,60549,1,0,0:0:0:0:
64,192,60549,1,0,0:0:0:0:
192,192,60732,1,0,0:0:0:0:
320,192,60915,1,0,0:0:0:0:
448,192,60915,1,0,0:0:0:0:
64,192,61097,1,0,0:0:0:0:
192,192,61280,1,0,0:0:0:0:
320,192,61280,128,0,62378:0:0:0:0:
192,192,61463,1,0,0:0:0:0:
448,192,61646,1,0,0:0:0:0:
64,192,61646,1,0,0:0:0:0:
448,192,61829,1,0,0:0:0:0:
192,192,62012,1,0,0:0:0:0:
64,192,62012,1,0,0:0:0:0:
64,192,62195,1,0,0:0:0:0:
192,192,62378,1,0,0:0:0:0:
448,192,62378,1,0,0:0:0:0:
448,192,62561,128,0,62744:0:0:0:0:
320,192,62744,1,0,0:0:0:0:
64,192,62744,1,0,0:0:0:0:
192,192,62927,128,0,63110:0:0:0:0:
448,192,63110,128,0,63475:0:0:0:0:
320,192,63110,1,0,0:0:0:0:
64,192,63293,1,0,0:0:0:0:
64,192,63475,1,0,0:0:0:0:
192,192,63475,1,0,0:0:0:0:
320,192,63475,1,0,0:0:0:0:
320,192,63658,128,0,63841:0:0:0:0:
64,192,63841,1,0,0:0:0:0:
448,192,63841,1,0,0:0:0:0:
192,192,63841,128,0,64024:0:0:0:0:
320,192,64024,128,0,64207:0:0:0:0:
448,192,64207,1,0,0:0:0:0:
64,192,64207,128,0,64573:0:0:0:0:
448,192,64390,1,0,0:0:0:0:
320,192,64573,1,0,0:0:0:0:
192,192,64573,1,0,0:0:0:0:
64,192,64756,1,0,0:0:0:0:
448,192,64939,1,0,0:0:0:0:
320,192,64939,1,0,0:0:0:0:
448,192,65122,1,0,0:0:0:0:
320,192,65305,1,0,0:0:0:0:
64,192,65305,1,0,0:0:0:0:
192,192,65488,1,0,0:0:0:0:
192,192,65671,1,0,0:0:0:0:
448,192,65671,1,0,0:0:0:0:
448,192,65854,1,0,0:0:0:0:
192,192,66036,1,0,0:0:0:0:
64,192,66036,1,0,0:0:0:0:
64,192,66219,1,0,0:0:0:0:
320,192,66402,1,0,0:0:0:0:
448,192,66402,1,0,0:0:0:0:
320,192,66585,1,0,0:0:0:0:
192,192,66768,1,0,0:0:0:0:
64,192,66768,1,0,0:0:0:0:
448,192,66951,1,0,0:0:0:0:
320,192,67134,1,0,0:0:0:0:
192,192,67134,128,0,68232:0:0:0:0:
320,192,67317,1,0,0:0:0:0:
64,192,67500,1,0,0:0:0:0:
448,192,67500,1,0,0:0:0:0:
64,192,67683,1,0,0:0:0:0:
320,192,67866,1,0,0:0:0:0:
448,192,67866,1,0,0:0:0:0:
448,192,68049,1,0,0:0:0:0:
320,192,68232,1,0,0:0:0:0:
64,192,68232,1,0,0:0:0:0:
64,192,68415,128,0,68597:0:0:0:0:
192,192,68597,1,0,0:0:0:0:
448,192,68597,128,0,68780:0:0:0:0:
320,192,68780,128,0,68963:0:0:0:0:
64,192,68963,1,0,0:0:0:0:
192,192,68963,128,0,69055:0:0:0:0:
192,192,69146,128,0,69329:0:0:0:0:
64,192,69329,1,0,0:0:0:0:
448,192,69329,1,0,0:0:0:0:
320,192,69512,128,0,69695:0:0:0:0:
64,192,69695,1,0,0:0:0:0:
192,192,69695,1,0,0:0:0:0:
448,192,69695,1,0,0:0:0:0:
192,192,69878,1,0,0:0:0:0:
320,192,70061,1,0,0:0:0:0:
448,192,70061,1,0,0:0:0:0:
448,192,70244,1,0,0:0:0:0:
192,192,70427,1,0,0:0:0:0:
64,192,70427,1,0,0:0:0:0:
320,192,70610,1,0,0:0:0:0:
64,192,70793,1,0,0:0:0:0:
448,192,70793,1,0,0:0:0:0:
192,192,70975,1,0,0:0:0:0:
320,192,71158,1,0,0:0:0:0:
448,192,71158,1,0,0:0:0:0:
192,192,71341,1,0,0:0:0:0:
192,192,71524,1,0,0:0:0:0:
320,192,71524,1,0,0:0:0:0:
320,192,71707,1,0,0:0:0:0:
192,192,71890,1,0,0:0:0:0:
64,192,71890,1,0,0:0:0:0:
448,192,71982,1,0,0:0:0:0:
320,192,72073,1,0,0:0:0:0:
192,192,72165,1,0,0:0:0:0:
448,192,72256,1,0,0:0:0:0:
64,192,72347,1,0,0:0:0:0:
320,192,72439,1,0,0:0:0:0:
192,192,72530,1,0,0:0:0:0:
448,192,72622,1,0,0:0:0:0:
192,192,72805,1,0,0:0:0:0:
320,192,72988,1,0,0:0:0:0:
192,192,73171,1,0,0:0:0:0:
320,192,73262,1,0,0:0:0:0:
448,192,73354,1,0,0:0:0:0:
64,192,73354,1,0,0:0:0:0:
192,192,73445,1,0,0:0:0:0:
320,192,73536,1,0,0:0:0:0:
192,192,73628,1,0,0:0:0:0:
64,192,73719,1,0,0:0:0:0:
448,192,73719,1,0,0:0:0:0:
320,192,73902,1,0,0:0:0:0:
192,192,74085,1,0,0:0:0:0:
64,192,74085,1,0,0:0:0:0:
448,192,74085,1,0,0:0:0:0:
320,192,74268,128,0,74451:0:0:0:0:
448,192,74451,1,0,0:0:0:0:
64,192,74451,128,0,74817:0:0:0:0:
192,192,74634,1,0,0:0:0:0:
320,192,74817,1,0,0:0:0:0:
448,192,74817,1,0,0:0:0:0:
64,192,75000,1,0,0:0:0:0:
192,192,75183,1,0,0:0:0:0:
320,192,75183,1,0,0:0:0:0:
448,192,75366,1,0,0:0:0:0:
192,192,75549,1,0,0:0:0:0:
64,192,75549,1,0,0:0:0:0:
320,192,75732,1,0,0:0:0:0:
192,192,75823,1,0,0:0:0:0:
64,192,75915,1,0,0:0:0:0:
448,192,75915,1,0,0:0:0:0:
192,192,76097,1,0,0:0:0:0:
320,192,76189,1,0,0:0:0:0:
448,192,76280,1,0,0:0:0:0:
64,192,76280,1,0,0:0:0:0:
320,192,76463,1,0,0:0:0:0:
192,192,76555,1,0,0:0:0:0:
64,192,76646,1,0,0:0:0:0:
448,192,76646,1,0,0:0:0:0:
64,192,76829,1,0,0:0:0:0:
320,192,77012,1,0,0:0:0:0:
448,192,77012,1,0,0:0:0:0:
192,192,77195,128,0,77378:0:0:0:0:
64,192,77378,1,0,0:0:0:0:
448,192,77378,128,0,77744:0:0:0:0:
320,192,77561,1,0,0:0:0:0:
192,192,77744,1,0,0:0:0:0:
64,192,77744,1,0,0:0:0:0:
448,192,77927,1,0,0:0:0:0:
320,192,78110,1,0,0:0:0:0:
192,192,78110,1,0,0:0:0:0:
64,192,78293,1,0,0:0:0:0:
320,192,78475,1,0,0:0:0:0:
448,192,78475,1,0,0:0:0:0:
192,192,78658,1,0,0:0:0:0:
448,192,78750,1,0,0:0:0:0:
320,192,78841,1,0,0:0:0:0:
64,192,78841,128,0,79024:0:0:0:0:
448,192,79024,128,0,79207:0:0:0:0:
320,192,79207,1,0,0:0:0:0:
192,192,79207,128,0,79390:0:0:0:0:
64,192,79390,1,0,0:0:0:0:
320,192,79482,1,0,0:0:0:0:
192,192,79573,1,0,0:0:0:0:
448,192,79573,1,0,0:0:0:0:
64,192,79665,1,0,0:0:0:0:
320,192,79756,1,0,0:0:0:0:
448,192,79847,1,0,0:0:0:0:
192,192,79939,1,0,0:0:0:0:
64,192,79939,1,0,0:0:0:0:
448,192,80122,128,0,80305:0:0:0:0:
320,192,80305,1,0,0:0:0:0:
192,192,80305,128,0,80671:0:0:0:0:
64,192,80488,1,0,0:0:0:0:
320,192,80671,1,0,0:0:0:0:
448,192,80671,1,0,0:0:0:0:
192,192,80854,1,0,0:0:0:0:
64,192,81036,1,0,0:0:0:0:
448,192,81036,1,0,0:0:0:0:
320,192,81219,1,0,0:0:0:0:
192,192,81402,1,0,0:0:0:0:
64,192,81402,1,0,0:0:0:0:
448,192,81585,1,0,0:0:0:0:
64,192,81677,1,0,0:0:0:0:
192,192,81768,1,0,0:0:0:0:
320,192,81768,1,0,0:0:0:0:
64,192,81951,1,0,0:0:0:0:
448,192,82043,1,0,0:0:0:0:
320,192,82134,1,0,0:0:0:0:
192,192,82134,1,0,0:0:0:0:
448,192,82317,1,0,0:0:0:0:
64,192,82408,1,0,0:0:0:0:
192,192,82500,1,0,0:0:0:0:
320,192,82500,1,0,0:0:0:0:
192,192,82683,1,0,0:0:0:0:
320,192,82866,1,0,0:0:0:0:
448,192,82866,1,0,0:0:0:0:
64,192,83049,1,0,0:0:0:0:
192,192,83232,1,0,0:0:0:0:
448,192,83232,1,0,0:0:0:0:
64,192,83415,1,0,0:0:0:0:
192,192,83597,1,0,0:0:0:0:
320,192,83597,1,0,0:0:0:0:
448,192,83780,1,0,0:0:0:0:
320,192,83963,1,0,0:0:0:0:
64,192,83963,1,0,0:0:0:0:
448,192,84146,1,0,0:0:0:0:
192,192,84329,1,0,0:0:0:0:
64,192,84329,1,0,0:0:0:0:
320,192,84421,1,0,0:0:0:0:
448,192,84512,1,0,0:0:0:0:
64,192,84604,1,0,0:0:0:0:
192,192,84695,1,0,0:0:0:0:
448,192,84786,1,0,0:0:0:0:
64,192,84878,1,0,0:0:0:0:
320,192,84969,1,0,0:0:0:0:
448,192,85061,1,0,0:0:0:0:
192,192,85152,1,0,0:0:0:0:
64,192,85244,1,0,0:0:0:0:
320,192,85335,1,0,0:0:0:0:
192,192,85427,1,0,0:0:0:0:
448,192,85518,1,0,0:0:0:0:
320,192,85610,1,0,0:0:0:0:
192,192,85701,1,0,0:0:0:0:
64,192,85793,1,0,0:0:0:0:
320,192,86158,128,0,87622:0:0:0:0:
448,192,86158,128,0,87622:0:0:0:0:
