osu file format v14

[General]
AudioFilename: audio.mp3
AudioLeadIn: 0
PreviewTime: 74119
Countdown: 0
SampleSet: Normal
StackLeniency: 0.7
Mode: 1
LetterboxInBreaks: 0
WidescreenStoryboard: 1

[Editor]
DistanceSpacing: 0.6
BeatDivisor: 4
GridSize: 32
TimelineZoom: 2.899998

[Metadata]
Title:Shukusei!! Loli-kami Requiem* (Turbo Eurobeat Remix)
TitleUnicode:粛聖!! ロリ神レクイエム☆ (Turbo Eurobeat Remix)
Artist:Shigure Ui (9-sai)
ArtistUnicode:しぐれうい(9さい)
Creator:ler1211
Version:Inner Loli
Source:
Tags:まだ雨はやまない Mada Ame wa Yamanai The rain doesn't stop yet vtuber virtual youtuber japanese electronic pop jpop j-pop 9歳 9 sai 9sai years old iosys まろん maron d.watt ががめ gagame utsugame 犬山たまき inuyama tamaki 丸岡詩織 studio msr 片田浩史 Sony Music Studios Tokyo
BeatmapID:4342069
BeatmapSetID:2074391

[Difficulty]
HPDrainRate:5.5
CircleSize:5
OverallDifficulty:6
ApproachRate:5
SliderMultiplier:1.4
SliderTickRate:1

[Events]
//Background and Video events
0,0,"lolikami.jpg",0,15
//Break Periods
2,158728,167510
2,205274,209438
//Storyboard Layer 0 (Background)
//Storyboard Layer 1 (Fail)
//Storyboard Layer 2 (Pass)
//Storyboard Layer 3 (Foreground)
//Storyboard Layer 4 (Overlay)
//Storyboard Sound Samples

[TimingPoints]
1438,363.636363636364,4,1,0,85,1,0
1438,-83.3333333333333,4,1,0,85,0,0
1710,-90.9090909090909,4,1,0,85,0,0
2074,-100,4,1,0,85,0,0
2438,-111.111111111111,4,1,0,85,0,0
2801,-125,4,1,0,85,0,0
4256,-83.3333333333333,4,1,0,85,0,0
4528,-90.9090909090909,4,1,0,85,0,0
4892,-100,4,1,0,85,0,0
5256,-111.111111111111,4,1,0,85,0,0
5619,-125,4,1,0,85,0,0
7165,-83.3333333333333,4,1,0,85,0,0
7437,-90.9090909090909,4,1,0,85,0,0
7801,-100,4,1,0,85,0,0
8165,-111.111111111111,4,1,0,85,0,0
8528,-125,4,1,0,85,0,0
10163,-111.111111111111,4,1,0,85,0,0
10254,-110.579641669253,4,1,0,85,0,0
10345,-110.050714365304,4,1,0,85,0,0
10436,-109.524317039646,4,1,0,85,0,0
10527,-109.000437590824,4,1,0,85,0,0
10618,-108.479063975266,4,1,0,85,0,0
10708,-107.960184207008,4,1,0,85,0,0
10799,-107.443786357418,4,1,0,85,0,0
10890,-106.92985855492,4,1,0,85,0,0
10981,-106.418388984723,4,1,0,85,0,0
11072,-105.909365888549,4,1,0,85,0,0
11163,-105.402777564362,4,1,0,85,0,0
11254,-104.8986123661,4,1,0,85,0,0
11345,-104.396858703407,4,1,0,85,0,0
11436,-103.897505041366,4,1,0,85,0,0
11527,-103.400539900233,4,1,0,85,0,0
11618,-102.905951855176,4,1,0,85,0,0
11708,-102.413729536009,4,1,0,85,0,0
11799,-101.923861626934,4,1,0,85,0,0
11890,-101.436336866276,4,1,0,85,0,0
11981,-100.95114404623,4,1,0,85,0,0
12072,-100.4682720126,4,1,0,85,0,0
12163,-99.987709664541,4,1,0,85,0,0
12254,-99.5094459543085,4,1,0,85,0,0
12345,-99.0334698870002,4,1,0,85,0,0
12436,-98.5597705203055,4,1,0,85,0,0
12527,-98.0883369642529,4,1,0,85,0,0
12618,-97.6191583809605,4,1,0,85,0,0
12708,-97.1522239843863,4,1,0,85,0,0
12799,-96.6875230400802,4,1,0,85,0,0
12890,-96.2250448649377,4,1,0,85,0,0
12981,-95.7647788269537,4,1,0,85,0,0
13072,-95.3067143449785,4,1,0,85,0,0
13163,-94.8508408884744,4,1,0,85,0,0
13254,-94.3971479772737,4,1,0,85,0,0
13345,-93.9456251813377,4,1,0,85,0,0
13436,-93.4962621205167,4,1,0,85,0,0
13527,-93.0490484643118,4,1,0,85,0,0
13618,-92.6039739316373,4,1,0,85,0,0
13708,-92.1610282905839,4,1,0,85,0,0
13799,-91.7202013581842,4,1,0,85,0,0
13890,-91.2814830001779,4,1,0,85,0,0
13981,-90.8448631307793,4,1,0,85,0,0
14072,-90.4103317124455,4,1,0,85,0,0
14163,-89.9778787556449,4,1,0,85,0,0
14254,-89.5474943186286,4,1,0,85,0,0
14345,-89.119168507201,4,1,0,85,0,0
14436,-88.6928914744928,4,1,0,85,0,0
14527,-88.2686534207345,4,1,0,85,0,0
14618,-87.8464445930309,4,1,0,85,0,0
14708,-87.4262552851374,4,1,0,85,0,0
14799,-87.0080758372364,4,1,0,85,0,0
14890,-86.5918966357154,4,1,0,85,0,0
14981,-86.1777081129459,4,1,0,85,0,0
15072,-85.7655007470635,4,1,0,85,0,0
15163,-85.3552650617492,4,1,0,85,0,0
15254,-84.9469916260113,4,1,0,85,0,0
15345,-84.5406710539685,4,1,0,85,0,0
15436,-84.1362940046344,4,1,0,85,0,0
15527,-83.7338511817028,4,1,0,85,0,0
15618,-83.3333333333334,4,1,0,85,0,0
15983,-100,4,1,0,85,0,0
27619,-90.9090909090909,4,1,0,90,0,0
39256,-90.9090909090909,4,1,0,40,0,0
40528,-100,4,1,0,85,0,0
45165,-100,4,1,0,20,0,0
45528,-100,4,1,0,85,0,0
51617,-90.9090909090909,4,1,0,85,0,0
51708,-91.9986385582181,4,1,0,85,0,0
51799,-93.1012444622223,4,1,0,85,0,0
51890,-94.2170651246032,4,1,0,85,0,0
51981,-95.3462589245592,4,1,0,85,0,0
52072,-96.4889861394668,4,1,0,85,0,0
52162,-97.645408967631,4,1,0,85,0,0
52253,-98.8156915513073,4,1,0,85,0,0
52344,-100,4,1,0,85,0,0
58345,-116.103530472148,4,1,0,85,0,0
58527,-114.580253198824,4,1,0,85,0,0
58708,-113.076961309596,4,1,0,85,0,0
58890,-111.593392596406,4,1,0,85,0,0
59072,-110.129288291361,4,1,0,85,0,0
59254,-108.684393021602,4,1,0,85,0,0
59436,-107.258454764758,4,1,0,85,0,0
59618,-105.851224804993,4,1,0,85,0,0
59799,-104.462457689615,4,1,0,85,0,0
59981,-103.091911186274,4,1,0,85,0,0
60163,-101.739346240704,4,1,0,85,0,0
60345,-100.404526935029,4,1,0,85,0,0
60527,-99.0872204466128,4,1,0,85,0,0
60708,-97.7871970074517,4,1,0,85,0,0
60890,-96.5042298640949,4,1,0,85,0,0
61072,-83.3333333333333,4,1,0,85,0,0
61163,-84.2883557275453,4,1,0,85,0,0
61254,-85.2543229350386,4,1,0,85,0,0
61345,-86.2313603863146,4,1,0,85,0,0
61436,-87.2195949493422,4,1,0,85,0,0
61527,-88.2191549460307,4,1,0,85,0,0
61617,-89.2301701688937,4,1,0,85,0,0
61708,-90.2527718979013,4,1,0,85,0,0
61799,-91.2870929175277,4,1,0,85,0,0
61890,-92.3332675339927,4,1,0,85,0,0
61981,-93.3914315927014,4,1,0,85,0,0
62072,-94.4617224958839,4,1,0,85,0,0
62163,-95.5442792204367,4,1,0,85,0,0
62254,-96.639242335969,4,1,0,85,0,0
62345,-97.7467540230553,4,1,0,85,0,0
62436,-98.8669580916978,4,1,0,85,0,0
62526,-76.9230769230769,4,1,0,85,0,0
62617,-77.5563527810554,4,1,0,85,0,0
62708,-78.1948421370937,4,1,0,85,0,0
62799,-78.8385879117639,4,1,0,85,0,0
62890,-79.4876333789852,4,1,0,85,0,0
62981,-80.142022168933,4,1,0,85,0,0
63071,-80.8017982709721,4,1,0,85,0,0
63162,-81.4670060366134,4,1,0,85,0,0
63253,-82.1376901824954,4,1,0,85,0,0
63344,-82.8138957933904,4,1,0,85,0,0
63435,-83.4956683252347,4,1,0,85,0,0
63526,-84.1830536081846,4,1,0,85,0,0
63617,-84.8760978496973,4,1,0,85,0,0
63708,-85.5748476376365,4,1,0,85,0,0
63799,-86.2793499434048,4,1,0,85,0,0
63890,-86.9896521251009,4,1,0,85,0,0
63981,-87.7058019307029,4,1,0,85,0,0
64071,-88.4278475012785,4,1,0,85,0,0
64162,-89.1558373742208,4,1,0,85,0,0
64253,-89.8898204865112,4,1,0,85,0,0
64344,-90.6298461780088,4,1,0,85,0,0
64435,-91.3759641947677,4,1,0,85,0,0
64526,-92.1282246923803,4,1,0,85,0,0
64617,-92.8866782393497,4,1,0,85,0,0
64708,-93.651375820488,4,1,0,85,0,0
64799,-94.4223688403446,4,1,0,85,0,0
64890,-95.1997091266611,4,1,0,85,0,0
64981,-95.9834489338554,4,1,0,85,0,0
65071,-96.7736409465346,4,1,0,85,0,0
65162,-97.5703382830361,4,1,0,85,0,0
65253,-98.3735944989988,4,1,0,85,0,0
65344,-99.183463590963,4,1,0,85,0,0
65435,-99.9999999999999,4,1,0,85,0,0
68345,-76.9230769230769,4,1,0,85,0,0
68436,-77.5563527810554,4,1,0,85,0,0
68527,-78.1948421370937,4,1,0,85,0,0
68618,-78.8385879117639,4,1,0,85,0,0
68709,-79.4876333789852,4,1,0,85,0,0
68800,-80.142022168933,4,1,0,85,0,0
68890,-80.8017982709721,4,1,0,85,0,0
68981,-81.4670060366134,4,1,0,85,0,0
69072,-82.1376901824954,4,1,0,85,0,0
69163,-82.8138957933904,4,1,0,85,0,0
69254,-83.4956683252347,4,1,0,85,0,0
69345,-84.1830536081846,4,1,0,85,0,0
69436,-84.8760978496973,4,1,0,85,0,0
69527,-85.5748476376365,4,1,0,85,0,0
69618,-86.2793499434048,4,1,0,85,0,0
69709,-86.9896521251009,4,1,0,85,0,0
69800,-87.7058019307029,4,1,0,85,0,0
69890,-88.4278475012785,4,1,0,85,0,0
69981,-89.1558373742208,4,1,0,85,0,0
70072,-89.8898204865112,4,1,0,85,0,0
70163,-90.6298461780088,4,1,0,85,0,0
70254,-91.3759641947677,4,1,0,85,0,0
70345,-92.1282246923803,4,1,0,85,0,0
70436,-92.8866782393497,4,1,0,85,0,0
70527,-93.651375820488,4,1,0,85,0,0
70618,-94.4223688403446,4,1,0,85,0,0
70709,-95.1997091266611,4,1,0,85,0,0
70800,-95.9834489338554,4,1,0,85,0,0
70890,-96.7736409465346,4,1,0,85,0,0
70981,-97.5703382830361,4,1,0,85,0,0
71072,-98.3735944989988,4,1,0,85,0,0
71163,-99.183463590963,4,1,0,85,0,0
71254,-99.9999999999999,4,1,0,85,0,0
74165,-90.9090909090909,4,1,0,100,0,1
82892,-90.9090909090909,4,1,0,100,0,0
83256,-76.9230769230769,4,1,0,100,0,1
83438,-90.9090909090909,4,1,0,100,0,0
83983,-71.4285714285714,4,1,0,100,0,1
84165,-90.9090909090909,4,1,0,100,0,0
84347,-66.6666666666667,4,1,0,100,0,1
84528,-90.9090909090909,4,1,0,100,0,0
85801,-90.9090909090909,4,1,0,100,0,1
99438,-100,4,1,0,100,0,1
100347,-100,4,1,0,85,0,0
110526,-90.9090909090909,4,1,0,85,0,0
110556,-91.089781946557,4,1,0,85,0,0
110587,-91.2708321257842,4,1,0,85,0,0
110617,-91.4522421606034,4,1,0,85,0,0
110647,-91.634012766264,4,1,0,85,0,0
110678,-91.816144659437,4,1,0,85,0,0
110708,-91.9986385582181,4,1,0,85,0,0
110738,-92.1814951821301,4,1,0,85,0,0
110768,-92.3647152521261,4,1,0,85,0,0
110799,-92.5482994905919,4,1,0,85,0,0
110829,-92.7322486213493,4,1,0,85,0,0
110859,-92.9165633696588,4,1,0,85,0,0
110890,-93.1012444622222,4,1,0,85,0,0
110920,-93.2862926271861,4,1,0,85,0,0
110950,-93.4717085941439,4,1,0,85,0,0
110981,-93.6574930941395,4,1,0,85,0,0
111011,-93.8436468596697,4,1,0,85,0,0
111041,-94.0301706246871,4,1,0,85,0,0
111071,-94.2170651246032,4,1,0,85,0,0
111102,-94.4043310962913,4,1,0,85,0,0
111132,-94.5919692780891,4,1,0,85,0,0
111162,-94.7799804098021,4,1,0,85,0,0
111193,-94.9683652327059,4,1,0,85,0,0
111223,-95.1571244895498,4,1,0,85,0,0
111253,-95.3462589245592,4,1,0,85,0,0
111284,-95.5357692834386,4,1,0,85,0,0
111314,-95.725656313375,4,1,0,85,0,0
111344,-95.9159207630401,4,1,0,85,0,0
111374,-96.1065633825942,4,1,0,85,0,0
111405,-96.2975849236881,4,1,0,85,0,0
111435,-96.4889861394668,4,1,0,85,0,0
111465,-96.6807677845722,4,1,0,85,0,0
111496,-96.8729306151463,4,1,0,85,0,0
111526,-97.0654753888338,4,1,0,85,0,0
111556,-97.2584028647854,4,1,0,85,0,0
111587,-97.4517138036606,4,1,0,85,0,0
111617,-97.6454089676309,4,1,0,85,0,0
111647,-97.8394891203827,4,1,0,85,0,0
111678,-98.0339550271201,4,1,0,85,0,0
111708,-98.2288074545683,4,1,0,85,0,0
111738,-98.4240471709766,4,1,0,85,0,0
111768,-98.6196749461208,4,1,0,85,0,0
111799,-98.8156915513072,4,1,0,85,0,0
111829,-99.0120977593748,4,1,0,85,0,0
111859,-99.2088943446989,4,1,0,85,0,0
111890,-99.406082083194,4,1,0,85,0,0
111920,-99.6036617523165,4,1,0,85,0,0
111950,-99.8016341310684,4,1,0,85,0,0
111981,-99.9999999999998,4,1,0,85,0,0
123619,-90.9090909090909,4,1,0,90,0,0
135438,-100,4,1,0,85,0,0
146710,-133.333333333333,4,1,0,85,0,0
157710,-100,4,1,0,85,0,0
158710,-125,4,1,0,50,0,0
165619,-111.111111111111,4,1,0,50,0,0
167074,-94.3396226415094,4,1,0,50,0,0
168528,-75.7575757575758,4,1,0,85,0,0
168983,-80.6451612903226,4,1,0,85,0,0
169392,-86.2068965517241,4,1,0,85,0,0
169483,-87.719298245614,4,1,0,85,0,0
169574,-89.2857142857143,4,1,0,85,0,0
169665,-90.9090909090909,4,1,0,85,0,0
169756,-92.5925925925926,4,1,0,85,0,0
170165,-100,4,1,0,85,0,0
183256,-90.9090909090909,4,1,0,100,0,1
187619,-90.9090909090909,4,1,0,85,0,0
189074,-90.9090909090909,4,1,0,100,0,1
191983,-76.9230769230769,4,1,0,100,0,0
192072,-77.7304289596235,4,1,0,85,0,0
192163,-78.546254621212,4,1,0,85,0,0
192254,-79.370642843422,4,1,0,85,0,0
192345,-80.2036834952634,4,1,0,85,0,0
192436,-81.0454673889731,4,1,0,85,0,0
192526,-81.8960862899147,4,1,0,85,0,0
192617,-82.7556329265824,4,1,0,85,0,0
192708,-83.6242010007091,4,1,0,85,0,0
192799,-84.5018851974816,4,1,0,85,0,0
192890,-85.3887811958624,4,1,0,85,0,0
192981,-86.2849856790196,4,1,0,85,0,0
193072,-87.1905963448671,4,1,0,85,0,0
193163,-88.1057119167147,4,1,0,85,0,0
193254,-89.0304321540302,4,1,0,85,0,0
193345,-89.9648578633145,4,1,0,85,0,0
193438,-90.9090909090909,4,1,0,100,0,1
205074,-90.9090909090909,4,1,0,100,0,0
205256,-111.111111111111,4,1,0,50,0,0
207619,-133.333333333333,4,1,0,50,0,0
209256,-66.6666666666667,4,1,0,50,0,0
210710,-125,4,1,0,80,0,0
221347,-117.647058823529,4,1,0,80,0,0
221710,-111.111111111111,4,1,0,80,0,0
222074,-105.263157894737,4,1,0,80,0,0
222438,-100,4,1,0,85,0,0
227074,-125,4,1,0,85,0,0
231074,-111.111111111111,4,1,0,85,0,0
231892,-98.0392156862745,4,1,0,85,0,0
232028,-99.502487562189,4,1,0,85,0,0
232119,-101.010101010101,4,1,0,85,0,0
232210,-102.564102564103,4,1,0,85,0,0
232301,-104.166666666667,4,1,0,85,0,0
232619,-111.111111111111,4,1,0,85,0,0
244345,-100,4,1,0,85,0,0
244436,-99.6208838899835,4,1,0,85,0,0
244527,-99.2432050702157,4,1,0,85,0,0
244618,-98.8669580916978,4,1,0,85,0,0
244709,-98.4921375260889,4,1,0,85,0,0
244800,-98.1187379656278,4,1,0,85,0,0
244890,-97.7467540230552,4,1,0,85,0,0
244981,-97.3761803315356,4,1,0,85,0,0
245072,-97.00701154458,4,1,0,85,0,0
245163,-96.6392423359689,4,1,0,85,0,0
245254,-96.2728673996754,4,1,0,85,0,0
245345,-95.9078814497884,4,1,0,85,0,0
245436,-95.5442792204367,4,1,0,85,0,0
245527,-95.1820554657128,4,1,0,85,0,0
245618,-94.8212049595974,4,1,0,85,0,0
245709,-94.4617224958838,4,1,0,85,0,0
245800,-94.1036028881028,4,1,0,85,0,0
245890,-93.7468409694481,4,1,0,85,0,0
245981,-93.3914315927013,4,1,0,85,0,0
246072,-93.0373696301583,4,1,0,85,0,0
246163,-92.6846499735548,4,1,0,85,0,0
246254,-92.3332675339926,4,1,0,85,0,0
246345,-91.9832172418666,4,1,0,85,0,0
246436,-91.6344940467912,4,1,0,85,0,0
246527,-91.2870929175277,4,1,0,85,0,0
246618,-90.9410088419116,4,1,0,85,0,0
246709,-90.5962368267803,4,1,0,85,0,0
246800,-90.2527718979013,4,1,0,85,0,0
246890,-89.9106090998999,4,1,0,85,0,0
246981,-89.5697434961882,4,1,0,85,0,0
247072,-89.2301701688937,4,1,0,85,0,0
247163,-88.8918842187882,4,1,0,85,0,0
247254,-88.5548807652176,4,1,0,85,0,0
247345,-88.2191549460307,4,1,0,85,0,0
247436,-87.8847019175098,4,1,0,85,0,0
247527,-87.5515168543006,4,1,0,85,0,0
247618,-87.2195949493421,4,1,0,85,0,0
247709,-86.888931413798,4,1,0,85,0,0
247800,-86.5595214769871,4,1,0,85,0,0
247890,-86.2313603863146,4,1,0,85,0,0
247981,-85.9044434072037,4,1,0,85,0,0
248072,-85.5787658230269,4,1,0,85,0,0
248163,-85.2543229350385,4,1,0,85,0,0
248254,-84.9311100623063,4,1,0,85,0,0
248345,-84.6091225416442,4,1,0,85,0,0
248436,-84.2883557275452,4,1,0,85,0,0
248527,-83.9688049921141,4,1,0,85,0,0
248618,-83.6504657250006,4,1,0,85,0,0
248709,-83.3333333333333,4,1,0,85,0,0
249256,-100,4,1,0,85,0,0
250165,-90.9090909090909,4,1,0,100,0,1
258892,-90.9090909090909,4,1,0,100,0,0
259256,-76.9230769230769,4,1,0,100,0,1
259438,-90.9090909090909,4,1,0,100,0,0
259983,-71.4285714285714,4,1,0,100,0,1
260165,-90.9090909090909,4,1,0,100,0,0
260347,-66.6666666666667,4,1,0,100,0,1
260528,-90.9090909090909,4,1,0,100,0,0
261801,-90.9090909090909,4,1,0,100,0,1
276347,-90.9090909090909,4,1,0,100,0,0
276438,-90.9090909090909,4,1,0,75,0,0
277619,-117.647058823529,4,1,0,75,0,0
279165,-96.1538461538461,4,1,0,75,0,0
280619,-102.040816326531,4,1,0,75,0,0
281983,-108.695652173913,4,1,0,75,0,0
283528,-125,4,1,0,75,0,0
284983,-111.111111111111,4,1,0,75,0,0
286438,-90.9090909090909,4,1,0,75,0,0
287892,-90.9090909090909,4,1,0,85,0,0
287974,-90.9090909090909,4,1,0,85,0,0
288004,-91.089781946557,4,1,0,85,0,0
288035,-91.2708321257842,4,1,0,85,0,0
288065,-91.4522421606034,4,1,0,85,0,0
288095,-91.634012766264,4,1,0,85,0,0
288126,-91.816144659437,4,1,0,85,0,0
288156,-91.9986385582181,4,1,0,85,0,0
288186,-92.1814951821301,4,1,0,85,0,0
288216,-92.3647152521261,4,1,0,85,0,0
288247,-92.5482994905919,4,1,0,85,0,0
288277,-92.7322486213493,4,1,0,85,0,0
288307,-92.9165633696588,4,1,0,85,0,0
288338,-93.1012444622222,4,1,0,85,0,0
288368,-93.2862926271861,4,1,0,85,0,0
288398,-93.4717085941439,4,1,0,85,0,0
288429,-93.6574930941395,4,1,0,85,0,0
288459,-93.8436468596697,4,1,0,85,0,0
288489,-94.0301706246871,4,1,0,85,0,0
288519,-94.2170651246032,4,1,0,85,0,0
288550,-94.4043310962913,4,1,0,85,0,0
288580,-94.5919692780891,4,1,0,85,0,0
288610,-94.7799804098021,4,1,0,85,0,0
288641,-94.9683652327059,4,1,0,85,0,0
288671,-95.1571244895498,4,1,0,85,0,0
288701,-95.3462589245592,4,1,0,85,0,0
288732,-95.5357692834386,4,1,0,85,0,0
288762,-95.725656313375,4,1,0,85,0,0
288792,-95.9159207630401,4,1,0,85,0,0
288822,-96.1065633825942,4,1,0,85,0,0
288853,-96.2975849236881,4,1,0,85,0,0
288883,-96.4889861394668,4,1,0,85,0,0
288913,-96.6807677845722,4,1,0,85,0,0
288944,-96.8729306151463,4,1,0,85,0,0
288974,-97.0654753888338,4,1,0,85,0,0
289004,-97.2584028647854,4,1,0,85,0,0
289035,-97.4517138036606,4,1,0,85,0,0
289065,-97.6454089676309,4,1,0,85,0,0
289095,-97.8394891203827,4,1,0,85,0,0
289126,-98.0339550271201,4,1,0,85,0,0
289156,-98.2288074545683,4,1,0,85,0,0
289186,-98.4240471709766,4,1,0,85,0,0
289216,-98.6196749461208,4,1,0,85,0,0
289247,-98.8156915513072,4,1,0,85,0,0
289277,-99.0120977593748,4,1,0,85,0,0
289307,-99.2088943446989,4,1,0,85,0,0
289338,-99.406082083194,4,1,0,85,0,0
289368,-99.6036617523165,4,1,0,85,0,0
289398,-99.8016341310684,4,1,0,85,0,0
289429,-99.9999999999998,4,1,0,85,0,0
301074,-90.9090909090909,4,1,0,90,0,0
324347,-90.9090909090909,4,1,0,40,0,0
325619,-117.647058823529,4,1,0,40,0,0
327074,-66.6666666666667,4,1,0,90,0,0

[HitObjects]
256,192,1438,5,4,0:0:0:0:
256,192,1801,1,8,0:0:0:0:
256,192,2165,1,8,0:0:0:0:
256,192,2528,1,8,0:0:0:0:
256,192,2892,8,8,4165,0:0:0:0:
256,192,4347,5,4,0:0:0:0:
256,192,4710,1,8,0:0:0:0:
256,192,5074,1,8,0:0:0:0:
256,192,5438,1,8,0:0:0:0:
256,192,5801,8,0,6710,0:0:0:0:
256,192,6892,5,8,0:0:0:0:
256,192,7074,1,8,0:0:0:0:
256,192,7256,1,4,0:0:0:0:
256,192,7619,1,8,0:0:0:0:
256,192,7983,1,8,0:0:0:0:
256,192,8347,1,8,0:0:0:0:
256,192,8710,1,0,0:0:0:0:
256,192,10165,1,4,0:0:0:0:
256,192,10347,1,8,0:0:0:0:
256,192,10528,1,0,0:0:0:0:
256,192,10710,1,8,0:0:0:0:
256,192,10801,1,0,0:0:0:0:
256,192,10892,1,0,0:0:0:0:
256,192,11074,1,8,0:0:0:0:
256,192,11256,1,0,0:0:0:0:
256,192,11438,1,8,0:0:0:0:
256,192,11528,1,8,0:0:0:0:
256,192,11619,1,0,0:0:0:0:
256,192,11801,1,8,0:0:0:0:
256,192,11983,1,0,0:0:0:0:
256,192,12074,1,0,0:0:0:0:
256,192,12165,1,8,0:0:0:0:
256,192,12256,1,8,0:0:0:0:
256,192,12347,1,0,0:0:0:0:
256,192,12528,1,8,0:0:0:0:
256,192,12710,1,0,0:0:0:0:
256,192,12892,1,8,0:0:0:0:
256,192,13074,1,0,0:0:0:0:
256,192,13165,1,0,0:0:0:0:
256,192,13256,1,8,0:0:0:0:
256,192,13347,1,0,0:0:0:0:
256,192,13438,1,0,0:0:0:0:
256,192,13528,1,0,0:0:0:0:
256,192,13619,1,8,0:0:0:0:
256,192,13710,1,8,0:0:0:0:
256,192,13801,1,0,0:0:0:0:
256,192,13892,1,8,0:0:0:0:
256,192,13983,1,8,0:0:0:0:
256,192,14074,1,8,0:0:0:0:
256,192,14165,1,0,0:0:0:0:
256,192,14256,1,0,0:0:0:0:
256,192,14347,1,8,0:0:0:0:
256,192,14438,1,8,0:0:0:0:
256,192,14528,1,0,0:0:0:0:
256,192,14619,1,0,0:0:0:0:
256,192,14710,1,0,0:0:0:0:
256,192,14801,1,0,0:0:0:0:
256,192,14892,1,8,0:0:0:0:
256,192,14983,1,8,0:0:0:0:
256,192,15074,1,0,0:0:0:0:
256,192,15165,1,8,0:0:0:0:
256,192,15256,1,0,0:0:0:0:
256,192,15347,1,8,0:0:0:0:
256,192,15438,1,0,0:0:0:0:
256,192,15619,1,0,0:0:0:0:
256,192,15983,1,4,0:0:0:0:
256,192,16165,1,8,0:0:0:0:
256,192,16347,1,0,0:0:0:0:
256,192,16438,1,0,0:0:0:0:
256,192,16528,1,8,0:0:0:0:
256,192,16619,1,0,0:0:0:0:
256,192,16710,1,8,0:0:0:0:
256,192,16892,1,0,0:0:0:0:
256,192,17074,1,8,0:0:0:0:
256,192,17165,1,8,0:0:0:0:
256,192,17256,1,0,0:0:0:0:
256,192,17347,1,8,0:0:0:0:
256,192,17438,1,0,0:0:0:0:
256,192,17619,1,8,0:0:0:0:
256,192,17801,1,0,0:0:0:0:
256,192,17983,1,8,0:0:0:0:
256,192,18074,1,0,0:0:0:0:
256,192,18165,1,8,0:0:0:0:
256,192,18256,1,8,0:0:0:0:
256,192,18347,1,0,0:0:0:0:
256,192,18438,1,0,0:0:0:0:
256,192,18528,1,8,0:0:0:0:
256,192,18710,1,0,0:0:0:0:
256,192,18892,1,8,0:0:0:0:
256,192,18983,1,0,0:0:0:0:
256,192,19074,1,0,0:0:0:0:
256,192,19256,1,8,0:0:0:0:
256,192,19347,1,8,0:0:0:0:
256,192,19438,1,0,0:0:0:0:
256,192,19619,1,8,0:0:0:0:
256,192,19710,1,8,0:0:0:0:
256,192,19801,1,8,0:0:0:0:
256,192,19983,1,8,0:0:0:0:
256,192,20074,1,8,0:0:0:0:
256,192,20165,1,8,0:0:0:0:
256,192,20256,1,8,0:0:0:0:
256,192,20347,1,0,0:0:0:0:
256,192,20528,1,0,0:0:0:0:
256,192,20710,1,8,0:0:0:0:
256,192,20892,1,0,0:0:0:0:
256,192,20983,1,0,0:0:0:0:
256,192,21074,1,8,0:0:0:0:
256,192,21165,1,8,0:0:0:0:
256,192,21256,1,0,0:0:0:0:
256,192,21347,1,8,0:0:0:0:
256,192,21438,1,0,0:0:0:0:
256,192,21619,1,8,0:0:0:0:
256,192,21801,1,4,0:0:0:0:
256,192,21983,1,0,0:0:0:0:
256,192,22074,1,0,0:0:0:0:
256,192,22165,1,8,0:0:0:0:
256,192,22347,1,0,0:0:0:0:
256,192,22528,1,8,0:0:0:0:
256,192,22619,1,8,0:0:0:0:
256,192,22801,1,0,0:0:0:0:
256,192,22892,1,8,0:0:0:0:
256,192,23074,1,0,0:0:0:0:
256,192,23256,1,8,0:0:0:0:
256,192,23347,1,8,0:0:0:0:
256,192,23438,1,0,0:0:0:0:
256,192,23528,1,0,0:0:0:0:
256,192,23619,1,8,0:0:0:0:
256,192,23801,1,8,0:0:0:0:
256,192,23892,1,8,0:0:0:0:
256,192,23983,1,0,0:0:0:0:
256,192,24165,1,0,0:0:0:0:
256,192,24256,1,0,0:0:0:0:
256,192,24347,1,8,0:0:0:0:
256,192,24528,1,8,0:0:0:0:
256,192,24710,1,0,0:0:0:0:
256,192,24892,1,8,0:0:0:0:
256,192,24983,1,0,0:0:0:0:
256,192,25074,1,8,0:0:0:0:
256,192,25256,1,8,0:0:0:0:
256,192,25438,1,0,0:0:0:0:
256,192,25528,1,0,0:0:0:0:
256,192,25619,1,8,0:0:0:0:
256,192,25710,1,8,0:0:0:0:
256,192,25801,1,0,0:0:0:0:
256,192,25892,1,8,0:0:0:0:
256,192,25983,1,0,0:0:0:0:
256,192,26074,1,0,0:0:0:0:
256,192,26165,1,8,0:0:0:0:
256,192,26347,1,8,0:0:0:0:
256,192,26438,1,8,0:0:0:0:
256,192,26528,1,0,0:0:0:0:
256,192,26710,1,0,0:0:0:0:
256,192,26892,1,8,0:0:0:0:
256,192,26953,1,8,0:0:0:0:
256,192,27013,1,8,0:0:0:0:
256,192,27074,1,0,0:0:0:0:
256,192,27165,1,0,0:0:0:0:
256,192,27256,1,8,0:0:0:0:
256,192,27438,1,8,0:0:0:0:
256,192,27619,1,4,0:0:0:0:
256,192,27801,1,8,0:0:0:0:
256,192,27892,1,8,0:0:0:0:
256,192,27983,1,0,0:0:0:0:
256,192,28165,1,8,0:0:0:0:
256,192,28347,1,0,0:0:0:0:
256,192,28438,1,0,0:0:0:0:
256,192,28619,1,0,0:0:0:0:
256,192,28710,1,8,0:0:0:0:
256,192,28892,1,0,0:0:0:0:
256,192,28983,1,0,0:0:0:0:
256,192,29074,1,8,0:0:0:0:
256,192,29165,1,0,0:0:0:0:
256,192,29347,1,0,0:0:0:0:
256,192,29438,1,8,0:0:0:0:
256,192,29619,1,0,0:0:0:0:
256,192,29710,1,0,0:0:0:0:
256,192,29801,1,8,0:0:0:0:
256,192,29892,1,8,0:0:0:0:
256,192,30074,1,0,0:0:0:0:
256,192,30165,1,8,0:0:0:0:
256,192,30347,1,0,0:0:0:0:
256,192,30528,1,8,0:0:0:0:
256,192,30619,1,0,0:0:0:0:
256,192,30710,1,0,0:0:0:0:
256,192,30801,1,8,0:0:0:0:
256,192,30892,1,0,0:0:0:0:
256,192,30983,1,0,0:0:0:0:
256,192,31074,1,8,0:0:0:0:
256,192,31256,1,0,0:0:0:0:
256,192,31347,1,8,0:0:0:0:
256,192,31438,1,8,0:0:0:0:
256,192,31528,1,0,0:0:0:0:
256,192,31619,1,8,0:0:0:0:
256,192,31710,1,8,0:0:0:0:
256,192,31801,1,0,0:0:0:0:
256,192,31983,1,8,0:0:0:0:
256,192,32074,1,0,0:0:0:0:
256,192,32165,1,0,0:0:0:0:
256,192,32256,1,8,0:0:0:0:
256,192,32347,1,8,0:0:0:0:
256,192,32438,1,8,0:0:0:0:
256,192,32528,1,0,0:0:0:0:
256,192,32619,1,0,0:0:0:0:
256,192,32710,1,8,0:0:0:0:
256,192,32801,1,8,0:0:0:0:
256,192,32892,1,8,0:0:0:0:
256,192,32983,1,8,0:0:0:0:
256,192,33074,1,0,0:0:0:0:
256,192,33256,1,8,0:0:0:0:
256,192,33438,1,4,0:0:0:0:
256,192,33619,1,8,0:0:0:0:
256,192,33710,1,8,0:0:0:0:
256,192,33801,1,0,0:0:0:0:
256,192,33983,1,0,0:0:0:0:
256,192,34165,1,8,0:0:0:0:
256,192,34256,1,8,0:0:0:0:
256,192,34438,1,8,0:0:0:0:
256,192,34528,1,0,0:0:0:0:
256,192,34710,1,8,0:0:0:0:
256,192,34801,1,8,0:0:0:0:
256,192,34892,1,0,0:0:0:0:
256,192,34983,1,8,0:0:0:0:
256,192,35165,1,8,0:0:0:0:
256,192,35256,1,0,0:0:0:0:
256,192,35438,1,8,0:0:0:0:
256,192,35528,1,8,0:0:0:0:
256,192,35619,1,0,0:0:0:0:
256,192,35710,1,0,0:0:0:0:
256,192,35892,1,8,0:0:0:0:
256,192,35983,1,0,0:0:0:0:
256,192,36165,1,8,0:0:0:0:
256,192,36347,1,0,0:0:0:0:
256,192,36438,1,8,0:0:0:0:
256,192,36528,1,8,0:0:0:0:
256,192,36619,1,0,0:0:0:0:
256,192,36710,1,8,0:0:0:0:
256,192,36801,1,8,0:0:0:0:
256,192,36892,1,0,0:0:0:0:
256,192,37074,1,8,0:0:0:0:
256,192,37165,1,0,0:0:0:0:
256,192,37256,1,0,0:0:0:0:
256,192,37347,1,8,0:0:0:0:
256,192,37438,1,0,0:0:0:0:
256,192,37528,1,0,0:0:0:0:
256,192,37619,1,8,0:0:0:0:
256,192,37801,1,0,0:0:0:0:
256,192,37892,1,8,0:0:0:0:
256,192,37983,1,8,0:0:0:0:
256,192,38074,1,0,0:0:0:0:
256,192,38165,1,0,0:0:0:0:
256,192,38256,1,0,0:0:0:0:
256,192,38347,1,8,0:0:0:0:
256,192,38438,1,8,0:0:0:0:
256,192,38528,1,0,0:0:0:0:
256,192,38589,1,0,0:0:0:0:
256,192,38650,1,0,0:0:0:0:
256,192,38710,1,8,0:0:0:0:
256,192,38801,1,8,0:0:0:0:
256,192,38892,1,0,0:0:0:0:
256,192,39074,1,0,0:0:0:0:
256,192,40710,1,4,0:0:0:0:
256,192,41074,1,0,0:0:0:0:
256,192,41256,1,0,0:0:0:0:
256,192,41347,1,0,0:0:0:0:
256,192,41438,1,8,0:0:0:0:
256,192,41619,1,8,0:0:0:0:
256,192,41801,1,0,0:0:0:0:
256,192,41983,1,8,0:0:0:0:
256,192,42074,1,0,0:0:0:0:
256,192,42256,1,0,0:0:0:0:
256,192,42347,1,8,0:0:0:0:
256,192,42528,1,0,0:0:0:0:
256,192,42710,1,8,0:0:0:0:
256,192,42801,1,8,0:0:0:0:
256,192,42892,1,0,0:0:0:0:
256,192,43074,1,8,0:0:0:0:
256,192,43256,1,0,0:0:0:0:
256,192,43438,1,8,0:0:0:0:
256,192,43619,1,0,0:0:0:0:
256,192,43710,1,0,0:0:0:0:
256,192,43801,1,8,0:0:0:0:
256,192,43892,1,8,0:0:0:0:
256,192,43983,1,0,0:0:0:0:
256,192,44165,1,0,0:0:0:0:
256,192,44256,1,0,0:0:0:0:
256,192,44347,1,8,0:0:0:0:
256,192,44528,1,8,0:0:0:0:
256,192,44710,1,0,0:0:0:0:
256,192,44892,1,8,0:0:0:0:
256,192,44983,1,8,0:0:0:0:
256,192,45074,1,0,0:0:0:0:
256,192,45256,1,8,0:0:0:0:
256,192,45438,1,8,0:0:0:0:
256,192,45619,1,0,0:0:0:0:
256,192,45801,1,8,0:0:0:0:
256,192,45892,1,8,0:0:0:0:
256,192,45983,1,0,0:0:0:0:
256,192,46074,1,0,0:0:0:0:
256,192,46165,1,8,0:0:0:0:
256,192,46347,1,8,0:0:0:0:
256,192,46528,1,4,0:0:0:0:
256,192,46892,1,0,0:0:0:0:
256,192,47074,1,0,0:0:0:0:
256,192,47165,1,0,0:0:0:0:
256,192,47256,1,8,0:0:0:0:
256,192,47438,1,8,0:0:0:0:
256,192,47619,1,0,0:0:0:0:
256,192,47801,1,8,0:0:0:0:
256,192,47892,1,8,0:0:0:0:
256,192,48074,1,0,0:0:0:0:
256,192,48165,1,8,0:0:0:0:
256,192,48347,1,0,0:0:0:0:
256,192,48528,1,8,0:0:0:0:
256,192,48619,1,8,0:0:0:0:
256,192,48710,1,0,0:0:0:0:
256,192,48892,1,8,0:0:0:0:
256,192,49074,1,0,0:0:0:0:
256,192,49256,1,8,0:0:0:0:
256,192,49347,1,8,0:0:0:0:
256,192,49438,1,0,0:0:0:0:
256,192,49528,1,8,0:0:0:0:
256,192,49710,1,8,0:0:0:0:
256,192,49801,1,0,0:0:0:0:
256,192,49983,1,8,0:0:0:0:
256,192,50165,1,0,0:0:0:0:
256,192,50256,1,0,0:0:0:0:
256,192,50347,1,8,0:0:0:0:
256,192,50528,1,0,0:0:0:0:
256,192,50710,1,8,0:0:0:0:
256,192,50801,1,8,0:0:0:0:
256,192,50892,1,0,0:0:0:0:
256,192,51074,1,0,0:0:0:0:
256,192,51256,1,8,0:0:0:0:
256,192,51619,1,8,0:0:0:0:
256,192,51710,1,8,0:0:0:0:
256,192,51801,1,8,0:0:0:0:
256,192,51892,1,8,0:0:0:0:
256,192,51983,1,0,0:0:0:0:
256,192,52165,1,8,0:0:0:0:
256,192,52347,1,4,0:0:0:0:
256,192,52710,1,0,0:0:0:0:
256,192,52892,1,0,0:0:0:0:
256,192,52983,1,0,0:0:0:0:
256,192,53074,1,8,0:0:0:0:
256,192,53256,1,8,0:0:0:0:
256,192,53438,1,0,0:0:0:0:
256,192,53619,1,8,0:0:0:0:
256,192,53710,1,0,0:0:0:0:
256,192,53892,1,0,0:0:0:0:
256,192,53983,1,8,0:0:0:0:
256,192,54165,1,0,0:0:0:0:
256,192,54347,1,0,0:0:0:0:
256,192,54438,1,8,0:0:0:0:
256,192,54528,1,0,0:0:0:0:
256,192,54710,1,8,0:0:0:0:
256,192,54892,1,0,0:0:0:0:
256,192,55074,1,8,0:0:0:0:
256,192,55165,1,8,0:0:0:0:
256,192,55256,1,0,0:0:0:0:
256,192,55438,1,8,0:0:0:0:
256,192,55619,1,0,0:0:0:0:
256,192,55801,1,8,0:0:0:0:
256,192,55892,1,0,0:0:0:0:
256,192,55983,1,8,0:0:0:0:
256,192,56165,1,8,0:0:0:0:
256,192,56347,1,0,0:0:0:0:
256,192,56528,1,8,0:0:0:0:
256,192,56619,1,8,0:0:0:0:
256,192,56710,1,0,0:0:0:0:
256,192,56892,1,8,0:0:0:0:
256,192,57074,1,0,0:0:0:0:
256,192,57256,1,8,0:0:0:0:
256,192,57347,1,8,0:0:0:0:
256,192,57438,1,0,0:0:0:0:
256,192,57619,1,0,0:0:0:0:
256,192,57710,1,0,0:0:0:0:
256,192,57801,1,8,0:0:0:0:
256,192,57983,1,8,0:0:0:0:
256,192,58165,1,4,0:0:0:0:
256,192,58528,1,8,0:0:0:0:
256,192,58892,1,0,0:0:0:0:
256,192,59256,1,8,0:0:0:0:
256,192,59619,1,0,0:0:0:0:
256,192,59801,1,8,0:0:0:0:
256,192,59983,1,8,0:0:0:0:
256,192,60165,1,8,0:0:0:0:
256,192,60347,1,0,0:0:0:0:
256,192,60710,1,8,0:0:0:0:
256,192,61074,1,0,0:0:0:0:
256,192,61256,1,0,0:0:0:0:
256,192,61438,1,8,0:0:0:0:
256,192,61619,1,0,0:0:0:0:
256,192,61801,1,8,0:0:0:0:
256,192,61892,1,8,0:0:0:0:
256,192,61983,1,0,0:0:0:0:
256,192,62074,1,0,0:0:0:0:
256,192,62165,1,8,0:0:0:0:
256,192,62347,1,8,0:0:0:0:
256,192,62528,1,4,0:0:0:0:
256,192,62892,1,12,0:0:0:0:
256,192,63256,1,0,0:0:0:0:
256,192,63438,1,0,0:0:0:0:
256,192,63619,1,12,0:0:0:0:
256,192,63983,1,0,0:0:0:0:
256,192,64256,1,0,0:0:0:0:
256,192,64347,1,8,0:0:0:0:
256,192,64528,1,8,0:0:0:0:
256,192,64619,1,8,0:0:0:0:
256,192,64710,1,0,0:0:0:0:
256,192,64892,1,0,0:0:0:0:
256,192,65074,1,12,0:0:0:0:
256,192,65256,1,0,0:0:0:0:
256,192,65438,1,0,0:0:0:0:
256,192,65801,1,8,0:0:0:0:
256,192,65983,1,0,0:0:0:0:
256,192,66074,1,8,0:0:0:0:
256,192,66165,1,0,0:0:0:0:
256,192,66347,1,0,0:0:0:0:
256,192,66528,1,8,0:0:0:0:
256,192,66892,1,0,0:0:0:0:
256,192,67074,1,0,0:0:0:0:
256,192,67165,1,0,0:0:0:0:
256,192,67256,1,8,0:0:0:0:
256,192,67438,1,8,0:0:0:0:
256,192,67619,1,0,0:0:0:0:
256,192,67710,1,0,0:0:0:0:
256,192,67801,1,0,0:0:0:0:
256,192,67892,1,0,0:0:0:0:
256,192,67983,1,8,0:0:0:0:
256,192,68165,1,8,0:0:0:0:
256,192,68347,1,4,0:0:0:0:
256,192,68710,1,12,0:0:0:0:
256,192,69074,1,0,0:0:0:0:
256,192,69256,1,0,0:0:0:0:
256,192,69438,1,12,0:0:0:0:
256,192,69801,1,0,0:0:0:0:
256,192,69983,1,0,0:0:0:0:
256,192,70165,1,8,0:0:0:0:
256,192,70256,1,0,0:0:0:0:
256,192,70438,1,0,0:0:0:0:
256,192,70528,1,8,0:0:0:0:
256,192,70710,1,0,0:0:0:0:
256,192,70892,1,8,0:0:0:0:
256,192,70983,1,8,0:0:0:0:
256,192,71074,1,0,0:0:0:0:
256,192,71165,1,8,0:0:0:0:
256,192,71256,1,0,0:0:0:0:
256,192,71438,1,0,0:0:0:0:
256,192,71619,1,8,0:0:0:0:
256,192,71892,1,8,0:0:0:0:
256,192,71983,1,0,0:0:0:0:
256,192,72165,1,0,0:0:0:0:
256,192,72347,1,8,0:0:0:0:
256,192,72710,8,8,73256,0:0:0:0:
256,192,73438,5,8,0:0:0:0:
256,192,73498,1,8,0:0:0:0:
256,192,73559,1,8,0:0:0:0:
256,192,73619,1,0,0:0:0:0:
256,192,73710,1,0,0:0:0:0:
256,192,73801,1,8,0:0:0:0:
256,192,73983,1,8,0:0:0:0:
256,192,74165,1,4,0:0:0:0:
256,192,74347,1,8,0:0:0:0:
256,192,74438,1,8,0:0:0:0:
256,192,74528,1,0,0:0:0:0:
256,192,74710,1,8,0:0:0:0:
256,192,74801,1,0,0:0:0:0:
256,192,74892,1,8,0:0:0:0:
256,192,75074,1,8,0:0:0:0:
256,192,75256,1,0,0:0:0:0:
256,192,75347,1,8,0:0:0:0:
256,192,75438,1,0,0:0:0:0:
256,192,75528,1,0,0:0:0:0:
256,192,75619,1,8,0:0:0:0:
256,192,75801,1,8,0:0:0:0:
256,192,75983,1,0,0:0:0:0:
256,192,76165,1,8,0:0:0:0:
256,192,76225,1,8,0:0:0:0:
256,192,76286,1,8,0:0:0:0:
256,192,76347,1,0,0:0:0:0:
256,192,76528,1,8,0:0:0:0:
256,192,76710,1,0,0:0:0:0:
256,192,76801,1,0,0:0:0:0:
256,192,76892,1,8,0:0:0:0:
256,192,76983,1,8,0:0:0:0:
256,192,77074,1,0,0:0:0:0:
256,192,77256,1,0,0:0:0:0:
256,192,77438,1,8,0:0:0:0:
256,192,77619,1,0,0:0:0:0:
256,192,77710,1,0,0:0:0:0:
256,192,77801,1,8,0:0:0:0:
256,192,77892,1,0,0:0:0:0:
256,192,78074,1,0,0:0:0:0:
256,192,78165,1,8,0:0:0:0:
256,192,78347,1,0,0:0:0:0:
256,192,78438,1,0,0:0:0:0:
256,192,78528,1,8,0:0:0:0:
256,192,78710,1,0,0:0:0:0:
256,192,78892,1,8,0:0:0:0:
256,192,79074,1,0,0:0:0:0:
256,192,79134,1,0,0:0:0:0:
256,192,79195,1,0,0:0:0:0:
256,192,79256,1,8,0:0:0:0:
256,192,79438,1,0,0:0:0:0:
256,192,79528,1,0,0:0:0:0:
256,192,79619,1,8,0:0:0:0:
256,192,79801,1,8,0:0:0:0:
256,192,79983,1,4,0:0:0:0:
256,192,80256,1,8,0:0:0:0:
256,192,80347,1,0,0:0:0:0:
256,192,80528,1,8,0:0:0:0:
256,192,80710,1,0,0:0:0:0:
256,192,80801,1,0,0:0:0:0:
256,192,80983,1,8,0:0:0:0:
256,192,81074,1,0,0:0:0:0:
256,192,81256,1,8,0:0:0:0:
256,192,81438,1,0,0:0:0:0:
256,192,81528,1,0,0:0:0:0:
256,192,81619,1,0,0:0:0:0:
256,192,81710,1,8,0:0:0:0:
256,192,81801,1,0,0:0:0:0:
256,192,81983,1,8,0:0:0:0:
256,192,82074,1,8,0:0:0:0:
256,192,82165,1,0,0:0:0:0:
256,192,82347,1,8,0:0:0:0:
256,192,82528,1,0,0:0:0:0:
256,192,82619,1,0,0:0:0:0:
256,192,82710,1,8,0:0:0:0:
256,192,82801,1,8,0:0:0:0:
256,192,82892,1,0,0:0:0:0:
256,192,83256,1,12,0:0:0:0:
256,192,83619,1,0,0:0:0:0:
256,192,83983,1,12,0:0:0:0:
256,192,84347,1,12,0:0:0:0:
256,192,84710,1,0,0:0:0:0:
256,192,84892,1,8,0:0:0:0:
256,192,85074,1,0,0:0:0:0:
256,192,85134,1,8,0:0:0:0:
256,192,85195,1,8,0:0:0:0:
256,192,85256,1,0,0:0:0:0:
256,192,85347,1,0,0:0:0:0:
256,192,85438,1,8,0:0:0:0:
256,192,85619,1,8,0:0:0:0:
256,192,85801,1,4,0:0:0:0:
256,192,85983,1,8,0:0:0:0:
256,192,86074,1,8,0:0:0:0:
256,192,86165,1,0,0:0:0:0:
256,192,86256,1,0,0:0:0:0:
256,192,86347,1,8,0:0:0:0:
256,192,86438,1,0,0:0:0:0:
256,192,86528,1,8,0:0:0:0:
256,192,86710,1,0,0:0:0:0:
256,192,86801,1,0,0:0:0:0:
256,192,86892,1,8,0:0:0:0:
256,192,87074,1,8,0:0:0:0:
256,192,87256,1,0,0:0:0:0:
256,192,87438,1,8,0:0:0:0:
256,192,87528,1,8,0:0:0:0:
256,192,87619,1,0,0:0:0:0:
256,192,87801,1,8,0:0:0:0:
256,192,87862,1,8,0:0:0:0:
256,192,87922,1,8,0:0:0:0:
256,192,87983,1,0,0:0:0:0:
256,192,88165,1,8,0:0:0:0:
256,192,88347,1,0,0:0:0:0:
256,192,88438,1,0,0:0:0:0:
256,192,88528,1,8,0:0:0:0:
256,192,88619,1,0,0:0:0:0:
256,192,88710,1,8,0:0:0:0:
256,192,88892,1,8,0:0:0:0:
256,192,89074,1,0,0:0:0:0:
256,192,89165,1,8,0:0:0:0:
256,192,89256,1,0,0:0:0:0:
256,192,89347,1,0,0:0:0:0:
256,192,89438,1,8,0:0:0:0:
256,192,89619,1,8,0:0:0:0:
256,192,89710,1,8,0:0:0:0:
256,192,89801,1,0,0:0:0:0:
256,192,89892,1,0,0:0:0:0:
256,192,89983,1,8,0:0:0:0:
256,192,90074,1,0,0:0:0:0:
256,192,90165,1,8,0:0:0:0:
256,192,90347,1,8,0:0:0:0:
256,192,90528,1,0,0:0:0:0:
256,192,90710,1,8,0:0:0:0:
256,192,90771,1,8,0:0:0:0:
256,192,90831,1,8,0:0:0:0:
256,192,90892,1,0,0:0:0:0:
256,192,90983,1,8,0:0:0:0:
256,192,91165,1,0,0:0:0:0:
256,192,91256,1,8,0:0:0:0:
256,192,91438,1,8,0:0:0:0:
256,192,91619,1,4,0:0:0:0:
256,192,91892,1,8,0:0:0:0:
256,192,91983,1,0,0:0:0:0:
256,192,92165,1,8,0:0:0:0:
256,192,92347,1,0,0:0:0:0:
256,192,92438,1,0,0:0:0:0:
256,192,92528,1,0,0:0:0:0:
256,192,92710,1,8,0:0:0:0:
256,192,92892,1,0,0:0:0:0:
256,192,92983,1,0,0:0:0:0:
256,192,93074,1,8,0:0:0:0:
256,192,93256,1,8,0:0:0:0:
256,192,93438,1,0,0:0:0:0:
256,192,93619,1,8,0:0:0:0:
256,192,93710,1,8,0:0:0:0:
256,192,93801,1,0,0:0:0:0:
256,192,93892,1,0,0:0:0:0:
256,192,93983,1,8,0:0:0:0:
256,192,94074,1,8,0:0:0:0:
256,192,94165,1,0,0:0:0:0:
256,192,94347,1,8,0:0:0:0:
256,192,94528,1,0,0:0:0:0:
256,192,94619,1,8,0:0:0:0:
256,192,94801,1,8,0:0:0:0:
256,192,94892,1,0,0:0:0:0:
256,192,95074,1,8,0:0:0:0:
256,192,95256,1,0,0:0:0:0:
256,192,95347,1,0,0:0:0:0:
256,192,95438,1,0,0:0:0:0:
256,192,95528,1,8,0:0:0:0:
256,192,95619,1,8,0:0:0:0:
256,192,95710,1,8,0:0:0:0:
256,192,95801,1,0,0:0:0:0:
256,192,95892,1,0,0:0:0:0:
256,192,95983,1,8,0:0:0:0:
256,192,96165,1,8,0:0:0:0:
256,192,96347,1,0,0:0:0:0:
256,192,96528,1,8,0:0:0:0:
256,192,96619,1,0,0:0:0:0:
256,192,96710,1,8,0:0:0:0:
256,192,96892,1,0,0:0:0:0:
256,192,96983,1,0,0:0:0:0:
256,192,97074,1,8,0:0:0:0:
256,192,97165,1,8,0:0:0:0:
256,192,97256,1,0,0:0:0:0:
256,192,97347,1,8,0:0:0:0:
256,192,97438,1,0,0:0:0:0:
256,192,97619,1,0,0:0:0:0:
256,192,97801,1,8,0:0:0:0:
256,192,97892,1,8,0:0:0:0:
256,192,97983,1,0,0:0:0:0:
256,192,98074,1,0,0:0:0:0:
256,192,98165,1,8,0:0:0:0:
256,192,98256,1,8,0:0:0:0:
256,192,98347,1,8,0:0:0:0:
256,192,98438,1,8,0:0:0:0:
256,192,98528,1,0,0:0:0:0:
256,192,98710,1,8,0:0:0:0:
256,192,98892,1,4,0:0:0:0:
256,192,99619,1,8,0:0:0:0:
256,192,99680,1,8,0:0:0:0:
256,192,99741,1,8,0:0:0:0:
256,192,99801,1,0,0:0:0:0:
256,192,99892,1,0,0:0:0:0:
256,192,99983,1,8,0:0:0:0:
256,192,100165,1,8,0:0:0:0:
256,192,100347,1,4,0:0:0:0:
256,192,100710,1,8,0:0:0:0:
256,192,100892,1,8,0:0:0:0:
256,192,101074,1,0,0:0:0:0:
256,192,101256,1,0,0:0:0:0:
256,192,101347,1,0,0:0:0:0:
256,192,101438,1,8,0:0:0:0:
256,192,101619,1,8,0:0:0:0:
256,192,101801,1,0,0:0:0:0:
256,192,101983,1,0,0:0:0:0:
256,192,102165,1,8,0:0:0:0:
256,192,102347,1,8,0:0:0:0:
256,192,102438,1,8,0:0:0:0:
256,192,102528,1,0,0:0:0:0:
256,192,102710,1,0,0:0:0:0:
256,192,102892,1,8,0:0:0:0:
256,192,103256,1,0,0:0:0:0:
256,192,103438,1,0,0:0:0:0:
256,192,103619,1,8,0:0:0:0:
256,192,103710,1,0,0:0:0:0:
256,192,103801,1,8,0:0:0:0:
256,192,103892,1,8,0:0:0:0:
256,192,103983,1,0,0:0:0:0:
256,192,104165,1,0,0:0:0:0:
256,192,104347,1,8,0:0:0:0:
256,192,104528,1,0,0:0:0:0:
256,192,104619,1,8,0:0:0:0:
256,192,104710,1,0,0:0:0:0:
256,192,104892,1,0,0:0:0:0:
256,192,105074,1,8,0:0:0:0:
256,192,105256,1,8,0:0:0:0:
256,192,105347,1,8,0:0:0:0:
256,192,105438,1,0,0:0:0:0:
256,192,105619,1,0,0:0:0:0:
256,192,105710,1,0,0:0:0:0:
256,192,105801,1,8,0:0:0:0:
256,192,105983,1,8,0:0:0:0:
256,192,106165,1,4,0:0:0:0:
256,192,106528,1,8,0:0:0:0:
256,192,106710,1,8,0:0:0:0:
256,192,106892,1,0,0:0:0:0:
256,192,106983,1,8,0:0:0:0:
256,192,107074,1,0,0:0:0:0:
256,192,107165,1,0,0:0:0:0:
256,192,107256,1,8,0:0:0:0:
256,192,107438,1,8,0:0:0:0:
256,192,107619,1,0,0:0:0:0:
256,192,107801,1,8,0:0:0:0:
256,192,107892,1,0,0:0:0:0:
256,192,107983,1,8,0:0:0:0:
256,192,108165,1,8,0:0:0:0:
256,192,108347,1,0,0:0:0:0:
256,192,108528,1,0,0:0:0:0:
256,192,108619,1,0,0:0:0:0:
256,192,108710,1,8,0:0:0:0:
256,192,108892,1,8,0:0:0:0:
256,192,108983,1,8,0:0:0:0:
256,192,109074,1,0,0:0:0:0:
256,192,109256,1,0,0:0:0:0:
256,192,109438,1,8,0:0:0:0:
256,192,109619,1,0,0:0:0:0:
256,192,109710,1,8,0:0:0:0:
256,192,109801,1,0,0:0:0:0:
256,192,109892,1,0,0:0:0:0:
256,192,109983,1,8,0:0:0:0:
256,192,110074,1,8,0:0:0:0:
256,192,110165,1,0,0:0:0:0:
256,192,110347,1,8,0:0:0:0:
256,192,110528,1,0,0:0:0:0:
256,192,110619,1,0,0:0:0:0:
256,192,110710,1,0,0:0:0:0:
256,192,110801,1,0,0:0:0:0:
256,192,110892,1,8,0:0:0:0:
256,192,110983,1,8,0:0:0:0:
256,192,111074,1,0,0:0:0:0:
256,192,111165,1,8,0:0:0:0:
256,192,111256,1,0,0:0:0:0:
256,192,111316,1,0,0:0:0:0:
256,192,111377,1,0,0:0:0:0:
256,192,111438,1,8,0:0:0:0:
256,192,111528,1,8,0:0:0:0:
256,192,111619,1,0,0:0:0:0:
256,192,111801,1,8,0:0:0:0:
256,192,111983,1,4,0:0:0:0:
256,192,112165,1,8,0:0:0:0:
256,192,112347,1,0,0:0:0:0:
256,192,112438,1,0,0:0:0:0:
256,192,112528,1,8,0:0:0:0:
256,192,112619,1,0,0:0:0:0:
256,192,112710,1,8,0:0:0:0:
256,192,112892,1,0,0:0:0:0:
256,192,113074,1,8,0:0:0:0:
256,192,113165,1,8,0:0:0:0:
256,192,113256,1,0,0:0:0:0:
256,192,113347,1,8,0:0:0:0:
256,192,113438,1,0,0:0:0:0:
256,192,113619,1,8,0:0:0:0:
256,192,113801,1,0,0:0:0:0:
256,192,113983,1,8,0:0:0:0:
256,192,114074,1,0,0:0:0:0:
256,192,114165,1,8,0:0:0:0:
256,192,114256,1,8,0:0:0:0:
256,192,114347,1,0,0:0:0:0:
256,192,114438,1,0,0:0:0:0:
256,192,114528,1,8,0:0:0:0:
256,192,114710,1,0,0:0:0:0:
256,192,114892,1,8,0:0:0:0:
256,192,114983,1,0,0:0:0:0:
256,192,115074,1,0,0:0:0:0:
256,192,115256,1,8,0:0:0:0:
256,192,115347,1,8,0:0:0:0:
256,192,115438,1,0,0:0:0:0:
256,192,115619,1,8,0:0:0:0:
256,192,115710,1,8,0:0:0:0:
256,192,115801,1,8,0:0:0:0:
256,192,115983,1,8,0:0:0:0:
256,192,116074,1,8,0:0:0:0:
256,192,116165,1,8,0:0:0:0:
256,192,116256,1,8,0:0:0:0:
256,192,116347,1,0,0:0:0:0:
256,192,116528,1,0,0:0:0:0:
256,192,116710,1,8,0:0:0:0:
256,192,116892,1,0,0:0:0:0:
256,192,116983,1,0,0:0:0:0:
256,192,117074,1,8,0:0:0:0:
256,192,117165,1,8,0:0:0:0:
256,192,117256,1,0,0:0:0:0:
256,192,117347,1,8,0:0:0:0:
256,192,117438,1,0,0:0:0:0:
256,192,117619,1,8,0:0:0:0:
256,192,117801,1,4,0:0:0:0:
256,192,117983,1,0,0:0:0:0:
256,192,118074,1,0,0:0:0:0:
256,192,118165,1,8,0:0:0:0:
256,192,118347,1,0,0:0:0:0:
256,192,118528,1,8,0:0:0:0:
256,192,118619,1,8,0:0:0:0:
256,192,118801,1,0,0:0:0:0:
256,192,118892,1,8,0:0:0:0:
256,192,119074,1,0,0:0:0:0:
256,192,119256,1,8,0:0:0:0:
256,192,119347,1,8,0:0:0:0:
256,192,119438,1,0,0:0:0:0:
256,192,119528,1,0,0:0:0:0:
256,192,119619,1,8,0:0:0:0:
256,192,119801,1,8,0:0:0:0:
256,192,119892,1,8,0:0:0:0:
256,192,119983,1,0,0:0:0:0:
256,192,120165,1,0,0:0:0:0:
256,192,120256,1,0,0:0:0:0:
256,192,120347,1,8,0:0:0:0:
256,192,120528,1,8,0:0:0:0:
256,192,120710,1,0,0:0:0:0:
256,192,120892,1,8,0:0:0:0:
256,192,120983,1,0,0:0:0:0:
256,192,121074,1,8,0:0:0:0:
256,192,121256,1,8,0:0:0:0:
256,192,121438,1,0,0:0:0:0:
256,192,121528,1,0,0:0:0:0:
256,192,121619,1,8,0:0:0:0:
256,192,121710,1,8,0:0:0:0:
256,192,121801,1,0,0:0:0:0:
256,192,121892,1,8,0:0:0:0:
256,192,121983,1,0,0:0:0:0:
256,192,122074,1,0,0:0:0:0:
256,192,122165,1,8,0:0:0:0:
256,192,122347,1,8,0:0:0:0:
256,192,122438,1,8,0:0:0:0:
256,192,122528,1,0,0:0:0:0:
256,192,122710,1,0,0:0:0:0:
256,192,122892,1,8,0:0:0:0:
256,192,122953,1,8,0:0:0:0:
256,192,123013,1,8,0:0:0:0:
256,192,123074,1,0,0:0:0:0:
256,192,123165,1,0,0:0:0:0:
256,192,123256,1,8,0:0:0:0:
256,192,123438,1,8,0:0:0:0:
256,192,123619,1,4,0:0:0:0:
256,192,123801,1,8,0:0:0:0:
256,192,123892,1,8,0:0:0:0:
256,192,123983,1,0,0:0:0:0:
256,192,124165,1,8,0:0:0:0:
256,192,124347,1,0,0:0:0:0:
256,192,124438,1,0,0:0:0:0:
256,192,124619,1,0,0:0:0:0:
256,192,124710,1,8,0:0:0:0:
256,192,124892,1,0,0:0:0:0:
256,192,124983,1,0,0:0:0:0:
256,192,125074,1,8,0:0:0:0:
256,192,125165,1,0,0:0:0:0:
256,192,125347,1,0,0:0:0:0:
256,192,125438,1,8,0:0:0:0:
256,192,125619,1,0,0:0:0:0:
256,192,125710,1,0,0:0:0:0:
256,192,125801,1,8,0:0:0:0:
256,192,125892,1,8,0:0:0:0:
256,192,126074,1,0,0:0:0:0:
256,192,126165,1,8,0:0:0:0:
256,192,126347,1,0,0:0:0:0:
256,192,126528,1,8,0:0:0:0:
256,192,126619,1,8,0:0:0:0:
256,192,126710,1,0,0:0:0:0:
256,192,126801,1,8,0:0:0:0:
256,192,126892,1,8,0:0:0:0:
256,192,126983,1,0,0:0:0:0:
256,192,127074,1,8,0:0:0:0:
256,192,127256,1,0,0:0:0:0:
256,192,127347,1,0,0:0:0:0:
256,192,127438,1,8,0:0:0:0:
256,192,127528,1,0,0:0:0:0:
256,192,127619,1,0,0:0:0:0:
256,192,127710,1,8,0:0:0:0:
256,192,127801,1,0,0:0:0:0:
256,192,127983,1,8,0:0:0:0:
256,192,128074,1,8,0:0:0:0:
256,192,128165,1,0,0:0:0:0:
256,192,128256,1,8,0:0:0:0:
256,192,128347,1,8,0:0:0:0:
256,192,128438,1,8,0:0:0:0:
256,192,128528,1,0,0:0:0:0:
256,192,128619,1,0,0:0:0:0:
256,192,128710,1,8,0:0:0:0:
256,192,128801,1,8,0:0:0:0:
256,192,128892,1,8,0:0:0:0:
256,192,128983,1,8,0:0:0:0:
256,192,129074,1,0,0:0:0:0:
256,192,129256,1,8,0:0:0:0:
256,192,129438,1,4,0:0:0:0:
256,192,129619,1,8,0:0:0:0:
256,192,129710,1,8,0:0:0:0:
256,192,129801,1,0,0:0:0:0:
256,192,129983,1,0,0:0:0:0:
256,192,130165,1,8,0:0:0:0:
256,192,130256,1,8,0:0:0:0:
256,192,130438,1,8,0:0:0:0:
256,192,130528,1,0,0:0:0:0:
256,192,130710,1,8,0:0:0:0:
256,192,130801,1,8,0:0:0:0:
256,192,130892,1,0,0:0:0:0:
256,192,130983,1,8,0:0:0:0:
256,192,131165,1,8,0:0:0:0:
256,192,131256,1,0,0:0:0:0:
256,192,131438,1,8,0:0:0:0:
256,192,131528,1,8,0:0:0:0:
256,192,131619,1,0,0:0:0:0:
256,192,131710,1,0,0:0:0:0:
256,192,131892,1,8,0:0:0:0:
256,192,131983,1,0,0:0:0:0:
256,192,132165,1,8,0:0:0:0:
256,192,132347,1,0,0:0:0:0:
256,192,132438,1,0,0:0:0:0:
256,192,132528,1,8,0:0:0:0:
256,192,132619,1,0,0:0:0:0:
256,192,132710,1,0,0:0:0:0:
256,192,132801,1,8,0:0:0:0:
256,192,132892,1,0,0:0:0:0:
256,192,133074,1,8,0:0:0:0:
256,192,133165,1,8,0:0:0:0:
256,192,133256,1,0,0:0:0:0:
256,192,133347,1,8,0:0:0:0:
256,192,133438,1,8,0:0:0:0:
256,192,133528,1,0,0:0:0:0:
256,192,133619,1,8,0:0:0:0:
256,192,133801,1,0,0:0:0:0:
256,192,133892,1,0,0:0:0:0:
256,192,133983,1,8,0:0:0:0:
256,192,134074,1,0,0:0:0:0:
256,192,134165,1,0,0:0:0:0:
256,192,134256,1,0,0:0:0:0:
256,192,134347,1,8,0:0:0:0:
256,192,134438,1,8,0:0:0:0:
256,192,134528,1,0,0:0:0:0:
256,192,134589,1,0,0:0:0:0:
256,192,134650,1,0,0:0:0:0:
256,192,134710,1,8,0:0:0:0:
256,192,134801,1,8,0:0:0:0:
256,192,134892,1,0,0:0:0:0:
256,192,135074,1,8,0:0:0:0:
256,192,135256,1,4,0:0:0:0:
256,192,135619,1,0,0:0:0:0:
256,192,135801,1,8,0:0:0:0:
256,192,135983,1,0,0:0:0:0:
256,192,136165,1,8,0:0:0:0:
256,192,136256,1,8,0:0:0:0:
256,192,136347,1,0,0:0:0:0:
256,192,136528,1,8,0:0:0:0:
256,192,136710,1,0,0:0:0:0:
256,192,136892,1,8,0:0:0:0:
256,192,136983,1,8,0:0:0:0:
256,192,137074,1,0,0:0:0:0:
256,192,137165,1,8,0:0:0:0:
256,192,137347,1,8,0:0:0:0:
256,192,137438,1,0,0:0:0:0:
256,192,137619,1,8,0:0:0:0:
256,192,137801,1,0,0:0:0:0:
256,192,137983,1,8,0:0:0:0:
256,192,138074,1,8,0:0:0:0:
256,192,138165,1,0,0:0:0:0:
256,192,138347,1,8,0:0:0:0:
256,192,138528,1,0,0:0:0:0:
256,192,138619,1,0,0:0:0:0:
256,192,138710,1,8,0:0:0:0:
256,192,138801,1,8,0:0:0:0:
256,192,138892,1,0,0:0:0:0:
256,192,139074,1,8,0:0:0:0:
256,192,139256,1,0,0:0:0:0:
256,192,139438,1,0,0:0:0:0:
256,192,139528,1,8,0:0:0:0:
256,192,139619,1,0,0:0:0:0:
256,192,139801,1,8,0:0:0:0:
256,192,139983,1,0,0:0:0:0:
256,192,140165,1,8,0:0:0:0:
256,192,140256,1,8,0:0:0:0:
256,192,140347,1,0,0:0:0:0:
256,192,140528,1,8,0:0:0:0:
256,192,140710,1,0,0:0:0:0:
256,192,140892,1,8,0:0:0:0:
256,192,141074,1,4,0:0:0:0:
256,192,141438,1,0,0:0:0:0:
256,192,141619,1,8,0:0:0:0:
256,192,141710,1,8,0:0:0:0:
256,192,141801,1,0,0:0:0:0:
256,192,141983,1,8,0:0:0:0:
256,192,142165,1,0,0:0:0:0:
256,192,142256,1,8,0:0:0:0:
256,192,142347,1,8,0:0:0:0:
256,192,142438,1,8,0:0:0:0:
256,192,142528,1,0,0:0:0:0:
256,192,142710,1,8,0:0:0:0:
256,192,142892,1,0,0:0:0:0:
256,192,142983,1,8,0:0:0:0:
256,192,143165,1,8,0:0:0:0:
256,192,143256,1,0,0:0:0:0:
256,192,143438,1,8,0:0:0:0:
256,192,143619,1,0,0:0:0:0:
256,192,143801,1,8,0:0:0:0:
256,192,143892,1,8,0:0:0:0:
256,192,143983,1,0,0:0:0:0:
256,192,144165,1,8,0:0:0:0:
256,192,144347,1,0,0:0:0:0:
256,192,144438,1,0,0:0:0:0:
256,192,144528,1,8,0:0:0:0:
256,192,144619,1,8,0:0:0:0:
256,192,144710,1,0,0:0:0:0:
256,192,144892,1,8,0:0:0:0:
256,192,144983,1,8,0:0:0:0:
256,192,145074,1,0,0:0:0:0:
256,192,145165,1,0,0:0:0:0:
256,192,145256,1,8,0:0:0:0:
256,192,145347,1,8,0:0:0:0:
256,192,145438,1,0,0:0:0:0:
256,192,146892,1,4,0:0:0:0:
256,192,147256,1,0,0:0:0:0:
256,192,147438,1,8,0:0:0:0:
256,192,147619,1,0,0:0:0:0:
256,192,147892,1,8,0:0:0:0:
256,192,147983,1,0,0:0:0:0:
256,192,148165,1,8,0:0:0:0:
256,192,148347,1,0,0:0:0:0:
256,192,148438,1,0,0:0:0:0:
256,192,148528,1,8,0:0:0:0:
256,192,148710,1,0,0:0:0:0:
256,192,148801,1,0,0:0:0:0:
256,192,148892,1,8,0:0:0:0:
256,192,149074,1,0,0:0:0:0:
256,192,149347,1,8,0:0:0:0:
256,192,149438,1,0,0:0:0:0:
256,192,149619,1,8,0:0:0:0:
256,192,149801,1,0,0:0:0:0:
256,192,149983,1,8,0:0:0:0:
256,192,150074,1,8,0:0:0:0:
256,192,150165,1,0,0:0:0:0:
256,192,150347,1,8,0:0:0:0:
256,192,150528,1,0,0:0:0:0:
256,192,150801,1,8,0:0:0:0:
256,192,150892,1,0,0:0:0:0:
256,192,151074,1,8,0:0:0:0:
256,192,151256,1,0,0:0:0:0:
256,192,151347,1,8,0:0:0:0:
256,192,151528,1,8,0:0:0:0:
256,192,151619,1,0,0:0:0:0:
256,192,151801,1,8,0:0:0:0:
256,192,151983,1,0,0:0:0:0:
256,192,152074,1,0,0:0:0:0:
256,192,152256,1,8,0:0:0:0:
256,192,152347,1,0,0:0:0:0:
256,192,152528,1,0,0:0:0:0:
256,192,152710,1,4,0:0:0:0:
256,192,153074,1,0,0:0:0:0:
256,192,153256,1,8,0:0:0:0:
256,192,153438,1,0,0:0:0:0:
256,192,153710,1,8,0:0:0:0:
256,192,153801,1,0,0:0:0:0:
256,192,153983,1,8,0:0:0:0:
256,192,154165,1,0,0:0:0:0:
256,192,154256,1,0,0:0:0:0:
256,192,154347,1,8,0:0:0:0:
256,192,154438,1,8,0:0:0:0:
256,192,154528,1,0,0:0:0:0:
256,192,154710,1,8,0:0:0:0:
256,192,154892,1,0,0:0:0:0:
256,192,155165,1,8,0:0:0:0:
256,192,155256,1,0,0:0:0:0:
256,192,155438,1,8,0:0:0:0:
256,192,155528,1,8,0:0:0:0:
256,192,155619,1,0,0:0:0:0:
256,192,155710,1,0,0:0:0:0:
256,192,155892,1,8,0:0:0:0:
256,192,155983,1,0,0:0:0:0:
256,192,156165,1,8,0:0:0:0:
256,192,156347,1,0,0:0:0:0:
256,192,156438,1,0,0:0:0:0:
256,192,156528,1,8,0:0:0:0:
256,192,156619,1,8,0:0:0:0:
256,192,156710,1,0,0:0:0:0:
256,192,156801,1,8,0:0:0:0:
256,192,156892,1,8,0:0:0:0:
256,192,156983,1,8,0:0:0:0:
256,192,157074,1,0,0:0:0:0:
256,192,157801,1,0,0:0:0:0:
256,192,157892,1,0,0:0:0:0:
256,192,157983,1,0,0:0:0:0:
256,192,158074,1,0,0:0:0:0:
256,192,158165,1,8,0:0:0:0:
256,192,158347,1,8,0:0:0:0:
256,192,158528,1,4,0:0:0:0:
256,192,168710,5,8,0:0:0:0:
256,192,169074,1,8,0:0:0:0:
256,192,169438,1,8,0:0:0:0:
256,192,169528,1,0,0:0:0:0:
256,192,169619,1,0,0:0:0:0:
256,192,169710,1,0,0:0:0:0:
256,192,169801,1,8,0:0:0:0:
256,192,170165,1,4,0:0:0:0:
256,192,170528,1,8,0:0:0:0:
256,192,170710,1,0,0:0:0:0:
256,192,170801,1,8,0:0:0:0:
256,192,170892,1,0,0:0:0:0:
256,192,171074,1,0,0:0:0:0:
256,192,171256,1,8,0:0:0:0:
256,192,171438,1,8,0:0:0:0:
256,192,171528,1,8,0:0:0:0:
256,192,171619,1,0,0:0:0:0:
256,192,171892,1,0,0:0:0:0:
256,192,171983,1,8,0:0:0:0:
256,192,172165,1,8,0:0:0:0:
256,192,172256,1,8,0:0:0:0:
256,192,172347,1,0,0:0:0:0:
256,192,172528,1,0,0:0:0:0:
256,192,172710,1,8,0:0:0:0:
256,192,172892,1,0,0:0:0:0:
256,192,173074,1,0,0:0:0:0:
256,192,173438,1,8,0:0:0:0:
256,192,173619,1,8,0:0:0:0:
256,192,173801,1,0,0:0:0:0:
256,192,173983,1,0,0:0:0:0:
256,192,174074,1,0,0:0:0:0:
256,192,174165,1,8,0:0:0:0:
256,192,174347,1,8,0:0:0:0:
256,192,174528,1,0,0:0:0:0:
256,192,174801,1,0,0:0:0:0:
256,192,174892,1,8,0:0:0:0:
256,192,175074,1,0,0:0:0:0:
256,192,175256,1,0,0:0:0:0:
256,192,175347,1,0,0:0:0:0:
256,192,175438,1,0,0:0:0:0:
256,192,175528,1,0,0:0:0:0:
256,192,175619,1,8,0:0:0:0:
256,192,175801,1,0,0:0:0:0:
256,192,175983,1,4,0:0:0:0:
256,192,176347,1,8,0:0:0:0:
256,192,176528,1,8,0:0:0:0:
256,192,176710,1,0,0:0:0:0:
256,192,176801,1,0,0:0:0:0:
256,192,176892,1,0,0:0:0:0:
256,192,177074,1,8,0:0:0:0:
256,192,177256,1,0,0:0:0:0:
256,192,177347,1,8,0:0:0:0:
256,192,177438,1,0,0:0:0:0:
256,192,177619,1,0,0:0:0:0:
256,192,177801,1,8,0:0:0:0:
256,192,178074,1,8,0:0:0:0:
256,192,178165,1,0,0:0:0:0:
256,192,178347,1,0,0:0:0:0:
256,192,178528,1,8,0:0:0:0:
256,192,178619,1,8,0:0:0:0:
256,192,178710,1,0,0:0:0:0:
256,192,178801,1,8,0:0:0:0:
256,192,178892,1,0,0:0:0:0:
256,192,179074,1,0,0:0:0:0:
256,192,179256,1,8,0:0:0:0:
256,192,179438,1,0,0:0:0:0:
256,192,179528,1,8,0:0:0:0:
256,192,179619,1,0,0:0:0:0:
256,192,179801,1,0,0:0:0:0:
256,192,179892,1,0,0:0:0:0:
256,192,179983,1,8,0:0:0:0:
256,192,180165,1,8,0:0:0:0:
256,192,180347,8,0,181619,0:0:0:0:
256,192,181801,5,4,0:0:0:0:
256,192,182165,1,8,0:0:0:0:
256,192,182347,1,0,0:0:0:0:
256,192,182438,1,8,0:0:0:0:
256,192,182528,1,0,0:0:0:0:
256,192,182619,1,8,0:0:0:0:
256,192,182710,1,0,0:0:0:0:
256,192,182892,1,8,0:0:0:0:
256,192,183256,1,0,0:0:0:0:
256,192,183347,1,0,0:0:0:0:
256,192,183438,1,8,0:0:0:0:
256,192,183528,1,0,0:0:0:0:
256,192,183619,1,8,0:0:0:0:
256,192,183710,1,8,0:0:0:0:
256,192,183801,1,0,0:0:0:0:
256,192,183892,1,8,0:0:0:0:
256,192,183983,1,8,0:0:0:0:
256,192,184074,1,8,0:0:0:0:
256,192,184165,1,0,0:0:0:0:
256,192,184256,1,0,0:0:0:0:
256,192,184347,1,8,0:0:0:0:
256,192,184438,1,0,0:0:0:0:
256,192,184528,1,8,0:0:0:0:
256,192,184619,1,8,0:0:0:0:
256,192,184710,1,0,0:0:0:0:
256,192,184801,1,0,0:0:0:0:
256,192,184892,1,0,0:0:0:0:
256,192,184983,1,0,0:0:0:0:
256,192,185074,1,8,0:0:0:0:
256,192,185165,1,8,0:0:0:0:
256,192,185256,1,8,0:0:0:0:
256,192,185347,1,8,0:0:0:0:
256,192,185438,1,0,0:0:0:0:
256,192,185528,1,8,0:0:0:0:
256,192,185619,1,0,0:0:0:0:
256,192,185710,1,0,0:0:0:0:
256,192,185801,1,8,0:0:0:0:
256,192,185892,1,8,0:0:0:0:
256,192,185983,1,0,0:0:0:0:
256,192,186074,1,8,0:0:0:0:
256,192,186165,1,0,0:0:0:0:
256,192,186256,1,0,0:0:0:0:
256,192,186347,1,8,0:0:0:0:
256,192,186438,1,0,0:0:0:0:
256,192,186528,1,8,0:0:0:0:
256,192,186619,1,8,0:0:0:0:
256,192,186710,1,0,0:0:0:0:
256,192,186801,1,0,0:0:0:0:
256,192,186892,1,8,0:0:0:0:
256,192,186983,1,8,0:0:0:0:
256,192,187074,1,0,0:0:0:0:
256,192,187165,1,0,0:0:0:0:
256,192,187256,1,8,0:0:0:0:
256,192,187347,1,8,0:0:0:0:
256,192,187438,1,8,0:0:0:0:
256,192,187528,1,8,0:0:0:0:
256,192,187619,1,0,0:0:0:0:
256,192,187801,1,8,0:0:0:0:
256,192,187983,1,0,0:0:0:0:
256,192,188165,1,8,0:0:0:0:
256,192,188347,1,0,0:0:0:0:
256,192,188528,1,8,0:0:0:0:
256,192,188710,1,0,0:0:0:0:
256,192,189074,1,0,0:0:0:0:
256,192,189165,1,8,0:0:0:0:
256,192,189256,1,0,0:0:0:0:
256,192,189347,1,0,0:0:0:0:
256,192,189438,1,8,0:0:0:0:
256,192,189528,1,8,0:0:0:0:
256,192,189619,1,0,0:0:0:0:
256,192,189710,1,8,0:0:0:0:
256,192,189801,1,8,0:0:0:0:
256,192,189892,1,8,0:0:0:0:
256,192,189983,1,0,0:0:0:0:
256,192,190074,1,0,0:0:0:0:
256,192,190165,1,8,0:0:0:0:
256,192,190256,1,8,0:0:0:0:
256,192,190347,1,8,0:0:0:0:
256,192,190438,1,8,0:0:0:0:
256,192,190528,1,0,0:0:0:0:
256,192,190619,1,0,0:0:0:0:
256,192,190710,1,0,0:0:0:0:
256,192,190801,1,0,0:0:0:0:
256,192,190892,1,8,0:0:0:0:
256,192,190983,1,8,0:0:0:0:
256,192,191074,1,8,0:0:0:0:
256,192,191165,1,0,0:0:0:0:
256,192,191256,1,8,0:0:0:0:
256,192,191347,1,8,0:0:0:0:
256,192,191438,1,0,0:0:0:0:
256,192,191528,1,0,0:0:0:0:
256,192,191619,1,8,0:0:0:0:
256,192,191801,1,0,0:0:0:0:
256,192,191983,1,12,0:0:0:0:
256,192,192165,1,0,0:0:0:0:
256,192,192347,1,12,0:0:0:0:
256,192,192528,1,0,0:0:0:0:
256,192,192710,1,8,0:0:0:0:
256,192,192801,1,8,0:0:0:0:
256,192,192892,1,0,0:0:0:0:
256,192,192983,1,0,0:0:0:0:
256,192,193074,1,8,0:0:0:0:
256,192,193256,1,8,0:0:0:0:
256,192,193438,1,0,0:0:0:0:
256,192,193528,1,0,0:0:0:0:
256,192,193619,1,8,0:0:0:0:
256,192,193710,1,0,0:0:0:0:
256,192,193801,1,8,0:0:0:0:
256,192,193892,1,8,0:0:0:0:
256,192,193983,1,0,0:0:0:0:
256,192,194074,1,8,0:0:0:0:
256,192,194165,1,0,0:0:0:0:
256,192,194256,1,8,0:0:0:0:
256,192,194347,1,0,0:0:0:0:
256,192,194438,1,0,0:0:0:0:
256,192,194528,1,8,0:0:0:0:
256,192,194619,1,8,0:0:0:0:
256,192,194710,1,8,0:0:0:0:
256,192,194801,1,8,0:0:0:0:
256,192,194892,1,0,0:0:0:0:
256,192,194983,1,0,0:0:0:0:
256,192,195074,1,8,0:0:0:0:
256,192,195165,1,0,0:0:0:0:
256,192,195256,1,8,0:0:0:0:
256,192,195347,1,8,0:0:0:0:
256,192,195438,1,0,0:0:0:0:
256,192,195528,1,0,0:0:0:0:
256,192,195619,1,8,0:0:0:0:
256,192,195710,1,8,0:0:0:0:
256,192,195801,1,0,0:0:0:0:
256,192,195892,1,0,0:0:0:0:
256,192,195983,1,8,0:0:0:0:
256,192,196165,1,8,0:0:0:0:
256,192,196347,1,0,0:0:0:0:
256,192,196438,1,8,0:0:0:0:
256,192,196528,1,0,0:0:0:0:
256,192,196619,1,0,0:0:0:0:
256,192,196710,1,8,0:0:0:0:
256,192,196801,1,0,0:0:0:0:
256,192,196892,1,0,0:0:0:0:
256,192,196983,1,0,0:0:0:0:
256,192,197074,1,8,0:0:0:0:
256,192,197165,1,8,0:0:0:0:
256,192,197256,1,0,0:0:0:0:
256,192,197347,1,0,0:0:0:0:
256,192,197438,1,8,0:0:0:0:
256,192,197528,1,8,0:0:0:0:
256,192,197619,1,8,0:0:0:0:
256,192,197710,1,8,0:0:0:0:
256,192,197801,1,0,0:0:0:0:
256,192,197892,1,0,0:0:0:0:
256,192,197983,1,8,0:0:0:0:
256,192,198074,1,8,0:0:0:0:
256,192,198165,1,8,0:0:0:0:
256,192,198256,1,0,0:0:0:0:
256,192,198347,1,8,0:0:0:0:
256,192,198438,1,8,0:0:0:0:
256,192,198528,1,0,0:0:0:0:
256,192,198619,1,8,0:0:0:0:
256,192,198710,1,0,0:0:0:0:
256,192,198801,1,0,0:0:0:0:
256,192,198892,1,8,0:0:0:0:
256,192,199074,1,8,0:0:0:0:
256,192,199256,1,0,0:0:0:0:
256,192,199347,1,0,0:0:0:0:
256,192,199438,1,0,0:0:0:0:
256,192,199528,1,0,0:0:0:0:
256,192,199619,1,8,0:0:0:0:
256,192,199710,1,8,0:0:0:0:
256,192,199801,1,0,0:0:0:0:
256,192,199892,1,8,0:0:0:0:
256,192,199983,1,0,0:0:0:0:
256,192,200074,1,8,0:0:0:0:
256,192,200165,1,0,0:0:0:0:
256,192,200256,1,0,0:0:0:0:
256,192,200347,1,8,0:0:0:0:
256,192,200438,1,0,0:0:0:0:
256,192,200528,1,8,0:0:0:0:
256,192,200619,1,8,0:0:0:0:
256,192,200710,1,0,0:0:0:0:
256,192,200892,1,0,0:0:0:0:
256,192,200983,1,0,0:0:0:0:
256,192,201074,1,8,0:0:0:0:
256,192,201256,1,8,0:0:0:0:
256,192,201438,1,0,0:0:0:0:
256,192,201528,1,8,0:0:0:0:
256,192,201619,1,0,0:0:0:0:
256,192,201710,1,0,0:0:0:0:
256,192,201801,1,8,0:0:0:0:
256,192,201983,1,8,0:0:0:0:
256,192,202165,1,0,0:0:0:0:
256,192,202256,1,0,0:0:0:0:
256,192,202347,1,8,0:0:0:0:
256,192,202438,1,0,0:0:0:0:
256,192,202528,1,8,0:0:0:0:
256,192,202619,1,8,0:0:0:0:
256,192,202710,1,0,0:0:0:0:
256,192,202801,1,8,0:0:0:0:
256,192,202892,1,8,0:0:0:0:
256,192,202983,1,8,0:0:0:0:
256,192,203074,1,0,0:0:0:0:
256,192,203165,1,0,0:0:0:0:
256,192,203256,1,8,0:0:0:0:
256,192,203347,1,0,0:0:0:0:
256,192,203438,1,0,0:0:0:0:
256,192,203528,1,0,0:0:0:0:
256,192,203619,1,8,0:0:0:0:
256,192,203801,1,0,0:0:0:0:
256,192,203983,1,8,0:0:0:0:
256,192,204165,1,0,0:0:0:0:
256,192,204347,1,12,0:0:0:0:
256,192,204528,1,0,0:0:0:0:
256,192,204710,1,12,0:0:0:0:
256,192,205074,1,4,0:0:0:0:
256,192,210892,5,4,0:0:0:0:
256,192,211256,1,8,0:0:0:0:
256,192,211619,1,0,0:0:0:0:
256,192,211983,1,8,0:0:0:0:
256,192,212165,1,8,0:0:0:0:
256,192,212347,1,0,0:0:0:0:
256,192,212710,1,8,0:0:0:0:
256,192,213438,1,8,0:0:0:0:
256,192,213801,1,0,0:0:0:0:
256,192,214165,1,8,0:0:0:0:
256,192,214528,1,0,0:0:0:0:
256,192,214710,1,0,0:0:0:0:
256,192,214892,1,8,0:0:0:0:
256,192,215074,1,8,0:0:0:0:
256,192,215256,1,0,0:0:0:0:
256,192,215619,1,8,0:0:0:0:
256,192,216347,1,8,0:0:0:0:
256,192,216710,1,4,0:0:0:0:
256,192,217074,1,8,0:0:0:0:
256,192,217256,1,8,0:0:0:0:
256,192,217438,1,0,0:0:0:0:
256,192,217801,1,8,0:0:0:0:
256,192,218165,1,0,0:0:0:0:
256,192,218347,1,0,0:0:0:0:
256,192,218528,1,8,0:0:0:0:
256,192,218710,1,0,0:0:0:0:
256,192,218892,1,0,0:0:0:0:
256,192,219256,1,8,0:0:0:0:
256,192,219619,1,0,0:0:0:0:
256,192,219983,1,8,0:0:0:0:
256,192,220710,1,8,0:0:0:0:
256,192,221074,1,0,0:0:0:0:
256,192,221438,1,0,0:0:0:0:
256,192,221801,1,0,0:0:0:0:
256,192,222165,1,0,0:0:0:0:
256,192,222528,1,4,0:0:0:0:
256,192,222710,1,8,0:0:0:0:
256,192,222892,1,0,0:0:0:0:
256,192,222983,1,0,0:0:0:0:
256,192,223074,1,8,0:0:0:0:
256,192,223256,1,0,0:0:0:0:
256,192,223438,1,8,0:0:0:0:
256,192,223528,1,8,0:0:0:0:
256,192,223619,1,0,0:0:0:0:
256,192,223801,1,0,0:0:0:0:
256,192,223983,1,8,0:0:0:0:
256,192,224347,1,0,0:0:0:0:
256,192,224528,1,8,0:0:0:0:
256,192,224710,1,0,0:0:0:0:
256,192,224801,1,8,0:0:0:0:
256,192,224983,1,8,0:0:0:0:
256,192,225074,1,0,0:0:0:0:
256,192,225256,1,8,0:0:0:0:
256,192,225438,1,0,0:0:0:0:
256,192,225528,1,0,0:0:0:0:
256,192,225619,1,8,0:0:0:0:
256,192,225710,1,8,0:0:0:0:
256,192,225801,1,0,0:0:0:0:
256,192,225983,1,8,0:0:0:0:
256,192,226165,1,0,0:0:0:0:
256,192,226347,1,8,0:0:0:0:
256,192,226438,1,8,0:0:0:0:
256,192,226528,1,0,0:0:0:0:
256,192,226710,1,8,0:0:0:0:
256,192,226892,1,4,0:0:0:0:
256,192,229801,8,0,231801,0:0:0:0:
256,192,231983,5,8,0:0:0:0:
256,192,232074,1,8,0:0:0:0:
256,192,232165,1,8,0:0:0:0:
256,192,232256,1,8,0:0:0:0:
256,192,232347,1,0,0:0:0:0:
256,192,232710,1,4,0:0:0:0:
256,192,233074,1,0,0:0:0:0:
256,192,233438,1,0,0:0:0:0:
256,192,233801,1,0,0:0:0:0:
256,192,233983,1,8,0:0:0:0:
256,192,234165,1,0,0:0:0:0:
256,192,234528,1,0,0:0:0:0:
256,192,234892,1,0,0:0:0:0:
256,192,235256,1,0,0:0:0:0:
256,192,235438,1,8,0:0:0:0:
256,192,235619,1,0,0:0:0:0:
256,192,235983,1,0,0:0:0:0:
256,192,236165,1,8,0:0:0:0:
256,192,236347,1,0,0:0:0:0:
256,192,236528,1,8,0:0:0:0:
256,192,236619,1,8,0:0:0:0:
256,192,236710,1,0,0:0:0:0:
256,192,236892,1,8,0:0:0:0:
256,192,237074,1,0,0:0:0:0:
256,192,237438,1,0,0:0:0:0:
256,192,237801,1,0,0:0:0:0:
256,192,237983,1,0,0:0:0:0:
256,192,238074,1,8,0:0:0:0:
256,192,238165,1,0,0:0:0:0:
256,192,238347,1,8,0:0:0:0:
256,192,238528,1,4,0:0:0:0:
256,192,238892,1,0,0:0:0:0:
256,192,239074,1,8,0:0:0:0:
256,192,239256,1,0,0:0:0:0:
256,192,239347,1,0,0:0:0:0:
256,192,239438,1,8,0:0:0:0:
256,192,239619,1,0,0:0:0:0:
256,192,239801,1,8,0:0:0:0:
256,192,239892,1,8,0:0:0:0:
256,192,239983,1,0,0:0:0:0:
256,192,240347,1,0,0:0:0:0:
256,192,240528,1,8,0:0:0:0:
256,192,240710,1,0,0:0:0:0:
256,192,241074,1,0,0:0:0:0:
256,192,241438,1,0,0:0:0:0:
256,192,241619,1,8,0:0:0:0:
256,192,241801,1,0,0:0:0:0:
256,192,241983,1,0,0:0:0:0:
256,192,242074,1,8,0:0:0:0:
256,192,242165,1,0,0:0:0:0:
256,192,242528,1,0,0:0:0:0:
256,192,242892,1,0,0:0:0:0:
256,192,243074,1,8,0:0:0:0:
256,192,243165,1,8,0:0:0:0:
256,192,243256,1,0,0:0:0:0:
256,192,243438,1,8,0:0:0:0:
256,192,243619,1,0,0:0:0:0:
256,192,243983,1,0,0:0:0:0:
256,192,244347,1,0,0:0:0:0:
256,192,244528,1,8,0:0:0:0:
256,192,244710,1,0,0:0:0:0:
256,192,244801,1,0,0:0:0:0:
256,192,244892,1,8,0:0:0:0:
256,192,245074,1,0,0:0:0:0:
256,192,245256,1,8,0:0:0:0:
256,192,245347,1,8,0:0:0:0:
256,192,245438,1,0,0:0:0:0:
256,192,245619,1,8,0:0:0:0:
256,192,245710,1,8,0:0:0:0:
256,192,245801,1,0,0:0:0:0:
256,192,245892,1,0,0:0:0:0:
256,192,245983,1,8,0:0:0:0:
256,192,246165,1,0,0:0:0:0:
256,192,246347,1,8,0:0:0:0:
256,192,246528,1,0,0:0:0:0:
256,192,246619,1,0,0:0:0:0:
256,192,246710,1,8,0:0:0:0:
256,192,246801,1,8,0:0:0:0:
256,192,246892,1,0,0:0:0:0:
256,192,247074,1,8,0:0:0:0:
256,192,247256,1,0,0:0:0:0:
256,192,247347,1,8,0:0:0:0:
256,192,247438,1,8,0:0:0:0:
256,192,247528,1,8,0:0:0:0:
256,192,247619,1,0,0:0:0:0:
256,192,247710,1,8,0:0:0:0:
256,192,247801,1,8,0:0:0:0:
256,192,247892,1,8,0:0:0:0:
256,192,247983,1,0,0:0:0:0:
256,192,248074,1,0,0:0:0:0:
256,192,248165,1,8,0:0:0:0:
256,192,248256,1,8,0:0:0:0:
256,192,248347,1,0,0:0:0:0:
256,192,248438,1,0,0:0:0:0:
256,192,248528,1,8,0:0:0:0:
256,192,248619,1,8,0:0:0:0:
256,192,248710,1,0,0:0:0:0:
256,192,249438,1,8,0:0:0:0:
256,192,249498,1,8,0:0:0:0:
256,192,249559,1,8,0:0:0:0:
256,192,249619,1,0,0:0:0:0:
256,192,249710,1,0,0:0:0:0:
256,192,249801,1,8,0:0:0:0:
256,192,249983,1,8,0:0:0:0:
256,192,250165,1,4,0:0:0:0:
256,192,250347,1,8,0:0:0:0:
256,192,250438,1,8,0:0:0:0:
256,192,250528,1,0,0:0:0:0:
256,192,250710,1,8,0:0:0:0:
256,192,250801,1,0,0:0:0:0:
256,192,250892,1,8,0:0:0:0:
256,192,251074,1,8,0:0:0:0:
256,192,251256,1,0,0:0:0:0:
256,192,251347,1,8,0:0:0:0:
256,192,251438,1,0,0:0:0:0:
256,192,251528,1,0,0:0:0:0:
256,192,251619,1,8,0:0:0:0:
256,192,251801,1,8,0:0:0:0:
256,192,251983,1,0,0:0:0:0:
256,192,252165,1,8,0:0:0:0:
256,192,252225,1,8,0:0:0:0:
256,192,252286,1,8,0:0:0:0:
256,192,252347,1,0,0:0:0:0:
256,192,252528,1,8,0:0:0:0:
256,192,252710,1,0,0:0:0:0:
256,192,252801,1,0,0:0:0:0:
256,192,252892,1,8,0:0:0:0:
256,192,252983,1,0,0:0:0:0:
256,192,253074,1,8,0:0:0:0:
256,192,253256,1,8,0:0:0:0:
256,192,253347,1,8,0:0:0:0:
256,192,253438,1,0,0:0:0:0:
256,192,253619,1,0,0:0:0:0:
256,192,253801,1,8,0:0:0:0:
256,192,253983,1,0,0:0:0:0:
256,192,254074,1,0,0:0:0:0:
256,192,254165,1,8,0:0:0:0:
256,192,254256,1,8,0:0:0:0:
256,192,254438,1,0,0:0:0:0:
256,192,254528,1,8,0:0:0:0:
256,192,254619,1,8,0:0:0:0:
256,192,254801,1,0,0:0:0:0:
256,192,254892,1,8,0:0:0:0:
256,192,255074,1,0,0:0:0:0:
256,192,255134,1,0,0:0:0:0:
256,192,255195,1,0,0:0:0:0:
256,192,255256,1,8,0:0:0:0:
256,192,255438,1,0,0:0:0:0:
256,192,255528,1,0,0:0:0:0:
256,192,255619,1,8,0:0:0:0:
256,192,255801,1,8,0:0:0:0:
256,192,255983,1,4,0:0:0:0:
256,192,256256,1,8,0:0:0:0:
256,192,256347,1,0,0:0:0:0:
256,192,256528,1,8,0:0:0:0:
256,192,256710,1,0,0:0:0:0:
256,192,256801,1,8,0:0:0:0:
256,192,256983,1,8,0:0:0:0:
256,192,257074,1,0,0:0:0:0:
256,192,257256,1,8,0:0:0:0:
256,192,257438,1,0,0:0:0:0:
256,192,257528,1,8,0:0:0:0:
256,192,257619,1,8,0:0:0:0:
256,192,257710,1,8,0:0:0:0:
256,192,257801,1,0,0:0:0:0:
256,192,257983,1,8,0:0:0:0:
256,192,258074,1,8,0:0:0:0:
256,192,258165,1,0,0:0:0:0:
256,192,258347,1,8,0:0:0:0:
256,192,258528,1,0,0:0:0:0:
256,192,258619,1,0,0:0:0:0:
256,192,258710,1,8,0:0:0:0:
256,192,258801,1,8,0:0:0:0:
256,192,258892,1,0,0:0:0:0:
256,192,259256,1,12,0:0:0:0:
256,192,259619,1,0,0:0:0:0:
256,192,259983,1,12,0:0:0:0:
256,192,260347,1,12,0:0:0:0:
256,192,260710,1,0,0:0:0:0:
256,192,260892,1,8,0:0:0:0:
256,192,261074,1,0,0:0:0:0:
256,192,261134,1,8,0:0:0:0:
256,192,261195,1,8,0:0:0:0:
256,192,261256,1,0,0:0:0:0:
256,192,261347,1,0,0:0:0:0:
256,192,261438,1,8,0:0:0:0:
256,192,261619,1,8,0:0:0:0:
256,192,261801,1,4,0:0:0:0:
256,192,261983,1,8,0:0:0:0:
256,192,262074,1,8,0:0:0:0:
256,192,262165,1,0,0:0:0:0:
256,192,262256,1,0,0:0:0:0:
256,192,262347,1,8,0:0:0:0:
256,192,262438,1,0,0:0:0:0:
256,192,262528,1,8,0:0:0:0:
256,192,262710,1,0,0:0:0:0:
256,192,262801,1,0,0:0:0:0:
256,192,262892,1,8,0:0:0:0:
256,192,263074,1,8,0:0:0:0:
256,192,263256,1,0,0:0:0:0:
256,192,263438,1,8,0:0:0:0:
256,192,263528,1,8,0:0:0:0:
256,192,263619,1,0,0:0:0:0:
256,192,263801,1,8,0:0:0:0:
256,192,263862,1,8,0:0:0:0:
256,192,263922,1,8,0:0:0:0:
256,192,263983,1,0,0:0:0:0:
256,192,264165,1,8,0:0:0:0:
256,192,264347,1,0,0:0:0:0:
256,192,264438,1,0,0:0:0:0:
256,192,264528,1,8,0:0:0:0:
256,192,264619,1,0,0:0:0:0:
256,192,264710,1,8,0:0:0:0:
256,192,264892,1,8,0:0:0:0:
256,192,265074,1,0,0:0:0:0:
256,192,265165,1,8,0:0:0:0:
256,192,265256,1,0,0:0:0:0:
256,192,265347,1,0,0:0:0:0:
256,192,265438,1,8,0:0:0:0:
256,192,265619,1,8,0:0:0:0:
256,192,265710,1,8,0:0:0:0:
256,192,265801,1,0,0:0:0:0:
256,192,265892,1,0,0:0:0:0:
256,192,265983,1,8,0:0:0:0:
256,192,266074,1,0,0:0:0:0:
256,192,266165,1,8,0:0:0:0:
256,192,266347,1,8,0:0:0:0:
256,192,266528,1,0,0:0:0:0:
256,192,266710,1,8,0:0:0:0:
256,192,266771,1,8,0:0:0:0:
256,192,266831,1,8,0:0:0:0:
256,192,266892,1,0,0:0:0:0:
256,192,266983,1,8,0:0:0:0:
256,192,267165,1,0,0:0:0:0:
256,192,267256,1,8,0:0:0:0:
256,192,267438,1,8,0:0:0:0:
256,192,267619,1,4,0:0:0:0:
256,192,267892,1,8,0:0:0:0:
256,192,267983,1,0,0:0:0:0:
256,192,268165,1,8,0:0:0:0:
256,192,268347,1,0,0:0:0:0:
256,192,268438,1,0,0:0:0:0:
256,192,268528,1,0,0:0:0:0:
256,192,268710,1,8,0:0:0:0:
256,192,268892,1,0,0:0:0:0:
256,192,268983,1,0,0:0:0:0:
256,192,269074,1,8,0:0:0:0:
256,192,269256,1,8,0:0:0:0:
256,192,269438,1,0,0:0:0:0:
256,192,269619,1,8,0:0:0:0:
256,192,269710,1,8,0:0:0:0:
256,192,269801,1,0,0:0:0:0:
256,192,269892,1,0,0:0:0:0:
256,192,269983,1,8,0:0:0:0:
256,192,270074,1,8,0:0:0:0:
256,192,270165,1,0,0:0:0:0:
256,192,270347,1,8,0:0:0:0:
256,192,270528,1,0,0:0:0:0:
256,192,270619,1,8,0:0:0:0:
256,192,270801,1,8,0:0:0:0:
256,192,270892,1,0,0:0:0:0:
256,192,271074,1,8,0:0:0:0:
256,192,271256,1,0,0:0:0:0:
256,192,271347,1,0,0:0:0:0:
256,192,271438,1,0,0:0:0:0:
256,192,271528,1,8,0:0:0:0:
256,192,271619,1,8,0:0:0:0:
256,192,271710,1,8,0:0:0:0:
256,192,271801,1,0,0:0:0:0:
256,192,271892,1,0,0:0:0:0:
256,192,271983,1,8,0:0:0:0:
256,192,272165,1,8,0:0:0:0:
256,192,272347,1,0,0:0:0:0:
256,192,272528,1,8,0:0:0:0:
256,192,272619,1,0,0:0:0:0:
256,192,272710,1,8,0:0:0:0:
256,192,272892,1,0,0:0:0:0:
256,192,272983,1,0,0:0:0:0:
256,192,273074,1,8,0:0:0:0:
256,192,273165,1,8,0:0:0:0:
256,192,273256,1,0,0:0:0:0:
256,192,273347,1,8,0:0:0:0:
256,192,273438,1,0,0:0:0:0:
256,192,273619,1,0,0:0:0:0:
256,192,273801,1,8,0:0:0:0:
256,192,273892,1,8,0:0:0:0:
256,192,273983,1,0,0:0:0:0:
256,192,274074,1,0,0:0:0:0:
256,192,274165,1,8,0:0:0:0:
256,192,274256,1,8,0:0:0:0:
256,192,274347,1,8,0:0:0:0:
256,192,274438,1,8,0:0:0:0:
256,192,274528,1,0,0:0:0:0:
256,192,274710,1,8,0:0:0:0:
256,192,274892,1,4,0:0:0:0:
256,192,275619,1,8,0:0:0:0:
256,192,275680,1,8,0:0:0:0:
256,192,275741,1,8,0:0:0:0:
256,192,275801,1,0,0:0:0:0:
256,192,275892,1,0,0:0:0:0:
256,192,275983,1,8,0:0:0:0:
256,192,276165,1,8,0:0:0:0:
256,192,276347,1,4,0:0:0:0:
256,192,276528,8,0,279074,0:0:0:0:
256,192,279256,8,0,280528,0:0:0:0:
256,192,280710,8,0,282165,0:0:0:0:
256,192,283619,8,0,287801,0:0:0:0:
256,192,287983,5,0,0:0:0:0:
256,192,288074,1,0,0:0:0:0:
256,192,288165,1,0,0:0:0:0:
256,192,288256,1,0,0:0:0:0:
256,192,288347,1,8,0:0:0:0:
256,192,288438,1,8,0:0:0:0:
256,192,288528,1,0,0:0:0:0:
256,192,288619,1,8,0:0:0:0:
256,192,288710,1,0,0:0:0:0:
256,192,288771,1,0,0:0:0:0:
256,192,288831,1,0,0:0:0:0:
256,192,288892,1,8,0:0:0:0:
256,192,288983,1,8,0:0:0:0:
256,192,289074,1,0,0:0:0:0:
256,192,289256,1,8,0:0:0:0:
256,192,289438,1,4,0:0:0:0:
256,192,289619,1,8,0:0:0:0:
256,192,289710,1,8,0:0:0:0:
256,192,289801,1,0,0:0:0:0:
256,192,289892,1,0,0:0:0:0:
256,192,289983,1,8,0:0:0:0:
256,192,290074,1,0,0:0:0:0:
256,192,290165,1,8,0:0:0:0:
256,192,290347,1,0,0:0:0:0:
256,192,290438,1,0,0:0:0:0:
256,192,290528,1,8,0:0:0:0:
256,192,290710,1,8,0:0:0:0:
256,192,290801,1,8,0:0:0:0:
256,192,290892,1,0,0:0:0:0:
256,192,291074,1,8,0:0:0:0:
256,192,291256,1,0,0:0:0:0:
256,192,291438,1,8,0:0:0:0:
256,192,291528,1,0,0:0:0:0:
256,192,291619,1,8,0:0:0:0:
256,192,291710,1,8,0:0:0:0:
256,192,291801,1,0,0:0:0:0:
256,192,291892,1,0,0:0:0:0:
256,192,291983,1,8,0:0:0:0:
256,192,292165,1,0,0:0:0:0:
256,192,292347,1,8,0:0:0:0:
256,192,292438,1,0,0:0:0:0:
256,192,292528,1,0,0:0:0:0:
256,192,292619,1,0,0:0:0:0:
256,192,292710,1,8,0:0:0:0:
256,192,292801,1,8,0:0:0:0:
256,192,292892,1,0,0:0:0:0:
256,192,292983,1,0,0:0:0:0:
256,192,293074,1,8,0:0:0:0:
256,192,293165,1,8,0:0:0:0:
256,192,293256,1,8,0:0:0:0:
256,192,293347,1,0,0:0:0:0:
256,192,293438,1,8,0:0:0:0:
256,192,293528,1,8,0:0:0:0:
256,192,293619,1,8,0:0:0:0:
256,192,293710,1,8,0:0:0:0:
256,192,293801,1,0,0:0:0:0:
256,192,293983,1,0,0:0:0:0:
256,192,294165,1,8,0:0:0:0:
256,192,294347,1,0,0:0:0:0:
256,192,294438,1,0,0:0:0:0:
256,192,294528,1,8,0:0:0:0:
256,192,294619,1,8,0:0:0:0:
256,192,294710,1,0,0:0:0:0:
256,192,294801,1,8,0:0:0:0:
256,192,294892,1,0,0:0:0:0:
256,192,295074,1,8,0:0:0:0:
256,192,295256,1,4,0:0:0:0:
256,192,295438,1,0,0:0:0:0:
256,192,295528,1,0,0:0:0:0:
256,192,295619,1,8,0:0:0:0:
256,192,295801,1,0,0:0:0:0:
256,192,295892,1,0,0:0:0:0:
256,192,295983,1,8,0:0:0:0:
256,192,296074,1,8,0:0:0:0:
256,192,296256,1,0,0:0:0:0:
256,192,296347,1,8,0:0:0:0:
256,192,296528,1,0,0:0:0:0:
256,192,296710,1,8,0:0:0:0:
256,192,296801,1,8,0:0:0:0:
256,192,296892,1,0,0:0:0:0:
256,192,296983,1,0,0:0:0:0:
256,192,297074,1,8,0:0:0:0:
256,192,297165,1,0,0:0:0:0:
256,192,297256,1,8,0:0:0:0:
256,192,297347,1,8,0:0:0:0:
256,192,297438,1,0,0:0:0:0:
256,192,297619,1,0,0:0:0:0:
256,192,297710,1,0,0:0:0:0:
256,192,297801,1,8,0:0:0:0:
256,192,297983,1,8,0:0:0:0:
256,192,298165,1,0,0:0:0:0:
256,192,298256,1,0,0:0:0:0:
256,192,298347,1,8,0:0:0:0:
256,192,298438,1,0,0:0:0:0:
256,192,298528,1,8,0:0:0:0:
256,192,298710,1,8,0:0:0:0:
256,192,298892,1,0,0:0:0:0:
256,192,298983,1,0,0:0:0:0:
256,192,299074,1,8,0:0:0:0:
256,192,299165,1,8,0:0:0:0:
256,192,299256,1,0,0:0:0:0:
256,192,299347,1,8,0:0:0:0:
256,192,299438,1,0,0:0:0:0:
256,192,299528,1,0,0:0:0:0:
256,192,299619,1,8,0:0:0:0:
256,192,299801,1,8,0:0:0:0:
256,192,299892,1,8,0:0:0:0:
256,192,299983,1,0,0:0:0:0:
256,192,300165,1,0,0:0:0:0:
256,192,300347,1,8,0:0:0:0:
256,192,300407,1,8,0:0:0:0:
256,192,300468,1,8,0:0:0:0:
256,192,300528,1,0,0:0:0:0:
256,192,300619,1,0,0:0:0:0:
256,192,300710,1,8,0:0:0:0:
256,192,300892,1,8,0:0:0:0:
256,192,301074,1,4,0:0:0:0:
256,192,301256,1,8,0:0:0:0:
256,192,301347,1,8,0:0:0:0:
256,192,301438,1,0,0:0:0:0:
256,192,301619,1,8,0:0:0:0:
256,192,301801,1,0,0:0:0:0:
256,192,301892,1,0,0:0:0:0:
256,192,302074,1,0,0:0:0:0:
256,192,302165,1,8,0:0:0:0:
256,192,302347,1,0,0:0:0:0:
256,192,302438,1,0,0:0:0:0:
256,192,302528,1,8,0:0:0:0:
256,192,302619,1,0,0:0:0:0:
256,192,302801,1,0,0:0:0:0:
256,192,302892,1,8,0:0:0:0:
256,192,303074,1,0,0:0:0:0:
256,192,303165,1,0,0:0:0:0:
256,192,303256,1,8,0:0:0:0:
256,192,303347,1,8,0:0:0:0:
256,192,303528,1,0,0:0:0:0:
256,192,303619,1,8,0:0:0:0:
256,192,303801,1,0,0:0:0:0:
256,192,303983,1,8,0:0:0:0:
256,192,304074,1,0,0:0:0:0:
256,192,304165,1,0,0:0:0:0:
256,192,304256,1,8,0:0:0:0:
256,192,304347,1,0,0:0:0:0:
256,192,304438,1,0,0:0:0:0:
256,192,304528,1,8,0:0:0:0:
256,192,304710,1,0,0:0:0:0:
256,192,304801,1,8,0:0:0:0:
256,192,304892,1,8,0:0:0:0:
256,192,304983,1,0,0:0:0:0:
256,192,305074,1,8,0:0:0:0:
256,192,305165,1,8,0:0:0:0:
256,192,305256,1,0,0:0:0:0:
256,192,305438,1,8,0:0:0:0:
256,192,305528,1,0,0:0:0:0:
256,192,305619,1,0,0:0:0:0:
256,192,305710,1,8,0:0:0:0:
256,192,305801,1,8,0:0:0:0:
256,192,305892,1,8,0:0:0:0:
256,192,305983,1,0,0:0:0:0:
256,192,306074,1,0,0:0:0:0:
256,192,306165,1,8,0:0:0:0:
256,192,306256,1,8,0:0:0:0:
256,192,306347,1,8,0:0:0:0:
256,192,306438,1,8,0:0:0:0:
256,192,306528,1,0,0:0:0:0:
256,192,306710,1,8,0:0:0:0:
256,192,306892,1,4,0:0:0:0:
256,192,307074,1,8,0:0:0:0:
256,192,307165,1,8,0:0:0:0:
256,192,307256,1,0,0:0:0:0:
256,192,307438,1,0,0:0:0:0:
256,192,307619,1,8,0:0:0:0:
256,192,307710,1,8,0:0:0:0:
256,192,307892,1,8,0:0:0:0:
256,192,307983,1,0,0:0:0:0:
256,192,308165,1,8,0:0:0:0:
256,192,308256,1,8,0:0:0:0:
256,192,308347,1,0,0:0:0:0:
256,192,308438,1,8,0:0:0:0:
256,192,308619,1,8,0:0:0:0:
256,192,308710,1,0,0:0:0:0:
256,192,308892,1,8,0:0:0:0:
256,192,308983,1,8,0:0:0:0:
256,192,309074,1,0,0:0:0:0:
256,192,309165,1,0,0:0:0:0:
256,192,309347,1,8,0:0:0:0:
256,192,309438,1,0,0:0:0:0:
256,192,309619,1,8,0:0:0:0:
256,192,309801,1,0,0:0:0:0:
256,192,309892,1,8,0:0:0:0:
256,192,309983,1,8,0:0:0:0:
256,192,310074,1,0,0:0:0:0:
256,192,310165,1,8,0:0:0:0:
256,192,310256,1,8,0:0:0:0:
256,192,310347,1,0,0:0:0:0:
256,192,310528,1,8,0:0:0:0:
256,192,310619,1,0,0:0:0:0:
256,192,310710,1,0,0:0:0:0:
256,192,310801,1,8,0:0:0:0:
256,192,310892,1,0,0:0:0:0:
256,192,310983,1,0,0:0:0:0:
256,192,311074,1,8,0:0:0:0:
256,192,311256,1,0,0:0:0:0:
256,192,311347,1,8,0:0:0:0:
256,192,311438,1,8,0:0:0:0:
256,192,311528,1,0,0:0:0:0:
256,192,311619,1,0,0:0:0:0:
256,192,311710,1,0,0:0:0:0:
256,192,311801,1,8,0:0:0:0:
256,192,311892,1,8,0:0:0:0:
256,192,311983,1,0,0:0:0:0:
256,192,312044,1,0,0:0:0:0:
256,192,312104,1,0,0:0:0:0:
256,192,312165,1,8,0:0:0:0:
256,192,312256,1,8,0:0:0:0:
256,192,312347,1,0,0:0:0:0:
256,192,312528,1,8,0:0:0:0:
256,192,312710,1,4,0:0:0:0:
256,192,312892,1,8,0:0:0:0:
256,192,312983,1,8,0:0:0:0:
256,192,313074,1,0,0:0:0:0:
256,192,313256,1,8,0:0:0:0:
256,192,313438,1,0,0:0:0:0:
256,192,313528,1,0,0:0:0:0:
256,192,313710,1,0,0:0:0:0:
256,192,313801,1,8,0:0:0:0:
256,192,313983,1,0,0:0:0:0:
256,192,314074,1,0,0:0:0:0:
256,192,314165,1,8,0:0:0:0:
256,192,314256,1,0,0:0:0:0:
256,192,314438,1,0,0:0:0:0:
256,192,314528,1,8,0:0:0:0:
256,192,314710,1,0,0:0:0:0:
256,192,314801,1,0,0:0:0:0:
256,192,314892,1,8,0:0:0:0:
256,192,314983,1,8,0:0:0:0:
256,192,315165,1,0,0:0:0:0:
256,192,315256,1,8,0:0:0:0:
256,192,315438,1,0,0:0:0:0:
256,192,315619,1,8,0:0:0:0:
256,192,315710,1,8,0:0:0:0:
256,192,315801,1,0,0:0:0:0:
256,192,315892,1,8,0:0:0:0:
256,192,315983,1,8,0:0:0:0:
256,192,316074,1,0,0:0:0:0:
256,192,316165,1,8,0:0:0:0:
256,192,316347,1,0,0:0:0:0:
256,192,316438,1,0,0:0:0:0:
256,192,316528,1,8,0:0:0:0:
256,192,316619,1,0,0:0:0:0:
256,192,316710,1,0,0:0:0:0:
256,192,316801,1,8,0:0:0:0:
256,192,316892,1,0,0:0:0:0:
256,192,317074,1,8,0:0:0:0:
256,192,317165,1,8,0:0:0:0:
256,192,317256,1,0,0:0:0:0:
256,192,317347,1,8,0:0:0:0:
256,192,317438,1,8,0:0:0:0:
256,192,317528,1,8,0:0:0:0:
256,192,317619,1,0,0:0:0:0:
256,192,317710,1,0,0:0:0:0:
256,192,317801,1,8,0:0:0:0:
256,192,317892,1,8,0:0:0:0:
256,192,317983,1,8,0:0:0:0:
256,192,318074,1,8,0:0:0:0:
256,192,318165,1,0,0:0:0:0:
256,192,318347,1,8,0:0:0:0:
256,192,318528,1,4,0:0:0:0:
256,192,318710,1,8,0:0:0:0:
256,192,318801,1,8,0:0:0:0:
256,192,318892,1,0,0:0:0:0:
256,192,319074,1,0,0:0:0:0:
256,192,319256,1,8,0:0:0:0:
256,192,319347,1,8,0:0:0:0:
256,192,319528,1,8,0:0:0:0:
256,192,319619,1,0,0:0:0:0:
256,192,319801,1,8,0:0:0:0:
256,192,319892,1,8,0:0:0:0:
256,192,319983,1,0,0:0:0:0:
256,192,320074,1,8,0:0:0:0:
256,192,320256,1,8,0:0:0:0:
256,192,320347,1,0,0:0:0:0:
256,192,320528,1,8,0:0:0:0:
256,192,320619,1,8,0:0:0:0:
256,192,320710,1,0,0:0:0:0:
256,192,320801,1,0,0:0:0:0:
256,192,320983,1,8,0:0:0:0:
256,192,321074,1,0,0:0:0:0:
256,192,321256,1,8,0:0:0:0:
256,192,321438,1,0,0:0:0:0:
256,192,321528,1,0,0:0:0:0:
256,192,321619,1,8,0:0:0:0:
256,192,321710,1,0,0:0:0:0:
256,192,321801,1,0,0:0:0:0:
256,192,321892,1,8,0:0:0:0:
256,192,321983,1,0,0:0:0:0:
256,192,322165,1,8,0:0:0:0:
256,192,322256,1,8,0:0:0:0:
256,192,322347,1,0,0:0:0:0:
256,192,322438,1,8,0:0:0:0:
256,192,322528,1,8,0:0:0:0:
256,192,322619,1,0,0:0:0:0:
256,192,322710,1,8,0:0:0:0:
256,192,322892,1,0,0:0:0:0:
256,192,322983,1,0,0:0:0:0:
256,192,323074,1,8,0:0:0:0:
256,192,323165,1,0,0:0:0:0:
256,192,323256,1,0,0:0:0:0:
256,192,323347,1,0,0:0:0:0:
256,192,323438,1,8,0:0:0:0:
256,192,323528,1,8,0:0:0:0:
256,192,323619,1,0,0:0:0:0:
256,192,323680,1,0,0:0:0:0:
256,192,323741,1,0,0:0:0:0:
256,192,323801,1,8,0:0:0:0:
256,192,323892,1,8,0:0:0:0:
256,192,323983,1,0,0:0:0:0:
256,192,324165,1,0,0:0:0:0:
256,192,327256,1,12,0:0:0:0:
