osu file format v14

[General]
AudioFilename: audio.mp3
AudioLeadIn: 0
PreviewTime: 62534
Countdown: 0
SampleSet: Normal
StackLeniency: 0.7
Mode: 1
LetterboxInBreaks: 0
WidescreenStoryboard: 1

[Editor]
DistanceSpacing: 1.5
BeatDivisor: 2
GridSize: 8
TimelineZoom: 2.6

[Metadata]
Title:Shukusei!! Loli-kami Requiem*
TitleUnicode:粛聖!! ロリ神レクイエム☆
Artist:Shigure Ui (9-sai)
ArtistUnicode:しぐれうい(9さい)
Creator:Nozdormu
Version:Kantan
Source:
Tags:shamirin shamirin_mzk japanese electronic j-pop jpop pop iosys d.watt dwatt vtuber virtual youtuber female vocalist まだ雨はやまない the rain doesn't stop yet does not gami loli-gami original god 9sai 9 sai years old mada ame wa yamanai まろん maron ががめ gagame utsugame 犬山たまき inuyama tamaki 丸岡詩織 studio msr 片田浩史 sony music studios tokyo
BeatmapID:4314390
BeatmapSetID:2061897

[Difficulty]
HPDrainRate:8
CircleSize:4
OverallDifficulty:3
ApproachRate:8
SliderMultiplier:1.4
SliderTickRate:1

[Events]
//Background and Video events
0,0,"requiem.jpg",0,0
Video,0,"lolikami.mp4"
//Break Periods
//Storyboard Layer 0 (Background)
//Storyboard Layer 1 (Fail)
//Storyboard Layer 2 (Pass)
//Storyboard Layer 3 (Foreground)
//Storyboard Layer 4 (Overlay)
//Storyboard Sound Samples

[TimingPoints]
80,363.636363636364,4,1,0,40,1,0
80,-100,4,1,0,40,0,0
1170,-100,4,1,0,50,0,0
9898,-100,4,1,0,80,0,0
15534,-100,4,1,0,85,0,0
15898,-100,4,1,0,90,0,0
28807,-100,4,1,0,60,0,0
34080,-100,4,1,0,70,0,0
34807,-100,4,1,0,60,0,0
39625,-100,4,1,0,64,0,0
39989,-100,4,1,0,68,0,0
40443,-100,4,1,0,75,0,0
46807,-100,4,1,0,90,0,0
47898,-100,4,1,0,100,0,0
49352,-100,4,1,0,70,0,0
50807,-100,4,1,0,80,0,0
61716,-100,4,1,0,82,0,0
62080,-100,4,1,0,86,0,0
62443,-100,4,1,0,90,0,0
62625,-100,4,1,0,90,0,1
71170,-100,4,1,0,100,0,1
72807,-100,4,1,0,90,0,1
73534,-100,4,1,0,90,0,0
74261,-100,4,1,0,90,0,1
78989,-100,4,1,0,100,0,1
80443,-100,4,1,0,90,0,1
86989,-100,4,1,0,100,0,1
88080,-100,4,1,0,90,0,1
88807,-100,4,1,0,90,0,0
89170,-100,4,1,0,70,0,0
94261,-100,4,1,0,80,0,0
98989,-100,4,1,0,75,0,0
100261,-100,4,1,0,90,0,0
112443,-100,4,1,0,60,0,0
116989,-100,4,1,0,70,0,0
117716,-100,4,1,0,60,0,0
123352,-100,4,1,0,100,0,0
124443,-100,4,1,0,60,0,0
124807,-100,4,1,0,100,0,0
125898,-100,4,1,0,60,0,0
126261,-100,4,1,0,100,0,0
127352,-100,4,1,0,60,0,0
127716,-100,4,1,0,100,0,0
128807,-100,4,1,0,60,0,0
129170,-100,4,1,0,70,0,0
134989,-100,4,1,0,80,0,0
140807,-100,4,1,0,100,0,0
145352,-100,4,1,0,50,0,0
146625,-100,4,1,0,70,0,0
147898,-100,4,1,0,100,0,0
152807,-100,4,1,0,70,0,0
153534,-100,4,1,0,100,0,0
157170,-100,4,1,0,70,0,0
158443,-100,4,1,0,100,0,0
160807,-100,4,1,0,70,0,0
161170,-100,4,1,0,100,0,0
163716,-100,4,1,0,70,0,0
164080,-100,4,1,0,75,0,0
170625,-100,4,1,0,20,0,0
172807,-100,4,1,0,40,0,0
173261,-100,4,1,0,42,0,0
173352,-100,4,1,0,44,0,0
173443,-100,4,1,0,46,0,0
173534,-100,4,1,0,48,0,0
173625,-100,4,1,0,50,0,0
173716,-100,4,1,0,52,0,0
173807,-100,4,1,0,54,0,0
173898,-100,4,1,0,56,0,0
173989,-100,4,1,0,58,0,0
174080,-100,4,1,0,60,0,0
174170,-100,4,1,0,62,0,0
174261,-100,4,1,0,64,0,0
174352,-100,4,1,0,66,0,0
174443,-100,4,1,0,68,0,0
174534,-100,4,1,0,70,0,0
174625,-100,4,1,0,50,0,0
175716,-100,4,1,0,70,0,0
184625,-100,4,1,0,100,0,0
186807,-100,4,1,0,85,0,0
187534,-100,4,1,0,80,0,0
192261,-100,4,1,0,60,0,0
194261,-100,4,1,0,50,0,0
197534,-100,4,1,0,80,0,0
210443,-100,4,1,0,83,0,0
210807,-100,4,1,0,84,0,0
211534,-100,4,1,0,86,0,0
211898,-100,4,1,0,87,0,0
212261,-100,4,1,0,88,0,0
212989,-100,4,1,0,90,0,0
213352,-100,4,1,0,91,0,0
213716,-100,4,1,0,92,0,0
214625,-100,4,1,0,95,0,0
215170,-100,4,1,0,90,0,0
215352,-100,4,1,0,90,0,1
223898,-100,4,1,0,100,0,1
225534,-100,4,1,0,90,0,1
226261,-100,4,1,0,90,0,0
226989,-100,4,1,0,90,0,1
231716,-100,4,1,0,100,0,1
233170,-100,4,1,0,90,0,1
239716,-100,4,1,0,100,0,1
240807,-100,4,1,0,90,0,1
245534,-100,4,1,0,100,0,1
246261,-100,4,1,0,100,0,0
246625,-100,4,1,0,10,0,0
248080,-100,4,1,0,40,0,0
248898,-100,4,1,0,41,0,0
248989,-100,4,1,0,42,0,0
249080,-100,4,1,0,43,0,0
249170,-100,4,1,0,44,0,0
249261,-100,4,1,0,45,0,0
249352,-100,4,1,0,46,0,0
249443,-100,4,1,0,47,0,0
249534,-100,4,1,0,48,0,0
249625,-100,4,1,0,49,0,0
249716,-100,4,1,0,50,0,0
249807,-100,4,1,0,51,0,0
249898,-100,4,1,0,52,0,0
249989,-100,4,1,0,53,0,0
250080,-100,4,1,0,54,0,0
250170,-100,4,1,0,55,0,0
250261,-100,4,1,0,56,0,0
250352,-100,4,1,0,57,0,0
250443,-100,4,1,0,58,0,0
250534,-100,4,1,0,59,0,0
250625,-100,4,1,0,60,0,0
250716,-100,4,1,0,61,0,0
250807,-100,4,1,0,62,0,0
250898,-100,4,1,0,63,0,0
250989,-100,4,1,0,64,0,0
251080,-100,4,1,0,65,0,0
251170,-100,4,1,0,66,0,0
251261,-100,4,1,0,67,0,0
251352,-100,4,1,0,68,0,0
251443,-100,4,1,0,69,0,0
251534,-100,4,1,0,70,0,0
251625,-100,4,1,0,71,0,0
251716,-100,4,1,0,72,0,0
251807,-100,4,1,0,73,0,0
251898,-100,4,1,0,74,0,0
251989,-100,4,1,0,75,0,0
252080,-100,4,1,0,76,0,0
252170,-100,4,1,0,77,0,0
252261,-100,4,1,0,78,0,0
252352,-100,4,1,0,79,0,0
252443,-100,4,1,0,80,0,0
252534,-100,4,1,0,81,0,0
252625,-100,4,1,0,82,0,0
252716,-100,4,1,0,83,0,0
252807,-100,4,1,0,84,0,0
252898,-100,4,1,0,85,0,0
253716,-100,4,1,0,80,0,0
254080,-100,4,1,0,85,0,0
254443,-100,4,1,0,90,0,0

[HitObjects]
162,143,807,5,8,0:0:0:0:
162,143,1534,1,0,0:0:0:0:
162,143,2261,1,0,0:0:0:0:
162,143,2625,1,8,0:0:0:0:
162,143,2989,1,0,0:0:0:0:
154,146,4443,1,0,0:0:0:0:
154,146,5170,1,8,0:0:0:0:
154,146,5534,1,8,0:0:0:0:
154,146,5898,1,0,0:0:0:0:
154,146,6625,1,8,0:0:0:0:
150,153,7352,1,0,0:0:0:0:
149,158,8080,1,0,0:0:0:0:
149,158,8807,1,8,0:0:0:0:
256,192,10261,12,0,14443,0:0:0:0:
160,150,15352,5,8,0:0:0:0:
160,150,15716,1,8,0:0:0:0:
160,150,16080,1,4,0:0:0:0:
160,150,16807,1,0,0:0:0:0:
160,150,17534,1,8,0:0:0:0:
160,150,17898,1,0,0:0:0:0:
160,150,18261,1,8,0:0:0:0:
160,150,18989,1,0,0:0:0:0:
160,150,19716,1,0,0:0:0:0:
160,150,20443,1,8,0:0:0:0:
160,150,20807,1,8,0:0:0:0:
160,150,21170,1,8,0:0:0:0:
160,150,21898,1,4,0:0:0:0:
160,150,22989,1,8,0:0:0:0:
160,150,23352,1,0,0:0:0:0:
160,150,23716,1,0,0:0:0:0:
160,150,24443,1,0,0:0:0:0:
160,150,24807,1,8,0:0:0:0:
152,152,25534,1,0,0:0:0:0:
152,152,26261,1,8,0:0:0:0:
152,152,26625,1,8,0:0:0:0:
152,152,26989,1,0,0:0:0:0:
152,152,27352,1,0,0:0:0:0:
152,152,27716,1,12,0:0:0:0:
168,154,29170,1,4,0:0:0:0:
168,154,29898,1,8,0:0:0:0:
168,154,30261,1,8,0:0:0:0:
168,154,30625,1,0,0:0:0:0:
168,154,31352,1,8,0:0:0:0:
168,154,32080,1,0,0:0:0:0:
168,154,32807,1,8,0:0:0:0:
168,154,33170,1,0,0:0:0:0:
168,154,33534,1,8,0:0:0:0:
168,154,34261,1,0,0:0:0:0:
168,154,34625,1,0,0:0:0:0:
168,154,34989,1,8,0:0:0:0:
168,154,35716,1,8,0:0:0:0:
168,154,36443,1,0,0:0:0:0:
171,145,37534,1,0,0:0:0:0:
171,145,37898,1,8,0:0:0:0:
171,145,38625,1,8,0:0:0:0:
171,145,39352,1,0,0:0:0:0:
171,145,39716,1,8,0:0:0:0:
171,145,40080,1,8,0:0:0:0:
171,145,40807,1,4,0:0:0:0:
171,145,41534,1,8,0:0:0:0:
171,145,41898,1,0,0:0:0:0:
171,145,42261,1,0,0:0:0:0:
171,145,42989,1,8,0:0:0:0:
171,145,43716,1,0,0:0:0:0:
171,145,44443,1,0,0:0:0:0:
171,145,44807,1,8,0:0:0:0:
171,145,45170,1,0,0:0:0:0:
176,160,46261,1,8,0:0:0:0:
176,160,46989,1,4,0:0:0:0:
176,160,47716,1,4,0:0:0:0:
181,162,48080,1,12,0:0:0:0:
176,160,48443,1,12,0:0:0:0:
175,162,48807,1,4,0:0:0:0:
175,162,49534,1,8,0:0:0:0:
175,162,49898,1,8,0:0:0:0:
175,162,50261,1,0,0:0:0:0:
170,166,50989,1,12,0:0:0:0:
170,166,51716,1,8,0:0:0:0:
170,166,52443,1,0,0:0:0:0:
171,138,53534,1,0,0:0:0:0:
171,138,53898,1,8,0:0:0:0:
171,138,54625,1,0,0:0:0:0:
171,138,55352,1,8,0:0:0:0:
171,138,55716,1,0,0:0:0:0:
171,138,56080,1,0,0:0:0:0:
171,138,56807,1,12,0:0:0:0:
171,138,57534,1,8,0:0:0:0:
171,138,58261,1,0,0:0:0:0:
171,138,58625,1,0,0:0:0:0:
171,138,58989,1,0,0:0:0:0:
171,143,59716,1,8,0:0:0:0:
148,130,60807,1,8,0:0:0:0:
148,130,61170,1,0,0:0:0:0:
141,149,61898,1,0,0:0:0:0:
141,149,62261,1,0,0:0:0:0:
148,155,62625,1,12,0:0:0:0:
143,149,63352,1,8,0:0:0:0:
143,149,63716,1,0,0:0:0:0:
143,149,64080,1,8,0:0:0:0:
143,149,64807,1,8,0:0:0:0:
148,151,65534,1,0,0:0:0:0:
148,151,65898,1,8,0:0:0:0:
148,151,66261,1,0,0:0:0:0:
148,151,66625,1,0,0:0:0:0:
148,151,66989,1,8,0:0:0:0:
148,151,67716,1,0,0:0:0:0:
156,145,68443,1,8,0:0:0:0:
156,145,68807,1,0,0:0:0:0:
156,145,69170,1,0,0:0:0:0:
156,145,69898,1,8,0:0:0:0:
150,149,70989,1,0,0:0:0:0:
142,152,71352,1,12,0:0:0:0:
142,152,72080,1,12,0:0:0:0:
155,161,73170,1,0,0:0:0:0:
155,161,73534,1,0,0:0:0:0:
146,161,74261,1,12,0:0:0:0:
146,161,74989,1,0,0:0:0:0:
146,161,75352,1,8,0:0:0:0:
146,161,75716,1,0,0:0:0:0:
146,161,76443,1,0,0:0:0:0:
146,161,77170,1,8,0:0:0:0:
146,161,77534,1,8,0:0:0:0:
146,161,77898,1,0,0:0:0:0:
146,161,78261,1,0,0:0:0:0:
146,161,78625,1,8,0:0:0:0:
146,161,79352,1,4,0:0:0:0:
146,161,80080,1,12,0:0:0:0:
176,151,81170,1,8,0:0:0:0:
176,151,81534,1,0,0:0:0:0:
176,151,82261,1,8,0:0:0:0:
176,151,82989,1,8,0:0:0:0:
176,151,83716,1,0,0:0:0:0:
176,151,84080,1,0,0:0:0:0:
176,151,84443,1,0,0:0:0:0:
176,151,85170,1,8,0:0:0:0:
176,151,85534,1,0,0:0:0:0:
176,151,85898,1,8,0:0:0:0:
181,149,86625,1,8,0:0:0:0:
175,148,87352,1,4,0:0:0:0:
175,148,87716,1,4,0:0:0:0:
141,155,88807,1,12,0:0:0:0:
141,155,89534,1,8,0:0:0:0:
141,155,90261,1,0,0:0:0:0:
141,155,90989,1,8,0:0:0:0:
141,155,91716,1,0,0:0:0:0:
141,155,92443,1,0,0:0:0:0:
141,160,93170,1,8,0:0:0:0:
144,153,94625,1,4,0:0:0:0:
150,149,95352,1,8,0:0:0:0:
150,149,95716,1,0,0:0:0:0:
150,149,96080,1,8,0:0:0:0:
150,149,96807,1,8,0:0:0:0:
150,149,97534,1,0,0:0:0:0:
150,149,98261,1,0,0:0:0:0:
150,149,98625,1,8,0:0:0:0:
154,162,99716,1,8,0:0:0:0:
154,162,100080,1,8,0:0:0:0:
160,150,100443,1,4,0:0:0:0:
160,150,101170,1,8,0:0:0:0:
160,150,101898,1,0,0:0:0:0:
160,150,102261,1,0,0:0:0:0:
160,150,102625,1,8,0:0:0:0:
160,150,103352,1,0,0:0:0:0:
160,150,104080,1,0,0:0:0:0:
160,150,104807,1,8,0:0:0:0:
160,150,105170,1,8,0:0:0:0:
160,150,105534,1,8,0:0:0:0:
160,150,106261,1,4,0:0:0:0:
160,150,107352,1,0,0:0:0:0:
160,150,107716,1,8,0:0:0:0:
160,150,108080,1,8,0:0:0:0:
160,150,108807,1,8,0:0:0:0:
160,150,109170,1,0,0:0:0:0:
152,152,109898,1,0,0:0:0:0:
152,152,110625,1,8,0:0:0:0:
152,152,110989,1,0,0:0:0:0:
152,152,111352,1,0,0:0:0:0:
152,152,111716,1,0,0:0:0:0:
152,152,112080,1,12,0:0:0:0:
158,153,113170,1,8,0:0:0:0:
158,153,113534,1,0,0:0:0:0:
158,153,114261,1,8,0:0:0:0:
158,153,114989,1,0,0:0:0:0:
175,142,116080,1,0,0:0:0:0:
175,142,116443,1,8,0:0:0:0:
175,142,117170,1,8,0:0:0:0:
175,142,117534,1,8,0:0:0:0:
175,142,117898,1,0,0:0:0:0:
174,153,118989,1,8,0:0:0:0:
174,153,119352,1,0,0:0:0:0:
181,151,120080,1,0,0:0:0:0:
181,151,120807,1,8,0:0:0:0:
181,151,121534,1,8,0:0:0:0:
184,156,122261,1,0,0:0:0:0:
184,156,123716,1,4,0:0:0:0:
184,156,124080,1,4,0:0:0:0:
168,150,125170,1,4,0:0:0:0:
168,150,125534,1,4,0:0:0:0:
159,157,126625,1,4,0:0:0:0:
159,157,126989,1,4,0:0:0:0:
185,161,128080,1,4,0:0:0:0:
185,161,128443,1,4,0:0:0:0:
184,156,129534,1,12,0:0:0:0:
184,156,130261,1,0,0:0:0:0:
184,156,130989,1,12,0:0:0:0:
184,156,131716,1,8,0:0:0:0:
184,156,132080,1,8,0:0:0:0:
184,156,132443,1,4,0:0:0:0:
184,156,133170,1,8,0:0:0:0:
184,156,133898,1,4,0:0:0:0:
184,156,134261,1,0,0:0:0:0:
184,156,134625,1,8,0:0:0:0:
148,150,135352,1,12,0:0:0:0:
168,154,136080,1,8,0:0:0:0:
169,155,136443,1,0,0:0:0:0:
169,155,136807,1,4,0:0:0:0:
169,155,137534,1,8,0:0:0:0:
169,155,138261,1,4,0:0:0:0:
169,155,138989,1,0,0:0:0:0:
169,155,139352,1,8,0:0:0:0:
169,155,139716,1,4,0:0:0:0:
169,155,140443,1,8,0:0:0:0:
169,155,141170,1,12,0:0:0:0:
144,149,142625,1,12,0:0:0:0:
144,149,143352,1,12,0:0:0:0:
144,149,144080,1,4,0:0:0:0:
144,149,144443,1,4,0:0:0:0:
144,149,144807,1,4,0:0:0:0:
144,149,145170,1,4,0:0:0:0:
144,149,145534,1,8,0:0:0:0:
175,149,146989,1,8,0:0:0:0:
175,149,147716,1,8,0:0:0:0:
175,149,148080,1,4,0:0:0:0:
256,192,148443,12,0,152807,0:0:0:0:
189,151,153898,5,4,0:0:0:0:
256,192,154261,12,0,157170,0:0:0:0:
162,151,158261,5,8,0:0:0:0:
162,151,158625,1,4,0:0:0:0:
256,192,158989,12,0,160807,0:0:0:0:
151,153,161534,5,4,0:0:0:0:
256,192,161898,12,0,163716,0:0:0:0:
154,144,164443,5,8,0:0:0:0:
154,144,165170,1,8,0:0:0:0:
154,144,165898,1,8,0:0:0:0:
154,144,166625,1,0,0:0:0:0:
154,144,166989,1,0,0:0:0:0:
154,144,167352,1,8,0:0:0:0:
154,144,168080,1,8,0:0:0:0:
154,144,168807,1,0,0:0:0:0:
154,144,169170,1,8,0:0:0:0:
154,144,169534,1,0,0:0:0:0:
154,144,169898,1,0,0:0:0:0:
154,144,170261,1,8,0:0:0:0:
256,192,173170,12,8,174625,0:0:0:0:
146,149,176080,5,12,0:0:0:0:
146,149,176807,1,8,0:0:0:0:
146,149,177170,1,0,0:0:0:0:
146,149,177534,1,8,0:0:0:0:
147,145,178625,1,8,0:0:0:0:
147,145,178989,1,0,0:0:0:0:
151,152,179716,1,0,0:0:0:0:
151,152,180080,1,0,0:0:0:0:
151,152,180443,1,8,0:0:0:0:
153,152,181534,1,8,0:0:0:0:
153,152,181898,1,8,0:0:0:0:
153,152,182625,1,8,0:0:0:0:
153,152,183352,1,0,0:0:0:0:
191,148,184443,1,0,0:0:0:0:
196,151,184807,1,12,0:0:0:0:
196,151,185534,1,12,0:0:0:0:
187,159,186625,1,4,0:0:0:0:
187,159,186989,1,0,0:0:0:0:
187,159,187716,1,12,0:0:0:0:
187,159,188443,1,8,0:0:0:0:
183,166,188807,1,8,0:0:0:0:
182,163,189170,1,0,0:0:0:0:
182,163,189898,1,8,0:0:0:0:
182,163,190625,1,0,0:0:0:0:
182,169,191352,1,0,0:0:0:0:
182,169,191716,1,8,0:0:0:0:
182,169,192080,1,12,0:0:0:0:
256,192,192443,12,0,193534,0:0:0:0:
162,150,194989,5,8,0:0:0:0:
162,150,195716,1,0,0:0:0:0:
162,150,196443,1,8,0:0:0:0:
178,154,197898,1,4,0:0:0:0:
178,154,198625,1,0,0:0:0:0:
178,154,199352,1,8,0:0:0:0:
178,154,199716,1,0,0:0:0:0:
178,154,200080,1,8,0:0:0:0:
178,154,200807,1,4,0:0:0:0:
178,154,201534,1,8,0:0:0:0:
175,159,202261,1,8,0:0:0:0:
175,159,202625,1,0,0:0:0:0:
175,159,202989,1,8,0:0:0:0:
175,159,203352,1,8,0:0:0:0:
175,159,203716,1,4,0:0:0:0:
171,152,204807,1,0,0:0:0:0:
176,148,205170,1,8,0:0:0:0:
176,148,205898,1,8,0:0:0:0:
176,148,206625,1,4,0:0:0:0:
176,148,207352,1,0,0:0:0:0:
176,148,207716,1,8,0:0:0:0:
181,149,208080,1,0,0:0:0:0:
181,149,208807,1,8,0:0:0:0:
181,149,209534,1,4,0:0:0:0:
171,147,210625,1,8,0:0:0:0:
171,147,210989,1,12,0:0:0:0:
171,147,211716,1,0,0:0:0:0:
171,147,212080,1,0,0:0:0:0:
171,147,212443,1,8,0:0:0:0:
171,147,213170,1,8,0:0:0:0:
169,141,213534,1,0,0:0:0:0:
167,139,213898,1,12,0:0:0:0:
168,147,214989,1,12,0:0:0:0:
148,155,215352,1,4,0:0:0:0:
143,149,216080,1,8,0:0:0:0:
143,149,216443,1,8,0:0:0:0:
143,149,216807,1,8,0:0:0:0:
143,149,217534,1,0,0:0:0:0:
148,151,218261,1,8,0:0:0:0:
148,151,218625,1,0,0:0:0:0:
148,151,218989,1,8,0:0:0:0:
148,151,219352,1,8,0:0:0:0:
148,151,219716,1,0,0:0:0:0:
148,151,220443,1,8,0:0:0:0:
156,145,221170,1,0,0:0:0:0:
156,145,221534,1,0,0:0:0:0:
156,145,221898,1,8,0:0:0:0:
156,145,222625,1,8,0:0:0:0:
150,149,223716,1,0,0:0:0:0:
142,152,224080,1,12,0:0:0:0:
142,152,224807,1,12,0:0:0:0:
155,161,225898,1,0,0:0:0:0:
155,161,226261,1,0,0:0:0:0:
146,161,226989,1,12,0:0:0:0:
146,161,227716,1,0,0:0:0:0:
146,161,228080,1,0,0:0:0:0:
146,161,228443,1,8,0:0:0:0:
146,161,229170,1,0,0:0:0:0:
146,161,229898,1,8,0:0:0:0:
146,161,230261,1,0,0:0:0:0:
146,161,230625,1,8,0:0:0:0:
146,161,230989,1,0,0:0:0:0:
146,161,231352,1,8,0:0:0:0:
146,161,232080,1,4,0:0:0:0:
146,161,232807,1,12,0:0:0:0:
176,151,233898,1,8,0:0:0:0:
176,151,234261,1,0,0:0:0:0:
176,151,234989,1,8,0:0:0:0:
176,151,235716,1,0,0:0:0:0:
176,151,236443,1,8,0:0:0:0:
176,151,236807,1,8,0:0:0:0:
176,151,237170,1,8,0:0:0:0:
176,151,237898,1,0,0:0:0:0:
176,151,238261,1,0,0:0:0:0:
176,151,238625,1,8,0:0:0:0:
181,149,239352,1,8,0:0:0:0:
175,148,240080,1,4,0:0:0:0:
175,148,240443,1,4,0:0:0:0:
161,142,241534,1,8,0:0:0:0:
161,142,242261,1,8,0:0:0:0:
161,142,242989,1,0,0:0:0:0:
161,142,243352,1,8,0:0:0:0:
161,142,243716,1,0,0:0:0:0:
161,142,244080,1,0,0:0:0:0:
161,142,244443,1,8,0:0:0:0:
161,142,245170,1,8,0:0:0:0:
163,147,245898,1,4,0:0:0:0:
163,147,246261,1,4,0:0:0:0:
256,192,248807,12,0,252989,0:0:0:0:
160,150,253898,5,8,0:0:0:0:
160,150,254261,1,8,0:0:0:0:
160,150,254625,1,4,0:0:0:0:
160,150,255352,1,8,0:0:0:0:
160,150,256080,1,0,0:0:0:0:
160,150,256443,1,0,0:0:0:0:
160,150,256807,1,8,0:0:0:0:
160,150,257534,1,0,0:0:0:0:
160,150,258261,1,0,0:0:0:0:
160,150,258989,1,8,0:0:0:0:
160,150,259352,1,8,0:0:0:0:
160,150,259716,1,8,0:0:0:0:
160,150,260443,1,4,0:0:0:0:
160,150,261534,1,8,0:0:0:0:
160,150,261898,1,0,0:0:0:0:
160,150,262261,1,8,0:0:0:0:
160,150,262989,1,8,0:0:0:0:
160,150,263352,1,0,0:0:0:0:
152,152,264080,1,0,0:0:0:0:
152,152,264807,1,8,0:0:0:0:
152,152,265170,1,8,0:0:0:0:
152,152,265534,1,8,0:0:0:0:
152,152,265898,1,0,0:0:0:0:
