osu file format v14

[General]
AudioFilename: audio.mp3
AudioLeadIn: 0
PreviewTime: 62534
Countdown: 0
SampleSet: Normal
StackLeniency: 0.7
Mode: 1
LetterboxInBreaks: 0
WidescreenStoryboard: 1

[Editor]
DistanceSpacing: 1.5
BeatDivisor: 4
GridSize: 8
TimelineZoom: 2.6

[Metadata]
Title:Shukusei!! Loli-kami Requiem*
TitleUnicode:粛聖!! ロリ神レクイエム☆
Artist:Shigure Ui (9-sai)
ArtistUnicode:しぐれうい(9さい)
Creator:Nozdormu
Version:Futsuu
Source:
Tags:shamirin shamirin_mzk japanese electronic j-pop jpop pop iosys d.watt dwatt vtuber virtual youtuber female vocalist まだ雨はやまない the rain doesn't stop yet does not gami loli-gami original god 9sai 9 sai years old mada ame wa yamanai まろん maron ががめ gagame utsugame 犬山たまき inuyama tamaki 丸岡詩織 studio msr 片田浩史 sony music studios tokyo
BeatmapID:4313498
BeatmapSetID:2061897

[Difficulty]
HPDrainRate:7
CircleSize:4
OverallDifficulty:4
ApproachRate:8
SliderMultiplier:1.4
SliderTickRate:1

[Events]
//Background and Video events
0,0,"requiem.jpg",0,0
Video,0,"lolikami.mp4"
//Break Periods
//Storyboard Layer 0 (Background)
//Storyboard Layer 1 (Fail)
//Storyboard Layer 2 (Pass)
//Storyboard Layer 3 (Foreground)
//Storyboard Layer 4 (Overlay)
//Storyboard Sound Samples

[TimingPoints]
80,363.636363636364,4,1,0,40,1,0
80,-111.111111111111,4,1,0,40,0,0
1170,-111.111111111111,4,1,0,50,0,0
10080,-100,4,1,0,80,0,0
14624,-100,4,1,0,75,0,0
15080,-100,4,1,0,79,0,0
15261,-100,4,1,0,81,0,0
15534,-100,4,1,0,86,0,0
15898,-96.1538461538461,4,1,0,90,0,0
28807,-105.263157894737,4,1,0,60,0,0
34080,-105.263157894737,4,1,0,70,0,0
34807,-105.263157894737,4,1,0,60,0,0
39625,-105.263157894737,4,1,0,64,0,0
39807,-105.263157894737,4,1,0,66,0,0
39989,-105.263157894737,4,1,0,68,0,0
40443,-100,4,1,0,75,0,0
46807,-100,4,1,0,90,0,0
47170,-100,4,1,0,75,0,0
47534,-100,4,1,0,90,0,0
47898,-100,4,1,0,100,0,0
48625,-100,4,1,0,75,0,0
49352,-100,4,1,0,70,0,0
50898,-100,4,1,0,80,0,0
61807,-100,4,1,0,82,0,0
61989,-98.5221674876847,4,1,0,84,0,0
62170,-97.0873786407767,4,1,0,86,0,0
62352,-95.6937799043062,4,1,0,88,0,0
62534,-94.3396226415094,4,1,0,90,0,0
62625,-94.3396226415094,4,1,0,90,0,1
71261,-94.3396226415094,4,1,0,100,0,1
72807,-94.3396226415094,4,1,0,90,0,1
73898,-94.3396226415094,4,1,0,90,0,0
74261,-94.3396226415094,4,1,0,90,0,1
79170,-94.3396226415094,4,1,0,100,0,1
80261,-94.3396226415094,4,1,0,90,0,1
87261,-94.3396226415094,4,1,0,100,0,1
88080,-98.0392156862745,4,1,0,90,0,1
88797,-100,4,1,0,90,0,9
88807,-100,4,1,0,90,0,0
88989,-100,4,1,0,70,0,0
94443,-100,4,1,0,80,0,0
98989,-100,4,1,0,75,0,0
100261,-96.1538461538461,4,1,0,90,0,0
112261,-105.263157894737,4,1,0,60,0,0
116989,-105.263157894737,4,1,0,70,0,0
117716,-105.263157894737,4,1,0,60,0,0
122534,-105.263157894737,4,1,0,64,0,0
122716,-105.263157894737,4,1,0,66,0,0
122898,-105.263157894737,4,1,0,68,0,0
123534,-83.3333333333333,4,1,0,100,0,0
124261,-100,4,1,0,60,0,0
124989,-83.3333333333333,4,1,0,100,0,0
125716,-100,4,1,0,60,0,0
126443,-83.3333333333333,4,1,0,100,0,0
127170,-100,4,1,0,60,0,0
127898,-83.3333333333333,4,1,0,100,0,0
128625,-100,4,1,0,60,0,0
129352,-100,4,1,0,70,0,0
134989,-100,4,1,0,80,0,0
140989,-100,4,1,0,100,0,0
141352,-100,4,1,0,70,0,0
142261,-100,4,1,0,100,0,0
142807,-100,4,1,0,70,0,0
143170,-100,4,1,0,100,0,0
143534,-100,4,1,0,70,0,0
143898,-100,4,1,0,100,0,0
145443,-100,4,1,0,50,0,0
146807,-100,4,1,0,70,0,0
147898,-100,4,1,0,100,0,0
148170,-83.3333333333333,4,1,0,100,0,0
148352,-100,4,1,0,100,0,0
152807,-100,4,1,0,70,0,0
153807,-100,4,1,0,100,0,0
153989,-83.3333333333333,4,1,0,100,0,0
154170,-100,4,1,0,100,0,0
157170,-100,4,1,0,70,0,0
158443,-100,4,1,0,100,0,0
158716,-83.3333333333333,4,1,0,100,0,0
158989,-100,4,1,0,100,0,0
160807,-100,4,1,0,70,0,0
161443,-100,4,1,0,100,0,0
161625,-83.3333333333333,4,1,0,100,0,0
161898,-100,4,1,0,100,0,0
163716,-100,4,1,0,70,0,0
164625,-100,4,1,0,75,0,0
170443,-100,4,1,0,20,0,0
172989,-100,4,1,0,40,0,0
173261,-100,4,1,0,42,0,0
173352,-100,4,1,0,44,0,0
173443,-100,4,1,0,46,0,0
173534,-100,4,1,0,48,0,0
173625,-100,4,1,0,50,0,0
173716,-100,4,1,0,52,0,0
173807,-100,4,1,0,54,0,0
173898,-100,4,1,0,56,0,0
173989,-100,4,1,0,58,0,0
174080,-100,4,1,0,60,0,0
174170,-100,4,1,0,62,0,0
174261,-100,4,1,0,64,0,0
174352,-100,4,1,0,66,0,0
174443,-100,4,1,0,68,0,0
174534,-100,4,1,0,70,0,0
174625,-100,4,1,0,50,0,0
175898,-100,4,1,0,70,0,0
184625,-100,4,1,0,100,0,0
184989,-100,4,1,0,75,0,0
185352,-100,4,1,0,100,0,0
185716,-100,4,1,0,75,0,0
186261,-100,4,1,0,100,0,0
186807,-100,4,1,0,85,0,0
187534,-100,4,1,0,80,0,0
192170,-100,4,1,0,60,0,0
193352,-111.111111111111,4,1,0,60,0,0
194261,-111.111111111111,4,1,0,50,0,0
197716,-100,4,1,0,80,0,0
209888,-99.6260171511548,4,1,0,81,0,0
210070,-99.4400727426864,4,1,0,82,0,0
210251,-99.2558371235256,4,1,0,83,0,0
210615,-98.8873893933162,4,1,0,83,0,0
210979,-98.5216669771223,4,1,0,85,0,0
211342,-98.1596334113931,4,1,0,86,0,0
211524,-97.979117547996,4,1,0,87,0,0
211706,-97.7992644042952,4,1,0,87,0,0
212070,-97.4415317313039,4,1,0,88,0,0
212433,-97.0873786407767,4,1,0,90,0,0
212615,-96.9107814493642,4,1,0,90,0,0
212797,-96.7348255348016,4,1,0,91,0,0
213160,-96.3857816890208,4,1,0,92,0,0
213342,-96.2117253285883,4,1,0,92,0,0
213524,-96.038296467481,4,1,0,93,0,0
213706,-95.8654917184606,4,1,0,94,0,0
213888,-95.6933077186242,4,1,0,95,0,0
214251,-95.3517262628613,4,1,0,95,0,0
214433,-95.1813812261351,4,1,0,95,0,0
214797,-94.8425105715655,4,1,0,95,0,0
214979,-94.6739784876247,4,1,0,95,0,0
215170,-94.6739784876247,4,1,0,90,0,0
215352,-94.3396226415094,4,1,0,90,0,1
223989,-94.3396226415094,4,1,0,100,0,1
225534,-94.3396226415094,4,1,0,90,0,1
226625,-94.3396226415094,4,1,0,90,0,0
226989,-94.3396226415094,4,1,0,90,0,1
231898,-94.3396226415094,4,1,0,100,0,1
232989,-94.3396226415094,4,1,0,90,0,1
239989,-94.3396226415094,4,1,0,100,0,1
240807,-94.3396226415094,4,1,0,90,0,1
245807,-94.3396226415094,4,1,0,100,0,1
246261,-94.3396226415094,4,1,0,100,0,0
246443,-100,4,1,0,10,0,0
248080,-100,4,1,0,40,0,0
248898,-100,4,1,0,41,0,0
248989,-100,4,1,0,42,0,0
249080,-100,4,1,0,43,0,0
249170,-100,4,1,0,44,0,0
249261,-100,4,1,0,45,0,0
249352,-100,4,1,0,46,0,0
249443,-100,4,1,0,47,0,0
249534,-100,4,1,0,48,0,0
249625,-100,4,1,0,49,0,0
249716,-100,4,1,0,50,0,0
249807,-100,4,1,0,51,0,0
249898,-100,4,1,0,52,0,0
249989,-100,4,1,0,53,0,0
250080,-100,4,1,0,54,0,0
250170,-100,4,1,0,55,0,0
250261,-100,4,1,0,56,0,0
250352,-100,4,1,0,57,0,0
250443,-100,4,1,0,58,0,0
250534,-100,4,1,0,59,0,0
250625,-100,4,1,0,60,0,0
250716,-100,4,1,0,61,0,0
250807,-100,4,1,0,62,0,0
250898,-100,4,1,0,63,0,0
250989,-100,4,1,0,64,0,0
251080,-100,4,1,0,65,0,0
251170,-100,4,1,0,66,0,0
251261,-100,4,1,0,67,0,0
251352,-100,4,1,0,68,0,0
251443,-100,4,1,0,69,0,0
251534,-100,4,1,0,70,0,0
251625,-100,4,1,0,71,0,0
251716,-100,4,1,0,72,0,0
251807,-100,4,1,0,73,0,0
251898,-100,4,1,0,74,0,0
251989,-100,4,1,0,75,0,0
252080,-100,4,1,0,76,0,0
252170,-100,4,1,0,77,0,0
252261,-100,4,1,0,78,0,0
252352,-100,4,1,0,79,0,0
252443,-100,4,1,0,80,0,0
252534,-100,4,1,0,81,0,0
252625,-100,4,1,0,82,0,0
252716,-100,4,1,0,83,0,0
252807,-100,4,1,0,84,0,0
252898,-100,4,1,0,85,0,0
253170,-100,4,1,0,75,0,0
253625,-100,4,1,0,79,0,0
253807,-100,4,1,0,81,0,0
254080,-100,4,1,0,86,0,0
254443,-96.1538461538461,4,1,0,90,0,0

[HitObjects]
178,143,807,5,8,0:0:0:0:
178,143,1534,1,0,0:0:0:0:
178,143,1898,1,0,0:0:0:0:
178,143,2261,1,8,0:0:0:0:
178,143,2625,1,8,0:0:0:0:
178,143,2807,1,0,0:0:0:0:
186,147,2989,1,8,0:0:0:0:
163,141,4080,1,0,0:0:0:0:
163,141,4443,1,8,0:0:0:0:
163,141,4807,1,8,0:0:0:0:
163,141,5170,1,0,0:0:0:0:
163,141,5534,1,0,0:0:0:0:
163,141,5716,1,0,0:0:0:0:
163,141,5898,1,8,0:0:0:0:
163,141,6625,1,0,0:0:0:0:
168,139,7352,1,8,0:0:0:0:
168,139,7898,1,8,0:0:0:0:
168,139,8080,1,0,0:0:0:0:
168,139,8625,1,8,0:0:0:0:
168,139,8807,1,8,0:0:0:0:
256,192,10261,12,8,14443,0:0:0:0:
131,149,14807,5,0,0:0:0:0:
131,149,15170,1,0,0:0:0:0:
131,149,15352,1,8,0:0:0:0:
131,149,15716,1,8,0:0:0:0:
131,149,16080,1,4,0:0:0:0:
131,149,16261,1,0,0:0:0:0:
131,149,16443,1,8,0:0:0:0:
131,149,16807,1,0,0:0:0:0:
131,149,17170,1,8,0:0:0:0:
131,149,17352,1,0,0:0:0:0:
131,149,17716,1,0,0:0:0:0:
136,152,17898,1,0,0:0:0:0:
131,149,18080,1,0,0:0:0:0:
131,149,18261,1,8,0:0:0:0:
124,150,18989,1,8,0:0:0:0:
124,152,19170,1,8,0:0:0:0:
124,150,19352,1,0,0:0:0:0:
124,150,19716,1,8,0:0:0:0:
124,150,19898,1,0,0:0:0:0:
124,152,20080,1,8,0:0:0:0:
124,150,20443,1,0,0:0:0:0:
124,150,20807,1,8,0:0:0:0:
124,152,20989,1,8,0:0:0:0:
124,150,21170,1,0,0:0:0:0:
124,150,21534,1,8,0:0:0:0:
124,152,21898,1,4,0:0:0:0:
124,152,22625,1,8,0:0:0:0:
124,152,22989,1,0,0:0:0:0:
124,152,23352,1,0,0:0:0:0:
124,152,23534,1,8,0:0:0:0:
124,152,23898,1,0,0:0:0:0:
124,152,24261,1,8,0:0:0:0:
124,152,24443,1,8,0:0:0:0:
124,152,24807,1,0,0:0:0:0:
124,152,24989,1,8,0:0:0:0:
124,152,25170,1,8,0:0:0:0:
124,152,25534,1,0,0:0:0:0:
124,152,25898,1,0,0:0:0:0:
124,152,26261,1,8,0:0:0:0:
124,152,26625,1,0,0:0:0:0:
124,152,26807,1,0,0:0:0:0:
124,152,26989,1,8,0:0:0:0:
124,152,27170,1,8,0:0:0:0:
124,152,27352,1,0,0:0:0:0:
124,152,27716,1,12,0:0:0:0:
147,154,29170,1,4,0:0:0:0:
147,154,29534,1,0,0:0:0:0:
147,154,29716,1,8,0:0:0:0:
147,154,30261,1,8,0:0:0:0:
147,154,30625,1,0,0:0:0:0:
147,154,30989,1,8,0:0:0:0:
147,154,31170,1,0,0:0:0:0:
147,154,31534,1,8,0:0:0:0:
147,154,31716,1,8,0:0:0:0:
147,154,32080,1,0,0:0:0:0:
147,154,32443,1,0,0:0:0:0:
147,154,32625,1,8,0:0:0:0:
147,154,33170,1,8,0:0:0:0:
147,154,33534,1,0,0:0:0:0:
147,154,34261,1,0,0:0:0:0:
147,154,34443,1,8,0:0:0:0:
147,154,34625,1,8,0:0:0:0:
147,154,34989,1,0,0:0:0:0:
147,154,35352,1,0,0:0:0:0:
147,154,35534,1,8,0:0:0:0:
147,154,36080,1,0,0:0:0:0:
147,154,36443,1,8,0:0:0:0:
147,154,36807,1,0,0:0:0:0:
147,154,36989,1,0,0:0:0:0:
147,154,37352,1,8,0:0:0:0:
147,154,37534,1,0,0:0:0:0:
147,154,37898,1,8,0:0:0:0:
147,154,38261,1,8,0:0:0:0:
147,154,38443,1,0,0:0:0:0:
147,154,38625,1,0,0:0:0:0:
147,154,38989,1,8,0:0:0:0:
147,154,39352,1,0,0:0:0:0:
143,159,39716,1,8,0:0:0:0:
144,159,39898,1,8,0:0:0:0:
147,154,40080,1,8,0:0:0:0:
143,159,40807,1,4,0:0:0:0:
143,159,41170,1,8,0:0:0:0:
143,159,41534,1,0,0:0:0:0:
143,159,41716,1,8,0:0:0:0:
143,159,41898,1,8,0:0:0:0:
143,159,42261,1,0,0:0:0:0:
143,159,42625,1,0,0:0:0:0:
143,159,42989,1,8,0:0:0:0:
143,159,43170,1,8,0:0:0:0:
143,159,43352,1,0,0:0:0:0:
143,159,43716,1,8,0:0:0:0:
143,159,44080,1,0,0:0:0:0:
143,159,44261,1,0,0:0:0:0:
144,164,44443,1,8,0:0:0:0:
141,164,44807,1,0,0:0:0:0:
145,165,45170,1,8,0:0:0:0:
141,164,45534,1,8,0:0:0:0:
141,164,45716,1,0,0:0:0:0:
145,165,45898,1,8,0:0:0:0:
145,165,46080,1,8,0:0:0:0:
141,164,46261,1,0,0:0:0:0:
145,165,46989,1,4,0:0:0:0:
147,164,47352,1,8,0:0:0:0:
145,165,47716,1,4,0:0:0:0:
147,164,48080,1,12,0:0:0:0:
147,164,48261,1,12,0:0:0:0:
145,165,48443,1,12,0:0:0:0:
147,164,48807,1,4,0:0:0:0:
147,164,49534,1,8,0:0:0:0:
152,159,49716,1,8,0:0:0:0:
147,164,49898,1,8,0:0:0:0:
147,164,50080,1,8,0:0:0:0:
147,164,50261,1,0,0:0:0:0:
145,165,50625,1,0,0:0:0:0:
147,164,50807,1,0,0:0:0:0:
147,164,50989,1,12,0:0:0:0:
150,164,51352,1,8,0:0:0:0:
147,164,51716,1,0,0:0:0:0:
150,164,52080,1,0,0:0:0:0:
147,164,52443,1,8,0:0:0:0:
150,164,52807,1,0,0:0:0:0:
150,164,52989,1,8,0:0:0:0:
152,162,53170,1,0,0:0:0:0:
150,164,53898,1,8,0:0:0:0:
150,164,54261,1,8,0:0:0:0:
150,164,54443,1,8,0:0:0:0:
150,164,54625,1,0,0:0:0:0:
150,164,54989,1,0,0:0:0:0:
150,164,55352,1,8,0:0:0:0:
150,164,55716,1,8,0:0:0:0:
150,164,55898,1,0,0:0:0:0:
150,164,56080,1,8,0:0:0:0:
150,164,56807,1,12,0:0:0:0:
150,164,57170,1,0,0:0:0:0:
150,164,57534,1,8,0:0:0:0:
150,164,57898,1,0,0:0:0:0:
150,164,58261,1,8,0:0:0:0:
150,164,58443,1,8,0:0:0:0:
150,164,58625,1,0,0:0:0:0:
150,164,58989,1,8,0:0:0:0:
150,164,59716,1,0,0:0:0:0:
150,164,60080,1,8,0:0:0:0:
150,164,60261,1,0,0:0:0:0:
150,164,60443,1,8,0:0:0:0:
150,164,60807,1,8,0:0:0:0:
150,164,60989,1,8,0:0:0:0:
150,164,61170,1,0,0:0:0:0:
150,164,61534,1,0,0:0:0:0:
150,164,61898,1,8,0:0:0:0:
150,164,62080,1,0,0:0:0:0:
150,164,62261,1,8,0:0:0:0:
150,164,62443,1,0,0:0:0:0:
150,164,62625,1,12,0:0:0:0:
150,164,62989,1,0,0:0:0:0:
150,164,63170,1,0,0:0:0:0:
150,164,63352,1,8,0:0:0:0:
150,164,63716,1,0,0:0:0:0:
150,164,64080,1,8,0:0:0:0:
150,164,64443,1,8,0:0:0:0:
150,164,64625,1,8,0:0:0:0:
150,164,64807,1,0,0:0:0:0:
150,164,64989,1,0,0:0:0:0:
156,163,65170,1,8,0:0:0:0:
150,164,65534,1,0,0:0:0:0:
150,164,65898,1,8,0:0:0:0:
156,163,66080,1,0,0:0:0:0:
150,164,66261,1,0,0:0:0:0:
150,164,66625,1,8,0:0:0:0:
146,168,66989,1,0,0:0:0:0:
148,171,67352,1,8,0:0:0:0:
150,164,67534,1,0,0:0:0:0:
146,168,67716,1,8,0:0:0:0:
146,168,67898,1,8,0:0:0:0:
148,171,68080,1,0,0:0:0:0:
148,170,68443,1,8,0:0:0:0:
141,166,69170,1,0,0:0:0:0:
136,169,69534,1,0,0:0:0:0:
137,172,69898,1,8,0:0:0:0:
136,175,70261,1,0,0:0:0:0:
136,169,70443,1,8,0:0:0:0:
137,172,70807,1,8,0:0:0:0:
137,169,70989,1,0,0:0:0:0:
138,167,71170,1,0,0:0:0:0:
136,169,71352,1,12,0:0:0:0:
137,172,71716,1,4,0:0:0:0:
138,167,72080,1,12,0:0:0:0:
137,172,72443,1,4,0:0:0:0:
137,172,72989,1,0,0:0:0:0:
137,172,73170,1,8,0:0:0:0:
137,172,73352,1,8,0:0:0:0:
137,172,73534,1,0,0:0:0:0:
137,172,73898,1,8,0:0:0:0:
137,172,74261,1,4,0:0:0:0:
137,172,74625,1,8,0:0:0:0:
137,172,74807,1,8,0:0:0:0:
137,172,74989,1,0,0:0:0:0:
137,172,75352,1,8,0:0:0:0:
137,172,75716,1,0,0:0:0:0:
137,172,76080,1,0,0:0:0:0:
137,172,76261,1,8,0:0:0:0:
137,172,76443,1,0,0:0:0:0:
137,172,76625,1,0,0:0:0:0:
137,172,76807,1,8,0:0:0:0:
137,172,77170,1,0,0:0:0:0:
137,172,77534,1,8,0:0:0:0:
137,172,77716,1,0,0:0:0:0:
137,172,77898,1,8,0:0:0:0:
137,172,78261,1,8,0:0:0:0:
137,172,78625,1,0,0:0:0:0:
137,172,78807,1,8,0:0:0:0:
137,172,78989,1,8,0:0:0:0:
137,172,79352,1,4,0:0:0:0:
137,172,79625,1,4,0:0:0:0:
137,172,79898,1,4,0:0:0:0:
137,172,80080,1,12,0:0:0:0:
137,172,80807,1,0,0:0:0:0:
137,172,81170,1,8,0:0:0:0:
137,172,81352,1,8,0:0:0:0:
137,172,81534,1,0,0:0:0:0:
137,172,81898,1,8,0:0:0:0:
133,176,82261,1,0,0:0:0:0:
137,172,82443,1,8,0:0:0:0:
137,172,82625,1,0,0:0:0:0:
138,172,82989,1,0,0:0:0:0:
137,172,83352,1,8,0:0:0:0:
137,172,83716,1,0,0:0:0:0:
137,172,83898,1,0,0:0:0:0:
137,172,84080,1,8,0:0:0:0:
137,172,84261,1,0,0:0:0:0:
137,172,84443,1,8,0:0:0:0:
137,172,85170,1,8,0:0:0:0:
137,172,85352,1,8,0:0:0:0:
137,172,85534,1,0,0:0:0:0:
137,172,85898,1,8,0:0:0:0:
137,172,86261,1,0,0:0:0:0:
137,172,86443,1,8,0:0:0:0:
137,172,86625,1,0,0:0:0:0:
137,172,86989,1,8,0:0:0:0:
137,172,87352,1,4,0:0:0:0:
137,172,87534,1,4,0:0:0:0:
137,172,87716,1,4,0:0:0:0:
137,172,88443,1,8,0:0:0:0:
137,172,88807,1,12,0:0:0:0:
137,172,89170,1,0,0:0:0:0:
137,172,89534,1,8,0:0:0:0:
137,172,89898,1,0,0:0:0:0:
137,172,90261,1,8,0:0:0:0:
137,172,90625,1,8,0:0:0:0:
137,172,90989,1,0,0:0:0:0:
137,172,91716,1,0,0:0:0:0:
137,172,92080,1,8,0:0:0:0:
137,172,92443,1,0,0:0:0:0:
137,172,92807,1,8,0:0:0:0:
137,172,93170,1,0,0:0:0:0:
137,172,93534,1,0,0:0:0:0:
137,172,93898,1,8,0:0:0:0:
137,172,94625,1,4,0:0:0:0:
137,172,94989,1,8,0:0:0:0:
137,172,95352,1,0,0:0:0:0:
137,172,95534,1,0,0:0:0:0:
137,172,95716,1,8,0:0:0:0:
137,172,96080,1,0,0:0:0:0:
137,172,96443,1,0,0:0:0:0:
137,172,96807,1,8,0:0:0:0:
137,172,96989,1,8,0:0:0:0:
137,172,97170,1,0,0:0:0:0:
137,172,97534,1,8,0:0:0:0:
137,172,97898,1,0,0:0:0:0:
137,172,98261,1,8,0:0:0:0:
137,172,98625,1,0,0:0:0:0:
137,172,98807,1,12,0:0:0:0:
172,141,99716,1,8,0:0:0:0:
172,141,100080,1,8,0:0:0:0:
131,149,100443,1,4,0:0:0:0:
131,149,100625,1,0,0:0:0:0:
131,149,100807,1,8,0:0:0:0:
131,149,101170,1,8,0:0:0:0:
131,149,101534,1,0,0:0:0:0:
131,149,101716,1,8,0:0:0:0:
131,149,102080,1,8,0:0:0:0:
136,152,102261,1,0,0:0:0:0:
131,149,102443,1,0,0:0:0:0:
131,149,102625,1,8,0:0:0:0:
124,150,103352,1,8,0:0:0:0:
124,152,103534,1,8,0:0:0:0:
124,150,103716,1,0,0:0:0:0:
124,150,104080,1,8,0:0:0:0:
124,150,104261,1,0,0:0:0:0:
124,152,104443,1,8,0:0:0:0:
124,150,104807,1,0,0:0:0:0:
124,150,105170,1,8,0:0:0:0:
124,152,105352,1,8,0:0:0:0:
124,150,105534,1,0,0:0:0:0:
124,150,105898,1,8,0:0:0:0:
124,152,106261,1,4,0:0:0:0:
124,152,106989,1,0,0:0:0:0:
124,152,107352,1,8,0:0:0:0:
124,152,107716,1,8,0:0:0:0:
124,152,107898,1,0,0:0:0:0:
124,152,108261,1,0,0:0:0:0:
124,152,108625,1,8,0:0:0:0:
124,152,108807,1,8,0:0:0:0:
124,152,109170,1,0,0:0:0:0:
124,152,109352,1,0,0:0:0:0:
124,152,109534,1,8,0:0:0:0:
124,152,109898,1,0,0:0:0:0:
124,152,110261,1,8,0:0:0:0:
124,152,110625,1,8,0:0:0:0:
124,152,110989,1,0,0:0:0:0:
124,152,111170,1,0,0:0:0:0:
124,152,111352,1,8,0:0:0:0:
124,152,111534,1,8,0:0:0:0:
124,152,111716,1,0,0:0:0:0:
124,152,112080,1,12,0:0:0:0:
124,152,112625,1,8,0:0:0:0:
124,152,113170,1,0,0:0:0:0:
124,152,113534,1,8,0:0:0:0:
124,152,113898,1,0,0:0:0:0:
124,152,114080,1,8,0:0:0:0:
119,155,114443,1,8,0:0:0:0:
117,153,114625,1,0,0:0:0:0:
121,157,114989,1,8,0:0:0:0:
125,160,115352,1,0,0:0:0:0:
123,158,115534,1,8,0:0:0:0:
125,160,116080,1,0,0:0:0:0:
123,158,116443,1,8,0:0:0:0:
123,158,117170,1,8,0:0:0:0:
123,158,117352,1,0,0:0:0:0:
123,158,117534,1,0,0:0:0:0:
123,158,117898,1,8,0:0:0:0:
123,158,118261,1,0,0:0:0:0:
123,158,118443,1,8,0:0:0:0:
123,158,118989,1,0,0:0:0:0:
123,158,119352,1,8,0:0:0:0:
123,158,119716,1,0,0:0:0:0:
123,158,119898,1,8,0:0:0:0:
123,158,120261,1,8,0:0:0:0:
123,158,120443,1,0,0:0:0:0:
123,158,120807,1,8,0:0:0:0:
117,162,121170,1,0,0:0:0:0:
123,158,121352,1,8,0:0:0:0:
123,158,121534,1,8,0:0:0:0:
122,158,121898,1,0,0:0:0:0:
123,158,122261,1,0,0:0:0:0:
122,158,122625,1,8,0:0:0:0:
122,158,122807,1,8,0:0:0:0:
123,158,122989,1,8,0:0:0:0:
122,158,123716,1,4,0:0:0:0:
122,158,124080,1,4,0:0:0:0:
153,145,125170,1,4,0:0:0:0:
153,145,125352,1,4,0:0:0:0:
153,145,125534,1,4,0:0:0:0:
142,150,126625,1,4,0:0:0:0:
142,150,126989,1,4,0:0:0:0:
153,146,128080,1,4,0:0:0:0:
153,146,128261,1,4,0:0:0:0:
153,146,128443,1,4,0:0:0:0:
137,154,129534,1,12,0:0:0:0:
137,154,129898,1,0,0:0:0:0:
137,154,130080,1,8,0:0:0:0:
137,154,130261,1,0,0:0:0:0:
137,154,130625,1,0,0:0:0:0:
137,154,130989,1,12,0:0:0:0:
137,154,131352,1,8,0:0:0:0:
137,154,131716,1,0,0:0:0:0:
137,154,131898,1,0,0:0:0:0:
137,154,132080,1,8,0:0:0:0:
137,154,132443,1,4,0:0:0:0:
137,154,132807,1,8,0:0:0:0:
137,154,132989,1,0,0:0:0:0:
149,152,133170,1,8,0:0:0:0:
137,154,133534,1,8,0:0:0:0:
143,156,133898,1,4,0:0:0:0:
147,157,134261,1,8,0:0:0:0:
143,155,134443,1,8,0:0:0:0:
143,156,134625,1,0,0:0:0:0:
135,154,135352,1,12,0:0:0:0:
135,154,135716,1,0,0:0:0:0:
135,154,135898,1,8,0:0:0:0:
135,154,136261,1,0,0:0:0:0:
135,154,136443,1,0,0:0:0:0:
135,154,136807,1,12,0:0:0:0:
135,154,137170,1,0,0:0:0:0:
135,154,137352,1,8,0:0:0:0:
135,154,137534,1,0,0:0:0:0:
135,154,137898,1,8,0:0:0:0:
131,158,138261,1,4,0:0:0:0:
135,154,138625,1,0,0:0:0:0:
135,154,138807,1,8,0:0:0:0:
131,158,139170,1,8,0:0:0:0:
135,154,139352,1,0,0:0:0:0:
135,154,139716,1,12,0:0:0:0:
136,152,140080,1,0,0:0:0:0:
135,154,140261,1,0,0:0:0:0:
135,154,140443,1,8,0:0:0:0:
135,154,140625,1,0,0:0:0:0:
136,152,140807,1,8,0:0:0:0:
135,154,141170,1,4,0:0:0:0:
154,143,142443,1,4,0:0:0:0:
154,143,142625,1,4,0:0:0:0:
154,143,143352,1,4,0:0:0:0:
154,143,144080,1,12,0:0:0:0:
154,143,144261,1,12,0:0:0:0:
154,143,144443,1,12,0:0:0:0:
154,143,144807,1,0,0:0:0:0:
154,143,144989,1,0,0:0:0:0:
154,143,145170,1,0,0:0:0:0:
154,143,145352,1,0,0:0:0:0:
154,143,145534,1,8,0:0:0:0:
176,150,146989,1,8,0:0:0:0:
176,150,147352,1,8,0:0:0:0:
176,150,147534,1,0,0:0:0:0:
176,150,147716,1,8,0:0:0:0:
176,150,148080,1,4,0:0:0:0:
256,192,148261,12,0,152807,0:0:0:0:
145,160,153170,5,8,0:0:0:0:
145,160,153716,1,8,0:0:0:0:
145,160,153898,1,4,0:0:0:0:
256,192,154080,12,0,157170,0:0:0:0:
181,162,157716,5,8,0:0:0:0:
181,162,158261,1,8,0:0:0:0:
181,162,158625,1,4,0:0:0:0:
256,192,158807,12,8,160807,0:0:0:0:
190,156,161352,5,8,0:0:0:0:
190,156,161534,1,4,0:0:0:0:
256,192,161716,12,0,163716,0:0:0:0:
173,157,164443,5,0,0:0:0:0:
173,157,164807,1,8,0:0:0:0:
173,157,165170,1,8,0:0:0:0:
173,157,165352,1,8,0:0:0:0:
173,157,165534,1,0,0:0:0:0:
173,157,165898,1,8,0:0:0:0:
173,157,166261,1,0,0:0:0:0:
173,157,166443,1,0,0:0:0:0:
173,157,166625,1,8,0:0:0:0:
173,157,166989,1,0,0:0:0:0:
173,157,167352,1,8,0:0:0:0:
173,157,167534,1,0,0:0:0:0:
173,157,167716,1,8,0:0:0:0:
173,157,168080,1,8,0:0:0:0:
173,157,168443,1,0,0:0:0:0:
173,157,168625,1,0,0:0:0:0:
173,157,168807,1,0,0:0:0:0:
173,157,169170,1,0,0:0:0:0:
168,152,169534,1,8,0:0:0:0:
165,152,169898,1,0,0:0:0:0:
166,152,170080,1,0,0:0:0:0:
168,152,170261,1,8,0:0:0:0:
256,192,173170,12,8,174625,0:0:0:0:
194,144,176080,5,12,0:0:0:0:
194,144,176443,1,0,0:0:0:0:
194,144,176807,1,8,0:0:0:0:
194,144,177170,1,8,0:0:0:0:
194,144,177352,1,8,0:0:0:0:
194,144,177534,1,0,0:0:0:0:
194,144,177898,1,0,0:0:0:0:
194,144,178080,1,8,0:0:0:0:
197,148,178625,1,8,0:0:0:0:
197,148,178989,1,0,0:0:0:0:
197,148,179352,1,0,0:0:0:0:
197,148,179716,1,8,0:0:0:0:
197,148,180080,1,8,0:0:0:0:
197,148,180261,1,0,0:0:0:0:
197,148,180443,1,8,0:0:0:0:
197,148,180807,1,8,0:0:0:0:
197,148,180989,1,0,0:0:0:0:
197,148,181534,1,8,0:0:0:0:
200,152,181898,1,0,0:0:0:0:
191,152,182625,1,0,0:0:0:0:
192,153,182807,1,8,0:0:0:0:
192,153,182989,1,8,0:0:0:0:
191,152,183352,1,0,0:0:0:0:
192,153,183716,1,0,0:0:0:0:
192,153,183898,1,8,0:0:0:0:
192,153,184443,1,0,0:0:0:0:
192,153,184807,1,12,0:0:0:0:
192,153,185170,1,0,0:0:0:0:
192,153,185534,1,12,0:0:0:0:
192,153,185898,1,8,0:0:0:0:
192,153,186443,1,4,0:0:0:0:
192,153,186625,1,4,0:0:0:0:
192,153,186989,1,8,0:0:0:0:
192,153,187170,1,8,0:0:0:0:
192,153,187352,1,0,0:0:0:0:
192,153,187716,1,12,0:0:0:0:
192,153,188080,1,8,0:0:0:0:
192,153,188261,1,0,0:0:0:0:
192,153,188443,1,8,0:0:0:0:
192,153,188807,1,0,0:0:0:0:
192,153,189170,1,8,0:0:0:0:
146,145,189898,1,0,0:0:0:0:
146,145,190261,1,8,0:0:0:0:
146,145,190443,1,0,0:0:0:0:
146,145,190625,1,8,0:0:0:0:
146,145,190989,1,8,0:0:0:0:
141,149,191352,1,0,0:0:0:0:
142,150,191716,1,0,0:0:0:0:
142,150,191898,1,0,0:0:0:0:
141,149,192080,1,12,0:0:0:0:
256,192,192261,12,0,193534,0:0:0:0:
162,144,194625,5,8,0:0:0:0:
162,144,194989,1,0,0:0:0:0:
162,144,195534,1,0,0:0:0:0:
162,144,195716,1,8,0:0:0:0:
162,144,196261,1,0,0:0:0:0:
162,144,196443,1,0,0:0:0:0:
162,144,197170,1,8,0:0:0:0:
162,144,197898,1,4,0:0:0:0:
162,144,198261,1,0,0:0:0:0:
162,144,198443,1,8,0:0:0:0:
162,144,198625,1,0,0:0:0:0:
162,144,198989,1,8,0:0:0:0:
162,144,199352,1,0,0:0:0:0:
162,144,199716,1,0,0:0:0:0:
162,144,199898,1,8,0:0:0:0:
162,144,200080,1,8,0:0:0:0:
162,144,200443,1,8,0:0:0:0:
162,144,200807,1,4,0:0:0:0:
162,144,201170,1,0,0:0:0:0:
169,143,201352,1,8,0:0:0:0:
171,148,201534,1,0,0:0:0:0:
167,152,201898,1,0,0:0:0:0:
166,157,202261,1,8,0:0:0:0:
168,156,202443,1,8,0:0:0:0:
167,152,202625,1,0,0:0:0:0:
166,157,202989,1,8,0:0:0:0:
166,157,203170,1,0,0:0:0:0:
168,156,203352,1,8,0:0:0:0:
167,152,203534,1,8,0:0:0:0:
166,157,203716,1,4,0:0:0:0:
167,152,204443,1,0,0:0:0:0:
167,152,204807,1,8,0:0:0:0:
167,152,205170,1,0,0:0:0:0:
167,152,205534,1,0,0:0:0:0:
167,152,205716,1,0,0:0:0:0:
167,152,205898,1,8,0:0:0:0:
167,152,206261,1,8,0:0:0:0:
167,152,206625,1,4,0:0:0:0:
167,152,206989,1,0,0:0:0:0:
167,152,207170,1,8,0:0:0:0:
167,152,207352,1,0,0:0:0:0:
167,152,207716,1,8,0:0:0:0:
167,152,208080,1,0,0:0:0:0:
167,152,208443,1,0,0:0:0:0:
167,152,208625,1,0,0:0:0:0:
167,152,208807,1,8,0:0:0:0:
167,152,209534,1,12,0:0:0:0:
167,152,209898,1,8,0:0:0:0:
167,152,210080,1,0,0:0:0:0:
167,152,210261,1,8,0:0:0:0:
167,152,210625,1,0,0:0:0:0:
172,150,210989,1,12,0:0:0:0:
167,152,211352,1,0,0:0:0:0:
167,152,211534,1,0,0:0:0:0:
167,152,211716,1,0,0:0:0:0:
167,152,212080,1,8,0:0:0:0:
167,152,212443,1,0,0:0:0:0:
167,152,212625,1,8,0:0:0:0:
167,152,212807,1,0,0:0:0:0:
167,152,213170,1,8,0:0:0:0:
167,152,213352,1,0,0:0:0:0:
167,152,213534,1,8,0:0:0:0:
167,152,213716,1,8,0:0:0:0:
167,152,213898,1,4,0:0:0:0:
170,157,214261,1,0,0:0:0:0:
167,157,214443,1,8,0:0:0:0:
169,159,214807,1,8,0:0:0:0:
170,157,214989,1,4,0:0:0:0:
150,164,215352,1,12,0:0:0:0:
148,164,215716,1,8,0:0:0:0:
149,165,215898,1,0,0:0:0:0:
150,164,216080,1,8,0:0:0:0:
150,164,216443,1,0,0:0:0:0:
150,164,216807,1,8,0:0:0:0:
150,164,217170,1,8,0:0:0:0:
150,164,217352,1,0,0:0:0:0:
150,164,217534,1,0,0:0:0:0:
150,164,217716,1,0,0:0:0:0:
156,163,217898,1,8,0:0:0:0:
150,164,218261,1,0,0:0:0:0:
150,164,218625,1,8,0:0:0:0:
156,163,218807,1,8,0:0:0:0:
150,164,218989,1,0,0:0:0:0:
150,164,219352,1,8,0:0:0:0:
146,168,219716,1,0,0:0:0:0:
148,171,220080,1,0,0:0:0:0:
150,164,220261,1,8,0:0:0:0:
146,168,220443,1,0,0:0:0:0:
146,168,220625,1,0,0:0:0:0:
148,171,220807,1,8,0:0:0:0:
148,170,221170,1,0,0:0:0:0:
141,166,221898,1,8,0:0:0:0:
136,169,222261,1,8,0:0:0:0:
137,172,222625,1,0,0:0:0:0:
136,175,222989,1,0,0:0:0:0:
136,169,223170,1,8,0:0:0:0:
137,172,223534,1,8,0:0:0:0:
137,169,223716,1,0,0:0:0:0:
138,167,223898,1,0,0:0:0:0:
136,169,224080,1,12,0:0:0:0:
137,172,224443,1,4,0:0:0:0:
138,167,224807,1,12,0:0:0:0:
137,172,225170,1,4,0:0:0:0:
137,172,225716,1,0,0:0:0:0:
137,172,225898,1,8,0:0:0:0:
137,172,226080,1,8,0:0:0:0:
137,172,226261,1,0,0:0:0:0:
137,172,226625,1,8,0:0:0:0:
137,172,226989,1,4,0:0:0:0:
137,172,227352,1,8,0:0:0:0:
137,172,227534,1,8,0:0:0:0:
137,172,227716,1,8,0:0:0:0:
137,172,228080,1,8,0:0:0:0:
137,172,228443,1,0,0:0:0:0:
137,172,228807,1,0,0:0:0:0:
137,172,228989,1,0,0:0:0:0:
137,172,229170,1,8,0:0:0:0:
137,172,229352,1,8,0:0:0:0:
137,172,229534,1,0,0:0:0:0:
137,172,229898,1,8,0:0:0:0:
137,172,230261,1,0,0:0:0:0:
137,172,230443,1,0,0:0:0:0:
137,172,230625,1,0,0:0:0:0:
137,172,230989,1,8,0:0:0:0:
137,172,231352,1,0,0:0:0:0:
137,172,231534,1,8,0:0:0:0:
137,172,231716,1,8,0:0:0:0:
137,172,232080,1,4,0:0:0:0:
137,172,232352,1,4,0:0:0:0:
137,172,232625,1,4,0:0:0:0:
137,172,232807,1,12,0:0:0:0:
137,172,233534,1,8,0:0:0:0:
137,172,233898,1,0,0:0:0:0:
137,172,234080,1,8,0:0:0:0:
137,172,234261,1,0,0:0:0:0:
137,172,234625,1,8,0:0:0:0:
133,176,234989,1,0,0:0:0:0:
137,172,235170,1,0,0:0:0:0:
137,172,235352,1,8,0:0:0:0:
138,172,235716,1,0,0:0:0:0:
137,172,236080,1,8,0:0:0:0:
137,172,236443,1,0,0:0:0:0:
137,172,236625,1,8,0:0:0:0:
137,172,236807,1,0,0:0:0:0:
137,172,236989,1,0,0:0:0:0:
137,172,237170,1,8,0:0:0:0:
137,172,237898,1,8,0:0:0:0:
137,172,238080,1,8,0:0:0:0:
137,172,238261,1,0,0:0:0:0:
137,172,238625,1,8,0:0:0:0:
137,172,238989,1,0,0:0:0:0:
137,172,239170,1,8,0:0:0:0:
137,172,239352,1,0,0:0:0:0:
137,172,239716,1,8,0:0:0:0:
137,172,240080,1,4,0:0:0:0:
137,172,240261,1,4,0:0:0:0:
137,172,240443,1,4,0:0:0:0:
137,172,241170,1,8,0:0:0:0:
137,172,241534,1,8,0:0:0:0:
149,171,241898,1,0,0:0:0:0:
161,167,242261,1,8,0:0:0:0:
161,167,242443,1,8,0:0:0:0:
161,167,242625,1,0,0:0:0:0:
161,167,242989,1,8,0:0:0:0:
161,160,243352,1,0,0:0:0:0:
161,160,243534,1,0,0:0:0:0:
161,160,243716,1,8,0:0:0:0:
161,160,243898,1,8,0:0:0:0:
161,160,244080,1,8,0:0:0:0:
161,160,244443,1,0,0:0:0:0:
161,160,244807,1,8,0:0:0:0:
161,160,244989,1,0,0:0:0:0:
161,160,245170,1,8,0:0:0:0:
161,160,245534,1,8,0:0:0:0:
161,160,245898,1,4,0:0:0:0:
161,160,246080,1,4,0:0:0:0:
161,160,246261,1,4,0:0:0:0:
256,192,248807,12,0,252989,0:0:0:0:
131,149,253352,5,0,0:0:0:0:
131,149,253716,1,0,0:0:0:0:
131,149,253898,1,8,0:0:0:0:
131,149,254261,1,8,0:0:0:0:
131,149,254625,1,4,0:0:0:0:
131,149,254807,1,0,0:0:0:0:
131,149,254989,1,8,0:0:0:0:
131,149,255352,1,0,0:0:0:0:
131,149,255716,1,8,0:0:0:0:
131,149,255898,1,8,0:0:0:0:
131,149,256261,1,0,0:0:0:0:
136,152,256443,1,0,0:0:0:0:
131,149,256625,1,0,0:0:0:0:
131,149,256807,1,8,0:0:0:0:
124,150,257534,1,8,0:0:0:0:
124,152,257716,1,8,0:0:0:0:
124,150,257898,1,0,0:0:0:0:
124,150,258261,1,8,0:0:0:0:
124,150,258443,1,0,0:0:0:0:
124,152,258625,1,8,0:0:0:0:
124,150,258989,1,0,0:0:0:0:
124,150,259352,1,8,0:0:0:0:
124,152,259534,1,8,0:0:0:0:
124,150,259716,1,0,0:0:0:0:
124,150,260080,1,8,0:0:0:0:
124,152,260443,1,4,0:0:0:0:
124,152,261170,1,0,0:0:0:0:
124,152,261352,1,0,0:0:0:0:
124,152,261534,1,8,0:0:0:0:
124,152,261898,1,0,0:0:0:0:
124,152,262080,1,8,0:0:0:0:
124,152,262443,1,0,0:0:0:0:
124,152,262807,1,8,0:0:0:0:
124,152,262989,1,8,0:0:0:0:
124,152,263352,1,0,0:0:0:0:
124,152,263534,1,0,0:0:0:0:
124,152,263716,1,8,0:0:0:0:
124,152,264080,1,0,0:0:0:0:
124,152,264443,1,0,0:0:0:0:
124,152,264807,1,8,0:0:0:0:
117,154,264989,1,8,0:0:0:0:
124,152,265170,1,0,0:0:0:0:
124,152,265534,1,8,0:0:0:0:
124,152,265716,1,0,0:0:0:0:
124,152,265898,1,8,0:0:0:0:
124,152,266080,1,8,0:0:0:0:
