osu file format v14

[General]
AudioFilename: audio.mp3
AudioLeadIn: 0
PreviewTime: 15994
Countdown: 0
SampleSet: Soft
StackLeniency: 0.4
Mode: 0
LetterboxInBreaks: 0
WidescreenStoryboard: 1

[Editor]
Bookmarks: 62630,88812,146994,176085,215357,254630
DistanceSpacing: 0.6
BeatDivisor: 4
GridSize: 32
TimelineZoom: 2.500001

[Metadata]
Title:Shukusei!! Loli-Kami Requiem*
TitleUnicode:粛聖!! ロリ神レクイエム☆
Artist:Shigure Ui (9-sai)
ArtistUnicode:しぐれうい(9さい)
Creator:Vararaup
Version:Disgusting...
Source:
Tags:loli god mada ame wa yamanai the rain doesn't stop yet japanese pop jpop j-pop 9 sai 9sai years old iosys まろん maron d.watt ががめ gagame utsugame 犬山たまき inuyama tamaki 丸岡詩織 studio msr 片田浩史 sony music studios tokyo lancien keywee deppyforce gorou wanpachi
BeatmapID:4322683
BeatmapSetID:2066239

[Difficulty]
HPDrainRate:5
CircleSize:4
OverallDifficulty:8.8
ApproachRate:9.2
SliderMultiplier:2.1
SliderTickRate:1

[Events]
//Background and Video events
Video,0,"video.mp4"
0,0,"bg.jpg",0,0
//Break Periods
//Storyboard Layer 0 (Background)
//Storyboard Layer 1 (Fail)
//Storyboard Layer 2 (Pass)
//Storyboard Layer 3 (Foreground)
//Storyboard Layer 4 (Overlay)
//Storyboard Sound Samples

[TimingPoints]
85,363.636363636364,4,2,1,40,1,0
1539,-125,4,2,1,40,0,0
14448,-125,4,2,1,50,0,0
14630,-83.3333333333333,4,2,1,50,0,0
16085,-83.3333333333333,4,2,1,70,0,1
27357,-66.6666666666667,4,2,1,70,0,1
27721,-111.111111111111,4,2,1,50,0,0
40812,-100,4,2,2,60,0,0
43357,-83.3333333333333,4,2,2,60,0,0
43721,-100,4,2,2,60,0,0
46266,-83.3333333333333,4,2,2,60,0,0
46630,-333.333333333333,4,2,2,60,0,0
46994,-83.3333333333333,4,2,2,60,0,0
47357,-333.333333333333,4,2,2,60,0,0
47721,-83.3333333333333,4,2,2,60,0,0
48085,-83.3333333333333,4,2,1,60,0,0
49221,-83.3333333333333,4,2,1,5,0,0
49266,-83.3333333333333,4,2,1,60,0,0
50994,-166.666666666667,4,2,1,60,0,0
59721,-125,4,2,1,60,0,0
60448,-111.111111111111,4,2,1,60,0,0
61175,-100,4,2,1,60,0,0
61903,-125,4,2,1,60,0,0
62630,-83.3333333333333,4,2,1,70,0,1
64630,-55.5555555555556,4,2,1,70,0,1
64994,-83.3333333333333,4,2,1,70,0,1
67539,-55.5555555555556,4,2,1,70,0,1
67903,-83.3333333333333,4,2,1,70,0,1
70448,-66.6666666666667,4,2,1,70,0,1
70812,-83.3333333333333,4,2,1,70,0,1
71721,-55.5555555555556,4,2,1,70,0,1
72812,-83.3333333333333,4,2,1,70,0,1
73903,-66.6666666666667,4,2,1,70,0,1
74266,-83.3333333333333,4,2,1,70,0,1
76266,-55.5555555555556,4,2,1,70,0,1
76630,-83.3333333333333,4,2,1,70,0,1
79357,-55.5555555555556,4,2,1,70,0,1
79812,-83.3333333333333,4,2,1,70,0,1
87721,-100,4,2,1,60,0,0
100448,-83.3333333333333,4,2,1,70,0,1
111721,-66.6666666666667,4,2,1,70,0,1
112085,-111.111111111111,4,2,1,50,0,0
121175,-333.333333333333,4,2,1,50,0,0
121539,-111.111111111111,4,2,1,50,0,0
121903,-333.333333333333,4,2,1,50,0,0
122266,-111.111111111111,4,2,1,50,0,0
122857,-111.111111111111,4,2,1,5,0,0
122903,-111.111111111111,4,2,1,50,0,0
122948,-111.111111111111,4,2,1,5,0,0
122994,-111.111111111111,4,2,1,50,0,0
123721,-55.5555555555556,4,2,1,70,0,0
124448,-333.333333333333,4,2,1,50,0,0
125175,-55.5555555555556,4,2,1,70,0,0
125903,-333.333333333333,4,2,1,50,0,0
126630,-55.5555555555556,4,2,1,70,0,0
127357,-333.333333333333,4,2,1,50,0,0
128085,-55.5555555555556,4,2,1,70,0,0
128812,-333.333333333333,4,2,1,50,0,0
129539,-100,4,2,1,70,0,0
130312,-100,4,2,1,5,0,0
130357,-100,4,2,1,70,0,0
135357,-90.9090909090909,4,2,2,70,0,0
141175,-90.9090909090909,4,2,1,70,0,0
146994,-83.3333333333333,4,2,1,50,0,0
148085,-10,4,2,1,50,0,1
152812,-83.3333333333333,4,2,1,60,0,0
153903,-10,4,2,1,50,0,1
157175,-83.3333333333333,4,2,1,60,0,0
158630,-10,4,2,1,50,0,1
160812,-83.3333333333333,4,2,1,60,0,0
161539,-10,4,2,1,50,0,1
163721,-83.3333333333333,4,2,1,60,0,0
167357,-100,4,2,1,60,0,0
167721,-86.9565217391304,4,2,1,60,0,0
168085,-76.9230769230769,4,2,1,60,0,0
168448,-68.9655172413793,4,2,1,60,0,0
168812,-62.5,4,2,1,60,0,0
169175,-57.1428571428571,4,2,1,60,0,0
169539,-52.6315789473684,4,2,1,60,0,0
169903,-47.6190476190476,4,2,1,60,0,0
170357,-55.5555555555556,4,2,1,5,0,0
176085,-100,4,2,2,50,0,0
184812,-100,4,2,1,60,0,0
187357,-83.3333333333333,4,2,1,60,0,0
192085,-303.030303030303,4,2,1,60,0,0
194266,-303.030303030303,4,2,1,5,0,0
194630,-303.030303030303,4,2,1,40,0,0
197903,-83.3333333333333,4,2,1,60,0,0
210266,-71.4285714285714,4,2,1,65,0,0
210994,-62.5,4,2,1,70,0,0
211721,-55.5555555555556,4,2,1,70,0,0
212448,-83.3333333333333,4,2,1,70,0,0
213175,-66.6666666666667,4,2,1,70,0,0
214266,-100,4,2,1,70,0,0
214994,-55.5555555555556,4,2,1,70,0,0
215357,-83.3333333333333,4,2,1,70,0,1
217357,-55.5555555555556,4,2,1,70,0,1
217721,-83.3333333333333,4,2,1,70,0,1
220266,-55.5555555555556,4,2,1,70,0,1
220630,-83.3333333333333,4,2,1,70,0,1
223175,-66.6666666666667,4,2,1,70,0,1
223539,-83.3333333333333,4,2,1,70,0,1
224448,-55.5555555555556,4,2,1,70,0,1
225539,-83.3333333333333,4,2,1,70,0,1
226630,-66.6666666666667,4,2,1,70,0,1
226994,-83.3333333333333,4,2,1,70,0,1
228994,-55.5555555555556,4,2,1,70,0,1
229357,-83.3333333333333,4,2,1,70,0,1
232085,-55.5555555555556,4,2,1,70,0,1
232539,-83.3333333333333,4,2,1,70,0,1
240448,-100,4,2,1,60,0,0
241539,-83.3333333333333,4,2,1,70,0,1
246266,-333.333333333333,4,2,1,70,0,0
248085,-333.333333333333,4,2,1,40,0,0
253175,-83.3333333333333,4,2,1,50,0,0
254630,-83.3333333333333,4,2,1,70,0,1
260448,-333.333333333333,4,2,1,70,0,1
263357,-83.3333333333333,4,2,1,70,0,1
265903,-66.6666666666667,4,2,1,70,0,1
266266,-66.6666666666667,4,2,1,5,0,0

[Colours]
Combo1 : 255,170,85
Combo2 : 255,85,149
Combo3 : 173,224,116
Combo4 : 255,85,85

[HitObjects]
31,272,1539,6,0,P|35:313|37:355,1,84,2|0,0:0|0:0,0:0:0:0:
124,263,1903,2,0,P|128:304|130:346,1,84,2|0,0:0|0:0,0:0:0:0:
222,336,2266,6,0,P|220:294|215:252,1,84,2|0,0:0|0:0,0:0:0:0:
315,327,2630,2,0,P|313:285|308:243,1,84,2|0,0:0|0:0,0:0:0:0:
400,232,2994,6,0,P|404:273|406:315,3,84,2|0|0|0,0:0|0:0|0:0|0:0,0:0:0:0:
493,223,3721,2,0,P|497:264|499:306,3,84
485,125,4448,6,0,P|483:83|478:41,1,84,2|0,0:0|0:0,0:0:0:0:
392,134,4812,2,0,P|390:92|385:50,1,84,2|0,0:0|0:0,0:0:0:0:
293,61,5175,6,0,P|297:102|299:144,1,84,2|0,0:0|0:0,0:0:0:0:
200,70,5539,2,0,P|204:111|206:153,1,84,2|0,0:0|0:0,0:0:0:0:
116,165,5902,6,0,P|114:123|109:81,3,84,2|0|0|0,0:0|0:0|0:0|0:0,0:0:0:0:
23,174,6630,2,0,P|19:111|9:48,2,126,2|2|2,0:0|0:0|0:0,0:0:0:0:
19,286,7357,6,0,P|96:255|178:265,1,168,2|0,0:0|0:0,0:0:0:0:
272,332,7903,1,2,0:0:0:0:
272,332,8085,2,0,P|354:342|431:311,1,168,2|0,0:0|0:0,0:0:0:0:
509,235,8630,1,2,0:0:0:0:
432,156,8812,1,2,0:0:0:0:
256,192,10266,5,0,0:0:0:0:
256,192,10357,12,8,14448,0:0:0:0:
436,153,14812,6,0,P|450:124|473:103,1,62.9999980773926,8|0,0:0|0:0,0:0:0:0:
436,153,14994,2,0,B|421:145|421:145|404:153|404:153|388:145|388:145|372:152|372:152|356:145|356:145|340:153|340:153|324:145,1,125.999996154785,0|0,3:0|0:0,0:0:0:0:
245,117,15267,1,0,3:0:0:0:
245,117,15358,2,0,P|233:39|308:64,1,188.999994232178,2|0,3:2|0:0,0:0:0:0:
323,144,15721,6,0,P|325:179|316:206,1,62.9999980773926,2|0,0:0|0:0,0:0:0:0:
353,155,15903,2,0,P|338:186|316:205,1,62.9999980773926
167,332,16085,5,2,1:0:0:0:
65,113,16266,1,2,0:0:0:0:
317,206,16448,1,10,0:0:0:0:
78,268,16630,1,2,0:0:0:0:
246,92,16812,5,2,1:0:0:0:
68,277,16994,1,2,0:0:0:0:
19,23,17175,2,0,P|77:25|144:23,1,125.999996154785,8|2,0:0|0:0,0:0:0:0:
224,3,17448,5,0,3:0:0:0:
224,3,17539,2,0,P|219:66|219:129,1,125.999996154785,0|2,1:0|0:0,0:0:0:0:
364,269,17903,1,10,0:0:0:0:
364,269,17994,1,0,3:0:0:0:
364,269,18085,1,2,3:2:0:0:
364,269,18175,1,0,3:0:0:0:
364,268,18266,2,0,P|346:294|321:312,1,62.9999980773926,2|0,1:0|0:0,0:0:0:0:
239,233,18448,2,0,P|256:206|281:188,1,62.9999980773926,2|0,3:2|0:0,0:0:0:0:
477,100,18630,2,0,P|440:176|365:136,1,188.999994232178,8|0,0:0|0:0,0:0:0:0:
354,37,18994,6,0,L|416:28,3,62.9999980773926,2|0|0|0,1:0|0:0|0:0|0:0,0:0:0:0:
219,108,19357,2,0,L|281:99,3,62.9999980773926,10|0|0|0,0:0|0:0|0:0|0:0,0:0:0:0:
67,67,19721,2,0,L|58:4,3,62.9999980773926,2|0|0|0,1:0|0:0|0:0|0:0,0:0:0:0:
115,207,20085,2,0,L|123:144,3,62.9999980773926,10|0|0|0,0:0|0:0|0:0|0:0,0:0:0:0:
5,304,20448,5,0,1:0:0:0:
50,283,20539,1,0,3:0:0:0:
100,287,20630,1,0,3:0:0:0:
138,319,20721,1,0,3:0:0:0:
185,337,20812,1,8,0:0:0:0:
235,334,20903,1,0,3:0:0:0:
281,315,20994,1,0,3:0:0:0:
311,274,21085,1,0,3:0:0:0:
309,224,21175,5,0,1:0:0:0:
290,284,21266,1,0,3:0:0:0:
236,316,21357,1,0,3:0:0:0:
173,304,21448,1,0,3:0:0:0:
142,248,21539,1,8,0:0:0:0:
148,185,21630,1,0,3:0:0:0:
185,134,21721,1,0,3:0:0:0:
240,103,21812,1,0,3:0:0:0:
284,57,21903,5,2,1:0:0:0:
68,0,22085,2,0,P|70:62|70:125,1,125.999996154785,2|8,0:0|0:0,0:0:0:0:
226,226,22448,1,2,0:0:0:0:
226,226,22539,1,0,0:0:0:0:
226,226,22630,2,0,B|273:232|322:207|297:181|340:149|391:152,1,188.999994232178,2|0,1:0|0:0,0:0:0:0:
473,188,22994,2,0,P|445:241|385:240,1,125.999996154785,10|0,0:0|0:0,0:0:0:0:
230,129,23357,5,2,1:0:0:0:
493,36,23539,1,2,0:0:0:0:
493,36,23630,1,0,0:0:0:0:
493,36,23721,1,10,0:0:0:0:
390,151,23903,2,0,P|391:89|389:25,1,125.999996154785,2|0,0:0|1:0,0:0:0:0:
369,7,24175,6,0,P|369:165|363:322,1,314.999990386963,2|0,0:0|0:0,0:0:0:0:
484,191,24812,5,2,1:0:0:0:
222,74,24994,1,2,0:0:0:0:
230,202,25175,2,0,P|167:200|104:203,1,125.999996154785,10|0,0:0|1:0,0:0:0:0:
277,320,25539,5,2,0:0:0:0:
415,117,25721,1,2,0:0:0:0:
330,69,25903,5,10,0:0:0:0:
495,180,26085,1,2,0:0:0:0:
373,357,26266,5,2,0:0:0:0:
373,357,26448,1,2,1:0:0:0:
501,91,26630,1,10,0:0:0:0:
274,153,26812,1,2,1:0:0:0:
488,302,26994,6,0,L|426:287,1,62.9999980773926,2|0,1:0|0:0,0:0:0:0:
197,203,27175,2,0,L|262:188,1,62.9999980773926,0|0,1:0|0:0,0:0:0:0:
408,44,27357,6,0,L|372:357,1,315.000012016297,8|0,0:0|1:0,0:0:0:0:
51,285,29175,6,0,P|142:277|206:342,1,188.999994232178,6|8,1:0|0:1,0:0:0:0:
206,342,29721,1,0,1:0:0:0:
345,195,29903,2,0,P|316:232|273:248,2,94.499997116089,2|2|10,0:0|0:0|0:1,0:0:0:0:
324,53,30448,1,2,0:0:0:0:
148,123,30630,6,0,P|148:75|146:28,1,94.499997116089,0|2,1:0|0:0,0:0:0:0:
14,128,30994,1,8,0:1:0:0:
140,222,31175,2,0,B|187:227|236:202|210:176|254:144|304:147,1,188.999994232178,2|0,1:0|1:0,0:0:0:0:
304,147,31721,1,8,0:1:0:0:
482,31,31903,5,2,0:0:0:0:
482,31,32085,2,0,P|479:125|479:219,1,188.999994232178,2|8,1:0|0:1,0:0:0:0:
300,337,32630,1,2,1:0:0:0:
358,223,32812,1,2,0:0:0:0:
501,332,32994,2,0,P|453:330|406:332,1,94.499997116089,2|8,0:0|0:1,0:0:0:0:
210,380,33357,2,0,P|200:335|211:289,1,94.499997116089,2|0,0:0|1:0,0:0:0:0:
363,112,33721,6,0,L|368:65,1,47.2499985580445
353,111,33903,2,0,L|358:64,1,47.2499985580445,8|0,0:1|0:0,0:0:0:0:
225,154,34085,6,0,L|193:159,2,31.4999990386963,2|0|0,1:0|0:0|0:0,0:0:0:0:
303,179,34266,5,2,3:2:0:0:
304,193,34357,1,0,3:0:0:0:
306,207,34448,1,10,1:0:0:0:
273,0,34630,1,10,0:1:0:0:
512,32,34994,6,0,P|447:97|356:89,1,188.999994232178,2|8,1:0|0:1,0:0:0:0:
356,89,35539,1,0,1:0:0:0:
211,177,35721,2,0,P|176:145|130:137,2,94.499997116089,2|2|10,0:0|0:0|0:1,0:0:0:0:
248,309,36266,1,2,0:0:0:0:
342,191,36448,6,0,P|340:239|340:286,1,94.499997116089,0|2,1:0|0:0,0:0:0:0:
472,215,36812,1,8,0:1:0:0:
351,81,36994,2,0,B|296:66|253:111|253:111|243:160|211:176,1,188.999994232178,2|0,1:0|1:0,0:0:0:0:
210,176,37539,1,8,0:1:0:0:
21,261,37721,5,2,0:0:0:0:
21,261,37903,2,0,P|11:307|26:351,1,94.499997116089,2|0,1:0|0:0,0:0:0:0:
173,337,38266,2,0,P|182:291|167:247,1,94.499997116089,10|0,0:1|1:0,0:0:0:0:
79,81,38630,5,2,1:0:0:0:
40,162,38812,2,0,P|85:171|129:156,1,94.499997116089,2|8,0:0|0:1,0:0:0:0:
255,2,39175,6,0,P|253:49|254:96,1,94.499997116089,2|0,0:0|1:0,0:0:0:0:
257,301,39539,5,0,0:0:0:0:
254,311,39721,1,0,0:0:0:0:
258,320,39903,1,0,0:0:0:0:
254,330,40085,1,0,0:0:0:0:
254,330,40448,1,2,0:0:0:0:
480,248,40812,6,0,P|488:198|500:146,1,105,0|0,1:0|0:0,0:0:0:0:
396,14,41175,2,0,P|386:64|372:116,1,105,8|0,0:0|0:0,0:0:0:0:
352,196,41448,1,0,0:0:0:0:
352,196,41539,1,2,1:0:0:0:
476,60,41721,1,2,0:0:0:0:
263,95,41903,1,10,0:0:0:0:
221,234,42085,5,2,3:2:0:0:
221,234,42175,1,0,3:0:0:0:
221,234,42266,2,0,P|233:285|241:336,1,105,0|2,1:0|0:0,0:0:0:0:
54,181,42630,6,0,P|45:205|38:231,1,52.5,8|0,0:0|0:0,0:0:0:0:
141,308,42812,2,0,P|135:282|127:257,1,52.5,2|0,3:2|0:0,0:0:0:0:
37,97,42994,5,0,1:0:0:0:
38,87,43085,1,0,3:0:0:0:
41,78,43175,1,0,3:0:0:0:
44,68,43266,1,0,3:0:0:0:
47,58,43357,2,0,B|79:51|98:80|98:80|115:108|115:108|133:137|169:144|198:122,1,188.999994232178,8|0,0:0|0:0,0:0:0:0:
298,77,43721,6,0,P|218:33|199:122,1,210,2|8,1:0|0:0,0:0:0:0:
185,246,44266,5,2,0:0:0:0:
185,246,44357,1,0,3:0:0:0:
185,246,44448,2,0,P|254:209|332:214,1,157.5,2|0,1:0|0:0,0:0:0:0:
408,250,44812,2,0,P|391:274|368:291,1,52.5,8|0,0:0|0:0,0:0:0:0:
229,356,44994,1,2,3:2:0:0:
218,326,45085,1,0,3:0:0:0:
244,309,45175,1,0,1:0:0:0:
472,140,45357,5,0,3:0:0:0:
465,159,45448,1,0,3:0:0:0:
460,179,45539,1,8,0:0:0:0:
446,150,45630,1,0,3:0:0:0:
433,120,45721,1,2,3:2:0:0:
420,91,45812,1,0,3:0:0:0:
408,61,45903,1,2,1:0:0:0:
371,81,45994,1,0,3:0:0:0:
334,101,46085,1,0,3:0:0:0:
299,123,46175,1,0,3:0:0:0:
262,144,46266,2,0,P|343:112|320:29,1,188.999994232178,10|0,0:0|0:0,0:0:0:0:
135,14,46630,6,0,L|88:5,1,47.2499985580445,2|0,0:0|0:0,0:0:0:0:
11,15,46994,2,0,L|197:46,1,188.999994232178,8|0,0:0|0:0,0:0:0:0:
351,94,47357,6,0,L|397:102,1,47.2499985580445,2|0,0:0|0:0,0:0:0:0:
475,93,47721,2,0,L|288:61,1,188.999994232178,8|0,0:0|0:0,0:0:0:0:
135,14,48085,5,10,0:0:0:0:
114,188,48266,1,10,0:0:0:0:
92,362,48448,1,10,0:0:0:0:
99,186,48630,6,0,L|91:144,2,41.9999987182618
62,264,48812,5,10,0:0:0:0:
109,280,48903,1,0,3:0:0:0:
151,252,48994,1,0,3:0:0:0:
288,61,49175,6,0,L|284:29,1,31.4999990386963,6|0,0:0|0:0,0:0:0:0:
510,197,49539,5,2,1:0:0:0:
428,346,49721,1,2,1:0:0:0:
258,315,49903,1,2,1:0:0:0:
233,147,50085,1,2,1:0:0:0:
390,70,50266,1,2,1:0:0:0:
405,85,50630,5,10,0:0:0:0:
405,85,50721,1,8,0:0:0:0:
405,85,50812,1,8,0:0:0:0:
405,85,50903,1,8,0:0:0:0:
405,85,50994,2,0,B|417:126|417:126|410:169|410:169|420:207,2,125.999996154785,2|2|10,1:0|0:0|0:0,0:0:0:0:
405,85,52085,1,2,1:0:0:0:
69,44,52448,6,0,B|60:110|60:110|118:90,1,125.999996154785,2|2,0:0|1:0,0:0:0:0:
142,14,52994,1,2,0:0:0:0:
282,68,53175,2,0,B|218:82|218:82|210:124|210:124|200:139,1,125.999996154785,10|2,0:0|0:0,0:0:0:0:
200,139,53903,5,2,1:0:0:0:
107,156,54085,1,2,0:0:0:0:
123,249,54267,1,2,0:0:0:0:
216,231,54448,1,2,0:0:0:0:
363,48,54630,5,10,0:0:0:0:
442,62,54812,1,2,0:0:0:0:
428,141,54994,1,2,1:0:0:0:
349,126,55175,1,2,0:0:0:0:
216,231,55357,6,0,L|210:293,1,62.9999980773926,2|2,0:0|0:0,0:0:0:0:
301,302,55721,2,0,L|306:239,1,62.9999980773926,2|2,1:0|0:0,0:0:0:0:
281,37,56085,5,10,0:0:0:0:
281,37,56448,1,2,0:0:0:0:
110,248,56812,6,0,B|79:219|79:219|35:224|35:224|-2:206,2,125.999996154785,2|2|10,1:0|0:0|0:0,0:0:0:0:
110,248,57903,1,2,1:0:0:0:
451,279,58266,5,2,0:0:0:0:
352,199,58448,1,2,0:0:0:0:
325,322,58630,1,2,1:0:0:0:
325,322,58994,2,0,B|304:307|304:307|315:252|315:252|294:212,1,125.999996154785,10|2,0:0|0:0,0:0:0:0:
308,16,59721,6,0,P|318:56|308:96,1,84,0|0,1:0|0:0,0:0:0:0:
203,96,60085,2,0,P|193:56|204:16,1,84,0|0,1:0|0:0,0:0:0:0:
403,84,60448,6,0,P|393:134|367:167,1,94.499997116089,8|0,0:0|0:0,0:0:0:0:
144,167,60812,2,0,P|116:130|109:84,1,94.499997116089,0|0,1:0|0:0,0:0:0:0:
465,193,61175,6,0,P|426:241|388:259,1,105,0|0,1:0|0:0,0:0:0:0:
123,259,61539,2,0,P|77:234|47:193,1,105,0|0,1:0|1:0,0:0:0:0:
308,16,61903,5,8,0:0:0:0:
318,56,61993,1,8,0:0:0:0:
308,96,62084,1,8,0:0:0:0:
204,16,62266,5,8,0:0:0:0:
193,56,62356,1,8,0:0:0:0:
203,96,62447,1,8,0:0:0:0:
465,192,62630,5,6,1:0:0:0:
465,192,62721,1,0,0:0:0:0:
465,192,62812,2,0,L|454:258,1,62.9999980773926,2|0,0:0|0:0,0:0:0:0:
349,303,62994,5,10,0:0:0:0:
349,303,63085,1,0,0:0:0:0:
349,303,63176,2,0,L|359:368,1,62.9999980773926,2|0,0:0|0:0,0:0:0:0:
255,180,63357,5,2,1:0:0:0:
255,180,63448,1,0,0:0:0:0:
255,180,63539,2,0,L|244:247,1,62.9999980773926,2|0,0:0|0:0,0:0:0:0:
138,275,63721,5,10,0:0:0:0:
138,275,63812,1,0,0:0:0:0:
138,275,63903,2,0,L|148:341,1,62.9999980773926,2|0,0:0|0:0,0:0:0:0:
10,178,64085,6,0,P|102:171|170:108,1,188.999994232178,2|0,1:0|0:0,0:0:0:0:
65,86,64448,1,8,0:0:0:0:
244,242,64630,6,0,B|348:113|428:92|534:114|499:247|398:202,1,377.999988464356,6|0,0:0|0:0,0:0:0:0:
267,34,65175,1,10,0:0:0:0:
487,106,65357,1,2,0:0:0:0:
333,354,65539,5,2,1:0:0:0:
333,354,65630,1,0,0:0:0:0:
333,354,65721,2,0,L|267:333,1,62.9999980773926,2|0,0:0|0:0,0:0:0:0:
105,305,65903,5,10,0:0:0:0:
105,305,65994,1,0,0:0:0:0:
105,305,66085,2,0,L|171:284,1,62.9999980773926,2|0,0:0|0:0,0:0:0:0:
356,245,66266,5,2,1:0:0:0:
356,245,66357,1,0,0:0:0:0:
356,245,66448,2,0,L|290:224,1,62.9999980773926,2|0,0:0|0:0,0:0:0:0:
80,194,66630,5,10,0:0:0:0:
80,194,66721,1,0,0:0:0:0:
80,194,66812,2,0,L|146:173,1,62.9999980773926,2|0,0:0|0:0,0:0:0:0:
351,103,66994,6,0,P|259:96|191:33,1,188.999994232178,2|0,1:0|0:0,0:0:0:0:
296,11,67357,1,8,0:0:0:0:
355,244,67539,6,0,P|175:200|58:57,1,377.999988464356,6|0,0:0|0:0,0:0:0:0:
296,11,68085,2,0,P|293:74|296:137,1,125.999996154785,10|0,0:0|0:0,0:0:0:0:
164,332,68448,6,0,P|183:273|233:235,1,125.999996154785,2|0,1:0|0:0,0:0:0:0:
474,255,68812,2,0,P|413:267|355:243,1,125.999996154785,10|0,0:0|0:0,0:0:0:0:
197,67,69175,5,2,1:0:0:0:
422,169,69357,1,0,3:0:0:0:
422,169,69448,1,0,3:0:0:0:
422,169,69539,2,0,P|419:106|421:43,1,125.999996154785,10|0,0:0|0:0,0:0:0:0:
281,360,69903,2,0,P|283:265|281:171,1,188.999994232178,2|0,1:0|0:0,0:0:0:0:
280,92,70266,1,8,0:0:0:0:
464,341,70448,6,0,P|341:247|187:252,1,315.000012016297,6|0,0:0|0:0,0:0:0:0:
71,287,70994,2,0,P|133:284|186:252,1,125.999996154785,10|0,0:0|0:0,0:0:0:0:
256,1,71357,5,2,1:0:0:0:
256,1,71721,2,0,B|226:29|146:9|146:9|142:57|89:84|89:84|129:103|145:148,1,283.499991348267,10|0,0:0|0:0,0:0:0:0:
257,173,72085,5,2,1:0:0:0:
257,173,72449,2,0,B|287:145|367:165|367:165|371:117|424:90|424:90|384:71|368:26,1,283.499991348267,10|0,0:0|0:0,0:0:0:0:
256,1,72812,2,0,L|249:63,1,62.9999980773926,2|0,0:0|0:0,0:0:0:0:
138,132,72994,6,0,L|148:195,1,62.9999980773926,0|0,1:0|0:0,0:0:0:0:
227,335,73175,2,0,L|217:272,1,62.9999980773926,8|0,0:0|0:0,0:0:0:0:
41,147,73357,5,0,1:0:0:0:
49,196,73448,1,0,3:0:0:0:
58,245,73539,1,0,1:0:0:0:
67,294,73630,1,0,1:0:0:0:
77,343,73721,2,0,L|140:333,1,62.9999980773926,0|0,1:0|1:0,0:0:0:0:
346,276,73903,6,0,B|330:293|318:310|318:310|286:121,1,236.250009012223,8|0,0:0|0:0,0:0:0:0:
272,40,74266,5,6,1:0:0:0:
415,181,74448,1,2,0:0:0:0:
201,96,74630,5,10,0:0:0:0:
445,96,74812,1,2,0:0:0:0:
175,184,74994,5,2,1:0:0:0:
425,11,75175,1,2,0:0:0:0:
185,5,75357,5,10,0:0:0:0:
347,237,75539,1,2,0:0:0:0:
512,36,75721,2,0,B|461:33|418:65|443:91|394:116|347:110,1,188.999994232178,2|0,1:0|0:0,0:0:0:0:
278,70,76085,1,8,0:0:0:0:
92,231,76266,6,0,P|229:164|178:306,1,377.999988464356,6|2,0:0|0:0,0:0:0:0:
0,305,76812,1,10,0:0:0:0:
0,162,76994,1,2,0:0:0:0:
278,70,77175,5,2,1:0:0:0:
174,225,77357,1,2,0:0:0:0:
341,140,77539,5,10,0:0:0:0:
113,156,77721,1,2,0:0:0:0:
329,230,77903,5,2,1:0:0:0:
114,62,78085,1,2,0:0:0:0:
374,53,78266,5,10,0:0:0:0:
84,245,78448,1,2,0:0:0:0:
232,355,78630,6,0,B|229:289|230:213|230:213|249:199|262:177,1,188.999994232178,2|0,1:0|0:0,0:0:0:0:
180,104,78994,1,10,0:0:0:0:
180,104,79085,2,0,L|184:135,4,31.4999990386963,8|0|0|0|0,0:0|0:0|0:0|0:0|0:0,0:0:0:0:
268,20,79357,6,0,B|336:43|336:43|351:77|351:77|427:101,1,188.999994232178,2|0,1:0|0:0,0:0:0:0:
452,22,79630,2,0,P|363:45|349:135,1,188.999994232178,2|0,1:0|0:0,0:0:0:0:
424,248,79903,5,10,0:0:0:0:
469,226,79994,1,8,0:0:0:0:
512,202,80085,2,0,B|436:169|369:249|369:249|385:296|430:307,1,251.999992309571,6|8,1:0|0:0,0:0:0:0:
427,101,80630,1,2,0:0:0:0:
268,20,80812,2,0,P|207:33|169:82,1,125.999996154785,2|0,1:0|0:0,0:0:0:0:
261,118,81175,1,10,0:0:0:0:
463,13,81357,5,2,3:2:0:0:
463,13,81448,1,0,3:0:0:0:
463,13,81539,2,0,P|460:74|461:138,1,125.999996154785,0|0,1:0|0:0,0:0:0:0:
349,289,81903,2,0,P|350:230|347:163,1,125.999996154785,8|0,0:0|0:0,0:0:0:0:
74,61,82266,6,0,P|93:149|178:180,1,188.999994232178,2|0,1:0|0:0,0:0:0:0:
261,118,82630,2,0,B|198:64|198:64|162:88,1,125.999996154785,10|0,0:0|0:0,0:0:0:0:
42,235,82994,6,0,P|44:297|42:360,1,125.999996154785,2|0,1:0|0:0,0:0:0:0:
134,364,83266,1,0,3:0:0:0:
134,364,83357,2,0,P|131:301|133:238,1,125.999996154785,8|2,0:0|0:0,0:0:0:0:
152,54,83721,6,0,P|89:44|28:31,1,125.999996154785,2|0,1:0|0:0,0:0:0:0:
44,121,83994,2,0,P|75:125|105:132,1,62.9999980773926,2|8,0:0|0:0,0:0:0:0:
255,15,84266,1,2,0:0:0:0:
255,15,84448,2,0,P|316:28|378:38,1,125.999996154785,2|0,1:0|0:0,0:0:0:0:
469,52,84721,5,0,3:0:0:0:
440,93,84812,1,8,0:0:0:0:
410,133,84903,1,0,3:0:0:0:
417,182,84994,1,0,3:0:0:0:
424,231,85085,1,0,3:0:0:0:
430,281,85175,2,0,L|438:344,3,62.9999980773926,2|0|0|0,1:0|0:0|0:0|0:0,0:0:0:0:
347,358,85539,2,0,P|337:263|325:170,1,188.999994232178,10|0,0:0|0:0,0:0:0:0:
335,75,85903,5,2,1:0:0:0:
285,83,85994,1,0,3:0:0:0:
247,117,86085,1,0,3:0:0:0:
233,164,86175,1,0,3:0:0:0:
202,204,86266,1,8,0:0:0:0:
153,219,86357,1,0,3:0:0:0:
106,199,86448,1,2,3:2:0:0:
80,155,86539,1,0,3:0:0:0:
86,105,86630,5,2,1:0:0:0:
147,118,86721,1,0,3:0:0:0:
185,167,86812,1,0,3:0:0:0:
196,228,86903,1,0,3:0:0:0:
171,286,86994,1,8,0:0:0:0:
115,315,87085,1,0,3:0:0:0:
52,311,87175,1,2,3:2:0:0:
8,265,87266,1,0,3:0:0:0:
0,202,87357,6,0,L|0:160,2,41.9999987182618,10|0|0,0:0|0:0|0:0,0:0:0:0:
80,155,87539,6,0,L|80:113,2,41.9999987182618,8|0|0,0:0|0:0|0:0,0:0:0:0:
159,106,87721,5,8,0:0:0:0:
256,59,88085,5,2,3:2:0:0:
256,59,88175,1,0,3:0:0:0:
256,59,88266,1,0,3:0:0:0:
256,59,88357,1,0,3:0:0:0:
256,59,88448,2,0,L|256:111,3,52.5,2|0|0|0,3:2|3:0|3:0|3:0,0:0:0:0:
256,192,88812,1,6,1:0:0:0:
256,192,88903,12,0,91357,0:0:0:0:
373,348,94630,6,0,P|425:346|477:347,1,105,4|0,1:0|3:0,0:0:0:0:
308,218,94994,1,8,0:0:0:0:
200,324,95175,1,0,3:0:0:0:
173,340,95266,1,0,3:0:0:0:
142,349,95357,1,0,1:0:0:0:
110,349,95448,1,0,3:0:0:0:
79,339,95539,1,0,3:0:0:0:
131,150,95721,2,0,P|130:202|132:254,1,105,8|0,0:0|3:0,0:0:0:0:
37,135,96085,6,0,P|56:86|99:58,1,105,0|0,1:0|3:0,0:0:0:0:
263,90,96448,1,8,0:0:0:0:
353,213,96630,1,0,3:0:0:0:
379,195,96721,1,0,3:0:0:0:
400,171,96812,1,0,1:0:0:0:
413,142,96903,1,0,3:0:0:0:
418,109,96994,1,0,3:0:0:0:
301,13,97175,2,0,P|303:63|301:118,1,105,8|0,0:0|3:0,0:0:0:0:
429,277,97539,6,0,P|399:234|352:212,1,105,0|0,1:0|3:0,0:0:0:0:
162,296,97903,1,8,0:0:0:0:
264,366,98085,1,0,3:0:0:0:
263,334,98176,1,0,3:0:0:0:
262,302,98267,1,0,1:0:0:0:
262,270,98358,1,0,3:0:0:0:
261,238,98449,1,0,3:0:0:0:
187,119,98630,1,8,0:0:0:0:
6,313,98812,5,0,1:0:0:0:
6,313,99175,2,0,P|5:287|0:262,1,52.5,0|0,3:0|3:0,0:0:0:0:
72,226,99357,2,0,P|72:199|77:174,1,52.5,0|0,3:0|3:0,0:0:0:0:
5,139,99539,2,0,P|4:112|0:87,1,52.5,0|0,3:0|3:0,0:0:0:0:
66,33,99721,6,0,B|90:80|90:80|186:120,1,157.5,2|0,1:0|0:0,0:0:0:0:
317,171,100085,1,10,0:0:0:0:
317,171,100448,5,2,1:0:0:0:
503,290,100630,1,2,0:0:0:0:
272,356,100812,1,10,0:0:0:0:
403,126,100994,1,2,0:0:0:0:
155,199,101175,5,2,1:0:0:0:
416,121,101357,1,2,0:0:0:0:
185,0,101539,2,0,P|125:33|108:112,1,125.999996154785,8|2,0:0|0:0,0:0:0:0:
83,165,101812,5,0,3:0:0:0:
83,165,101903,2,0,P|145:162|208:164,1,125.999996154785,0|2,1:0|0:0,0:0:0:0:
416,121,102266,1,10,0:0:0:0:
416,121,102357,1,0,3:0:0:0:
416,121,102448,1,2,3:2:0:0:
416,121,102539,1,0,3:0:0:0:
416,121,102630,2,0,P|416:89|407:60,1,62.9999980773926,2|0,1:0|0:0,0:0:0:0:
294,75,102812,2,0,P|291:106|301:136,1,62.9999980773926,2|0,3:2|0:0,0:0:0:0:
418,302,102994,2,0,P|399:219|316:241,1,188.999994232178,8|0,0:0|0:0,0:0:0:0:
321,352,103357,6,0,P|294:336|264:330,3,62.9999980773926,2|0|0|0,1:0|0:0|0:0|0:0,0:0:0:0:
214,240,103721,2,0,P|182:239|153:249,3,62.9999980773926,10|0|0|0,0:0|0:0|0:0|0:0,0:0:0:0:
39,363,104085,2,0,P|66:347|86:323,3,62.9999980773926,2|0|0|0,1:0|0:0|0:0|0:0,0:0:0:0:
53,226,104449,2,0,P|68:198|74:167,3,62.9999980773926,10|0|0|0,0:0|0:0|0:0|0:0,0:0:0:0:
15,59,104812,5,0,1:0:0:0:
59,82,104903,1,0,3:0:0:0:
109,82,104994,1,0,3:0:0:0:
155,63,105085,1,0,3:0:0:0:
185,23,105175,1,8,0:0:0:0:
233,10,105266,1,0,3:0:0:0:
282,21,105357,1,0,3:0:0:0:
319,54,105448,1,0,3:0:0:0:
330,103,105539,5,0,1:0:0:0:
344,41,105630,1,0,3:0:0:0:
400,12,105721,1,0,3:0:0:0:
460,30,105812,1,0,3:0:0:0:
485,87,105903,1,8,0:0:0:0:
470,148,105994,1,0,3:0:0:0:
422,189,106085,1,0,3:0:0:0:
388,241,106175,1,0,3:0:0:0:
392,303,106266,5,2,1:0:0:0:
228,151,106448,2,0,P|172:177|151:235,1,125.999996154785,2|8,0:0|0:0,0:0:0:0:
290,355,106812,1,2,0:0:0:0:
290,355,106903,1,0,0:0:0:0:
290,355,106994,2,0,B|283:283|282:226|282:226|305:207|316:178,1,188.999994232178,2|0,1:0|0:0,0:0:0:0:
306,98,107357,2,0,P|256:61|194:63,1,125.999996154785,10|0,0:0|0:0,0:0:0:0:
0,235,107721,5,2,1:0:0:0:
228,151,107903,1,2,0:0:0:0:
228,151,107994,1,0,0:0:0:0:
228,151,108085,1,10,0:0:0:0:
99,5,108266,2,0,P|101:67|100:130,1,125.999996154785,2|0,0:0|1:0,0:0:0:0:
77,210,108539,6,0,P|234:207|391:209,1,314.999990386963,2|0,0:0|0:0,0:0:0:0:
204,313,109175,5,2,1:0:0:0:
299,45,109357,1,2,0:0:0:0:
426,125,109539,2,0,P|423:62|425:0,1,125.999996154785,10|0,0:0|1:0,0:0:0:0:
284,207,109903,5,2,0:0:0:0:
79,67,110085,1,2,0:0:0:0:
162,6,110266,5,10,0:0:0:0:
49,168,110448,1,2,0:0:0:0:
204,313,110630,5,2,0:0:0:0:
204,313,110812,1,2,1:0:0:0:
0,95,110994,1,10,0:0:0:0:
240,122,111175,1,2,1:0:0:0:
63,297,111357,6,0,L|78:235,1,62.9999980773926,2|0,1:0|0:0,0:0:0:0:
162,6,111538,2,0,L|177:71,1,62.9999980773926,0|0,1:0|0:0,0:0:0:0:
321,217,111721,6,0,L|8:181,1,315.000012016297,8|0,0:0|1:0,0:0:0:0:
411,35,112448,6,0,P|422:80|409:125,1,94.499997116089,10|0,0:1|1:0,0:0:0:0:
332,78,112812,1,2,0:0:0:0:
495,14,113175,2,0,P|508:83|493:152,1,141.749995674133,10|0,0:1|0:0,0:0:0:0:
433,205,113539,1,2,1:0:0:0:
433,205,113903,5,10,0:1:0:0:
338,204,114085,1,2,1:0:0:0:
294,287,114266,2,0,P|338:298|385:285,1,94.499997116089,2|0,0:0|1:0,0:0:0:0:
383,126,114630,2,0,P|338:114|291:127,1,94.499997116089,10|0,0:1|0:0,0:0:0:0:
160,218,114994,5,2,1:0:0:0:
160,218,115357,2,0,P|170:263|157:307,1,94.499997116089,10|0,0:1|1:0,0:0:0:0:
62,305,115721,2,0,P|51:259|64:215,1,94.499997116089,2|0,0:0|0:0,0:0:0:0:
120,138,116085,2,0,P|145:72|120:7,1,141.749995674133,10|0,0:1|0:0,0:0:0:0:
47,73,116448,6,0,L|236:72,1,188.999994232178,2|8,1:0|0:1,0:0:0:0:
357,72,116994,2,0,L|357:40,2,31.4999990386963,0|0|0,1:0|0:0|0:0,0:0:0:0:
357,151,117175,1,0,3:0:0:0:
357,160,117266,1,0,3:0:0:0:
357,169,117357,1,8,1:1:0:0:
469,170,117539,2,0,L|469:75,1,94.499997116089,10|2,0:1|0:0,0:0:0:0:
469,292,117903,5,0,1:0:0:0:
469,292,118266,2,0,P|423:280|378:293,1,94.499997116089,10|0,0:1|1:0,0:0:0:0:
426,371,118630,1,2,0:0:0:0:
490,208,118993,2,0,P|420:194|351:209,1,141.749995674133,10|0,0:1|0:0,0:0:0:0:
299,269,119357,1,2,1:0:0:0:
299,269,119721,5,10,0:1:0:0:
214,227,119903,1,2,1:0:0:0:
130,271,120085,2,0,P|118:226|131:179,1,94.499997116089,2|0,0:0|1:0,0:0:0:0:
212,133,120448,2,0,P|224:87|212:42,1,94.499997116089,10|0,0:1|0:0,0:0:0:0:
0,88,120812,6,0,B|64:59|64:59|129:87,1,141.749995674133,2|0,1:0|0:0,0:0:0:0:
65,150,121175,2,0,L|65:197,1,47.2499985580445,10|0,0:1|0:0,0:0:0:0:
130,271,121539,6,0,B|194:300|194:300|259:271,1,141.749995674133,0|0,1:0|0:0,0:0:0:0:
195,209,121903,2,0,L|195:161,1,47.2499985580445,10|0,0:1|0:0,0:0:0:0:
196,82,122266,1,0,1:0:0:0:
447,31,122448,5,2,0:0:0:0:
448,172,122630,1,2,0:0:0:0:
327,96,122812,2,0,L|352:100,1,23.6249992790222,2|0,0:0|0:0,0:0:0:0:
327,104,122903,2,0,L|352:108,1,23.6249992790222,2|0,0:0|0:0,0:0:0:0:
327,112,122994,1,2,0:0:0:0:
327,112,123357,1,0,0:0:0:0:
22,170,123721,6,0,B|18:114|18:114|88:126|88:126|98:227|98:227|103:232|103:232|116:343|116:343|142:356,2,377.999988464356,10|10|2,0:0|0:0|0:0,0:0:0:0:
203,286,124721,5,2,0:0:0:0:
203,286,124812,2,0,L|197:234,1,47.2499985580445,2|0,0:0|0:0,0:0:0:0:
191,153,125175,6,0,L|284:164,1,94.499997116089,10|0,0:0|0:0,0:0:0:0:
387,268,125357,2,0,L|293:256,1,94.499997116089,10|0,0:0|0:0,0:0:0:0:
276,71,125539,6,0,L|369:82,1,94.499997116089,10|0,0:0|0:0,0:0:0:0:
472,186,125721,2,0,L|378:174,1,94.499997116089,2|0,0:0|0:0,0:0:0:0:
191,153,125903,5,2,0:0:0:0:
114,20,126175,1,2,0:0:0:0:
114,20,126266,2,0,L|66:25,1,47.2499985580445,2|0,0:0|0:0,0:0:0:0:
176,70,126630,6,0,B|223:65|223:65|285:138|285:138|331:133,1,188.999994232178,10|2,0:0|0:0,0:0:0:0:
458,18,126994,2,0,B|409:26|409:26|422:123|422:123|427:128|427:128|438:220|438:220|413:246,1,283.499991348267,10|0,0:0|0:0,0:0:0:0:
357,306,127357,5,2,0:0:0:0:
202,297,127630,1,2,0:0:0:0:
202,297,127721,2,0,L|205:250,1,47.2499985580445,2|0,0:0|0:0,0:0:0:0:
113,290,128085,6,0,L|119:195,1,94.499997116089,10|0,0:0|0:0,0:0:0:0:
219,64,128266,2,0,L|213:159,1,94.499997116089,8|0,0:0|0:0,0:0:0:0:
12,189,128448,6,0,B|143:176|143:176|148:181|148:181|292:167,1,283.499991348267,10|0,0:0|0:0,0:0:0:0:
369,163,128812,5,2,0:0:0:0:
477,47,129085,1,2,0:0:0:0:
477,47,129175,2,0,L|430:52,1,47.2499985580445,2|0,0:0|0:0,0:0:0:0:
328,17,129539,6,0,P|370:194|327:371,1,367.5,2|0,1:0|0:0,0:0:0:0:
327,371,130266,2,0,L|327:344,1,26.25,10|0,0:0|0:0,0:0:0:0:
184,17,130994,6,0,P|141:194|184:371,1,367.5,2|0,1:0|0:0,0:0:0:0:
183,370,131721,1,10,0:0:0:0:
447,88,132448,6,0,P|466:190|449:293,1,210,2|2,1:0|0:0,0:0:0:0:
64,88,133175,2,0,P|45:190|62:293,1,210,10|2,0:0|0:0,0:0:0:0:
256,192,133903,5,2,1:0:0:0:
357,114,134266,5,2,0:0:0:0:
256,284,134448,1,2,0:0:0:0:
155,111,134630,1,10,0:0:0:0:
274,160,134994,5,0,1:0:0:0:
256,192,135085,1,0,1:0:0:0:
240,161,135175,1,0,1:0:0:0:
371,15,135357,6,0,P|424:38|452:87,1,115.50000352478,10|0,0:0|0:0,0:0:0:0:
362,214,135721,1,10,0:0:0:0:
498,324,135903,2,0,P|496:266|497:208,1,115.50000352478,2|8,0:0|0:0,0:0:0:0:
357,114,136266,1,2,0:0:0:0:
144,204,136448,1,10,0:0:0:0:
87,82,136630,1,2,0:0:0:0:
264,165,136812,6,0,B|280:209|280:209|228:324,1,173.250005287171,10|0,0:0|0:0,0:0:0:0:
159,362,137175,1,10,0:0:0:0:
41,290,137357,1,2,0:0:0:0:
87,82,137539,2,0,P|173:85|260:83,1,173.250005287171,10|0,0:0|0:0,0:0:0:0:
339,82,137903,2,0,P|338:139|341:197,1,115.50000352478,10|0,0:0|0:0,0:0:0:0:
159,362,138266,6,0,P|172:307|213:267,1,115.50000352478,10|0,0:0|0:0,0:0:0:0:
259,356,138630,1,10,0:0:0:0:
41,290,138812,2,0,P|43:232|41:174,1,115.50000352478,2|8,0:0|0:0,0:0:0:0:
159,52,139175,1,2,0:0:0:0:
365,169,139357,1,10,0:0:0:0:
324,31,139539,1,2,0:0:0:0:
146,207,139721,6,0,B|208:205|277:207|277:207|288:226|303:239,1,173.250005287171,10|0,0:0|0:0,0:0:0:0:
237,285,140085,1,10,0:0:0:0:
102,125,140266,1,2,0:0:0:0:
324,31,140448,2,0,P|405:45|431:124,1,173.250005287171,10|0,0:0|0:0,0:0:0:0:
365,169,140812,1,10,0:0:0:0:
329,149,140903,1,0,1:0:0:0:
345,112,140994,1,0,1:0:0:0:
345,351,141175,5,8,0:0:0:0:
145,65,142448,1,8,0:0:0:0:
145,65,142630,1,8,0:0:0:0:
145,65,143357,1,8,0:0:0:0:
145,65,144085,5,8,0:0:0:0:
143,294,144266,1,8,0:0:0:0:
374,295,144448,1,8,0:0:0:0:
374,63,144630,1,8,0:0:0:0:
116,195,144812,5,8,0:0:0:0:
156,195,144903,1,8,0:0:0:0:
196,195,144994,1,8,0:0:0:0:
236,195,145085,1,8,0:0:0:0:
276,195,145175,1,8,0:0:0:0:
316,195,145266,1,8,0:0:0:0:
356,195,145357,1,8,0:0:0:0:
396,195,145448,1,8,0:0:0:0:
208,279,146994,6,0,P|191:242|194:200,2,83.9999974365235,2|2|2,0:0|0:0|0:0,0:0:0:0:
106,367,147357,2,0,P|120:338|124:307,1,62.9999980773926,0|0,3:0|0:0,0:0:0:0:
95,186,147539,1,0,3:0:0:0:
95,186,147630,1,0,3:0:0:0:
95,186,147721,2,0,B|83:282|-34:250|19:149,1,188.999994232178,2|0,0:0|3:0,0:0:0:0:
48,39,148085,6,0,B|71:92|71:92|87:60|87:60|48:39,204,131.25,6|0|0|0|0|0|0|0|0|0|0|0|0|0|0|0|0|0|0|0|0|0|0|0|0|0|0|0|0|0|0|0|0|0|0|0|0|0|0|0|0|0|0|0|0|0|0|0|0|0|0|0|0|0|0|0|0|0|0|0|0|0|0|0|0|0|0|0|0|0|0|0|0|0|0|0|0|0|0|0|0|0|0|0|0|0|0|0|0|0|0|0|0|0|0|0|0|0|0|0|0|0|0|0|0|0|0|0|0|0|0|0|0|0|0|0|0|0|0|0|0|0|0|0|0|0|0|0|0|0|0|0|0|0|0|0|0|0|0|0|0|0|0|0|0|0|0|0|0|0|0|0|0|0|0|0|0|0|0|0|0|0|0|0|0|0|0|0|0|0|0|0|0|0|0|0|0|0|0|0|0|0|0|0|0|0|0|0|0|0|0|0|0|0|0|0|0|0|0|0|0|0|0|0|0,1:0|0:0|0:0|0:0|0:0|0:0|0:0|0:0|0:0|0:0|0:0|0:0|0:0|0:0|0:0|0:0|0:0|0:0|0:0|0:0|0:0|0:0|0:0|0:0|0:0|0:0|0:0|0:0|0:0|0:0|0:0|0:0|0:0|0:0|0:0|0:0|0:0|0:0|0:0|0:0|0:0|0:0|0:0|0:0|0:0|0:0|0:0|0:0|0:0|0:0|0:0|0:0|0:0|0:0|0:0|0:0|0:0|0:0|0:0|0:0|0:0|0:0|0:0|0:0|0:0|0:0|0:0|0:0|0:0|0:0|0:0|0:0|0:0|0:0|0:0|0:0|0:0|0:0|0:0|0:0|0:0|0:0|0:0|0:0|0:0|0:0|0:0|0:0|0:0|0:0|0:0|0:0|0:0|0:0|0:0|0:0|0:0|0:0|0:0|0:0|0:0|0:0|0:0|0:0|0:0|0:0|0:0|0:0|0:0|0:0|0:0|0:0|0:0|0:0|0:0|0:0|0:0|0:0|0:0|0:0|0:0|0:0|0:0|0:0|0:0|0:0|0:0|0:0|0:0|0:0|0:0|0:0|0:0|0:0|0:0|0:0|0:0|0:0|0:0|0:0|0:0|0:0|0:0|0:0|0:0|0:0|0:0|0:0|0:0|0:0|0:0|0:0|0:0|0:0|0:0|0:0|0:0|0:0|0:0|0:0|0:0|0:0|0:0|0:0|0:0|0:0|0:0|0:0|0:0|0:0|0:0|0:0|0:0|0:0|0:0|0:0|0:0|0:0|0:0|0:0|0:0|0:0|0:0|0:0|0:0|0:0|0:0|0:0|0:0|0:0|0:0|0:0|0:0|0:0|0:0|0:0|0:0|0:0|0:0|0:0|0:0|0:0|0:0|0:0|0:0,0:0:0:0:
183,128,152812,6,0,P|202:102|228:85,1,62.9999980773926,2|0,1:0|0:0,0:0:0:0:
313,31,152994,1,0,3:0:0:0:
313,31,153085,1,0,3:0:0:0:
313,31,153175,2,0,P|325:59|327:90,1,62.9999980773926,2|0,1:0|0:0,0:0:0:0:
265,174,153357,1,0,3:0:0:0:
276,210,153448,1,0,3:0:0:0:
267,246,153539,1,0,3:0:0:0:
274,282,153630,2,0,P|314:234|375:225,1,125.999996154785,2|0,0:0|0:0,0:0:0:0:
512,295,153903,6,0,B|502:242|502:242|477:281|477:281|512:295,140,131.25,6|0|0|0|0|0|0|0|0|0|0|0|0|0|0|0|0|0|0|0|0|0|0|0|0|0|0|0|0|0|0|0|0|0|0|0|0|0|0|0|0|0|0|0|0|0|0|0|0|0|0|0|0|0|0|0|0|0|0|0|0|0|0|0|0|0|0|0|0|0|0|0|0|0|0|0|0|0|0|0|0|0|0|0|0|0|0|0|0|0|0|0|0|0|0|0|0|0|0|0|0|0|0|0|0|0|0|0|0|0|0|0|0|0|0|0|0|0|0|0|0|0|0|0|0|0|0|0|0|0|0|0|0|0|0|0|0|0|0|0|0,1:0|0:0|0:0|0:0|0:0|0:0|0:0|0:0|0:0|0:0|0:0|0:0|0:0|0:0|0:0|0:0|0:0|0:0|0:0|0:0|0:0|0:0|0:0|0:0|0:0|0:0|0:0|0:0|0:0|0:0|0:0|0:0|0:0|0:0|0:0|0:0|0:0|0:0|0:0|0:0|0:0|0:0|0:0|0:0|0:0|0:0|0:0|0:0|0:0|0:0|0:0|0:0|0:0|0:0|0:0|0:0|0:0|0:0|0:0|0:0|0:0|0:0|0:0|0:0|0:0|0:0|0:0|0:0|0:0|0:0|0:0|0:0|0:0|0:0|0:0|0:0|0:0|0:0|0:0|0:0|0:0|0:0|0:0|0:0|0:0|0:0|0:0|0:0|0:0|0:0|0:0|0:0|0:0|0:0|0:0|0:0|0:0|0:0|0:0|0:0|0:0|0:0|0:0|0:0|0:0|0:0|0:0|0:0|0:0|0:0|0:0|0:0|0:0|0:0|0:0|0:0|0:0|0:0|0:0|0:0|0:0|0:0|0:0|0:0|0:0|0:0|0:0|0:0|0:0|0:0|0:0|0:0|0:0|0:0|0:0|0:0|0:0|0:0|0:0|0:0|0:0,0:0:0:0:
446,157,157175,6,0,L|432:31,2,125.999996154785,2|2|2,1:0|0:0|0:0,0:0:0:0:
375,225,157630,1,0,3:0:0:0:
375,225,157721,2,0,L|388:350,2,125.999996154785,2|0|0,1:0|0:0|3:0,0:0:0:0:
295,165,158175,1,0,3:0:0:0:
295,165,158266,2,0,P|271:105|358:131,1,188.999994232178,2|0,1:0|3:0,0:0:0:0:
286,251,158630,6,0,B|290:282|290:282|238:246|238:246|286:251,44,131.25,6|0|0|0|0|0|0|0|0|0|0|0|0|0|0|0|0|0|0|0|0|0|0|0|0|0|0|0|0|0|0|0|0|0|0|0|0|0|0|0|0|0|0|0|0,1:0|0:0|0:0|0:0|0:0|0:0|0:0|0:0|0:0|0:0|0:0|0:0|0:0|0:0|0:0|0:0|0:0|0:0|0:0|0:0|0:0|0:0|0:0|0:0|0:0|0:0|0:0|0:0|0:0|0:0|0:0|0:0|0:0|0:0|0:0|0:0|0:0|0:0|0:0|0:0|0:0|0:0|0:0|0:0|0:0,0:0:0:0:
138,343,159721,6,0,B|174:359|174:359|196:329|196:329|138:343,44,131.25,4|0|0|0|0|0|0|0|0|0|0|0|0|0|0|0|0|0|0|0|0|0|0|0|0|0|0|0|0|0|0|0|0|0|0|0|0|0|0|0|0|0|0|0|0,1:0|0:0|0:0|0:0|0:0|0:0|0:0|0:0|0:0|0:0|0:0|0:0|0:0|0:0|0:0|0:0|0:0|0:0|0:0|0:0|0:0|0:0|0:0|0:0|0:0|0:0|0:0|0:0|0:0|0:0|0:0|0:0|0:0|0:0|0:0|0:0|0:0|0:0|0:0|0:0|0:0|0:0|0:0|0:0|0:0,0:0:0:0:
38,329,160812,6,0,B|42:270|81:279|88:215,1,125.999996154785,0|0,1:0|3:0,0:0:0:0:
21,92,161175,1,0,3:0:0:0:
21,92,161266,1,0,3:0:0:0:
21,92,161357,2,0,P|44:112|74:121,1,62.9999980773926,2|0,1:0|0:0,0:0:0:0:
208,34,161539,6,0,B|191:78|191:78|164:75|164:75|208:34,44,131.25,6|0|0|0|0|0|0|0|0|0|0|0|0|0|0|0|0|0|0|0|0|0|0|0|0|0|0|0|0|0|0|0|0|0|0|0|0|0|0|0|0|0|0|0|0,1:0|0:0|0:0|0:0|0:0|0:0|0:0|0:0|0:0|0:0|0:0|0:0|0:0|0:0|0:0|0:0|0:0|0:0|0:0|0:0|0:0|0:0|0:0|0:0|0:0|0:0|0:0|0:0|0:0|0:0|0:0|0:0|0:0|0:0|0:0|0:0|0:0|0:0|0:0|0:0|0:0|0:0|0:0|0:0|0:0,0:0:0:0:
304,147,162630,6,0,B|281:101|281:101|327:118|327:118|304:147,44,131.25,4|0|0|0|0|0|0|0|0|0|0|0|0|0|0|0|0|0|0|0|0|0|0|0|0|0|0|0|0|0|0|0|0|0|0|0|0|0|0|0|0|0|0|0|0,1:0|0:0|0:0|0:0|0:0|0:0|0:0|0:0|0:0|0:0|0:0|0:0|0:0|0:0|0:0|0:0|0:0|0:0|0:0|0:0|0:0|0:0|0:0|0:0|0:0|0:0|0:0|0:0|0:0|0:0|0:0|0:0|0:0|0:0|0:0|0:0|0:0|0:0|0:0|0:0|0:0|0:0|0:0|0:0|0:0,0:0:0:0:
165,196,163721,6,0,P|106:214|74:267,1,125.999996154785,0|0,1:0|0:0,0:0:0:0:
78,350,163994,1,0,3:0:0:0:
78,350,164085,1,2,1:0:0:0:
282,293,164266,5,0,3:0:0:0:
282,293,164357,1,0,3:0:0:0:
282,293,164448,2,0,B|249:309|249:309|163:284,1,125.999996154785,0|0,1:0|3:0,0:0:0:0:
365,189,164812,2,0,B|395:209|395:209|416:296,1,125.999996154785,0|0,1:0|0:0,0:0:0:0:
165,196,165175,5,0,1:0:0:0:
165,196,165539,2,0,B|156:140|156:140|257:54,1,188.999994232178,0|0,1:0|0:0,0:0:0:0:
337,57,165903,1,0,1:0:0:0:
337,57,166266,2,0,B|419:157|419:157|400:213,1,188.999994232178,0|0,1:0|0:0,0:0:0:0:
335,260,166630,1,0,1:0:0:0:
335,260,166994,2,0,B|288:228|288:228|166:281,1,188.999994232178,0|0,1:0|0:0,0:0:0:0:
129,359,167357,6,0,P|81:299|99:225,1,157.5,0|0,1:0|0:0,0:0:0:0:
186,206,167721,6,0,P|216:159|159:55,1,181.125003454685,0|0,1:0|0:0,0:0:0:0:
80,62,168085,6,0,P|44:105|99:226,1,204.749990627289,0|0,1:0|0:0,0:0:0:0:
186,206,168448,6,0,P|268:137|364:193,1,228.375006969452,0|0,1:0|0:0,0:0:0:0:
453,190,168812,6,0,P|378:284|279:232,1,252,0|0,1:0|0:0,0:0:0:0:
259,127,169175,6,0,P|361:80|452:197,1,275.625002628565,0|0,1:0|0:0,0:0:0:0:
398,278,169539,6,0,B|339:301|290:267|273:219|273:219|251:164|197:149|156:167,1,299.249992009163,0|0,1:0|0:0,0:0:0:0:
35,171,169903,6,0,P|100:288|155:165,1,330.749989906311,0|0,1:0|0:0,0:0:0:0:
91,56,170266,5,0,1:0:0:0:
256,192,170357,12,0,173175,0:0:0:0:
256,192,173266,12,0,174630,0:0:0:0:
99,168,176085,6,0,P|100:220|98:272,1,105,6|2,1:0|0:0,0:0:0:0:
100,356,176357,1,0,3:0:0:0:
100,356,176448,1,10,0:0:0:0:
273,276,176630,1,2,3:2:0:0:
273,276,176721,1,0,3:0:0:0:
273,276,176812,2,0,P|247:230|201:207,1,105,2|2,1:0|0:0,0:0:0:0:
17,251,177175,1,10,0:0:0:0:
183,298,177357,1,2,0:0:0:0:
99,125,177539,5,2,1:0:0:0:
99,136,177630,1,0,3:0:0:0:
99,147,177721,1,0,3:0:0:0:
99,158,177812,1,0,3:0:0:0:
99,168,177903,1,8,0:0:0:0:
98,271,178085,2,0,P|198:244|298:272,1,210,2|0,0:0|0:0,0:0:0:0:
388,345,178630,1,10,0:0:0:0:
511,241,178812,5,2,3:2:0:0:
511,241,178903,1,0,3:0:0:0:
511,241,178994,2,0,P|461:255|412:239,1,105,2|2,1:0|0:0,0:0:0:0:
366,181,179266,1,0,3:0:0:0:
366,181,179357,1,10,0:0:0:0:
466,61,179539,1,2,3:2:0:0:
466,61,179630,1,0,3:0:0:0:
466,61,179721,2,0,P|464:113|465:165,1,105,2|2,1:0|0:0,0:0:0:0:
326,253,180085,1,10,0:0:0:0:
256,140,180266,1,2,0:0:0:0:
366,33,180448,5,2,1:0:0:0:
366,43,180539,1,0,3:0:0:0:
366,54,180630,1,0,3:0:0:0:
366,65,180721,1,0,3:0:0:0:
366,75,180812,1,8,0:0:0:0:
366,181,180994,2,0,P|266:153|165:180,1,210,2|0,0:0|1:0,0:0:0:0:
106,229,181448,1,0,3:0:0:0:
106,229,181539,1,10,0:0:0:0:
0,102,181903,6,0,P|50:104|104:102,1,105,2|0,1:0|0:0,0:0:0:0:
270,180,182266,2,0,P|219:178|165:179,1,105,10|0,0:0|0:0,0:0:0:0:
168,32,182630,1,2,1:0:0:0:
168,32,182721,1,0,3:0:0:0:
168,32,182812,1,0,3:0:0:0:
290,97,182994,1,10,0:0:0:0:
189,268,183175,5,0,3:0:0:0:
189,268,183266,1,0,3:0:0:0:
189,268,183357,2,0,P|175:317|187:367,1,105,2|0,1:0|0:0,0:0:0:0:
275,371,183630,1,0,3:0:0:0:
275,371,183721,2,0,P|289:321|277:271,1,105,8|2,0:0|0:0,0:0:0:0:
153,164,184085,1,0,1:0:0:0:
32,268,184266,1,0,1:0:0:0:
32,268,184357,1,0,3:0:0:0:
32,268,184448,2,0,P|110:265|189:267,1,157.5,10|0,0:0|0:0,0:0:0:0:
277,271,184812,5,10,0:0:0:0:
277,271,185175,2,0,B|279:209|245:157|245:157|264:125,1,157.5,2|0,0:0|0:0,0:0:0:0:
350,65,185539,5,10,0:0:0:0:
350,65,185903,2,0,B|348:127|382:179|382:179|362:210,1,157.5,2|0,0:0|0:0,0:0:0:0:
277,271,186266,2,0,L|271:218,1,52.5,2|0,0:0|0:0,0:0:0:0:
254,16,186448,5,8,0:0:0:0:
155,125,186630,1,8,0:0:0:0:
31,45,186812,1,8,0:0:0:0:
0,191,186994,5,2,1:0:0:0:
41,199,187085,1,0,1:0:0:0:
72,225,187175,1,0,1:0:0:0:
88,263,187266,1,0,1:0:0:0:
80,312,187357,2,0,P|25:243|81:174,1,188.999994232178,10|0,0:0|0:0,0:0:0:0:
174,215,187721,5,6,1:0:0:0:
174,215,187812,1,0,0:0:0:0:
174,215,187903,2,0,L|182:277,1,62.9999980773926,2|0,0:0|0:0,0:0:0:0:
341,343,188085,5,10,0:0:0:0:
341,343,188176,1,0,0:0:0:0:
341,343,188267,2,0,L|349:280,1,62.9999980773926,2|0,0:0|0:0,0:0:0:0:
267,169,188448,5,2,1:0:0:0:
267,169,188539,1,0,0:0:0:0:
267,169,188630,2,0,L|275:231,1,62.9999980773926,2|0,0:0|0:0,0:0:0:0:
434,297,188812,5,10,0:0:0:0:
434,297,188903,1,0,0:0:0:0:
434,297,188994,2,0,L|442:234,1,62.9999980773926,2|0,0:0|0:0,0:0:0:0:
502,89,189175,2,0,B|475:141|410:157|360:132|360:132|342:91|297:73,1,251.999992309571,2|8,1:0|0:0,0:0:0:0:
177,186,189721,1,2,0:0:0:0:
12,57,189903,2,0,P|71:77|131:58,1,125.999996154785,2|0,1:0|0:0,0:0:0:0:
208,24,190175,1,0,3:0:0:0:
208,24,190266,2,0,P|206:86|207:149,1,125.999996154785,10|0,0:0|0:0,0:0:0:0:
63,371,190630,6,0,P|65:305|63:245,1,125.999996154785,2|0,1:0|0:0,0:0:0:0:
57,159,190903,1,0,3:0:0:0:
57,159,190994,2,0,B|108:156|151:188|126:214|175:239|222:233,1,188.999994232178,8|0,0:0|0:0,0:0:0:0:
291,171,191357,5,0,1:0:0:0:
326,144,191448,1,0,3:0:0:0:
369,134,191539,1,0,3:0:0:0:
411,144,191630,1,0,3:0:0:0:
445,171,191721,2,0,L|445:234,1,62.9999980773926,10|0,0:0|0:0,0:0:0:0:
314,319,191903,2,0,L|314:256,1,62.9999980773926,2|0,0:0|0:0,0:0:0:0:
194,80,192085,6,0,B|100:103|119:203|193:200|138:319|112:373|-4:359|3:260|72:241,1,415.799998731079,6|0,1:0|0:0,0:0:0:0:
62,244,194630,1,2,0:0:0:0:
327,42,194994,6,0,L|441:42,1,103.94999968277,2|2,0:0|0:0,0:0:0:0:
431,55,195721,2,0,L|327:55,1,103.94999968277,2|2,0:0|0:0,0:0:0:0:
327,42,196448,2,0,L|396:42,1,69.2999997885132,2|0,0:0|0:0,0:0:0:0:
396,42,197175,1,2,0:0:0:0:
396,42,197539,1,2,0:0:0:0:
485,328,197903,6,0,L|479:265,3,62.9999980773926,6|0|0|0,1:0|3:0|3:0|3:0,0:0:0:0:
393,338,198266,2,0,L|387:275,3,62.9999980773926,8|0|0|0,0:0|3:0|3:0|3:0,0:0:0:0:
295,284,198630,6,0,L|300:346,3,62.9999980773926,0|0|0|0,1:0|3:0|3:0|3:0,0:0:0:0:
203,294,198993,2,0,L|208:356,3,62.9999980773926,8|0|0|0,0:0|3:0|3:0|3:0,0:0:0:0:
79,313,199357,5,0,1:0:0:0:
73,301,199447,1,0,3:0:0:0:
69,289,199538,1,0,3:0:0:0:
68,277,199629,1,0,3:0:0:0:
67,264,199720,1,8,0:0:0:0:
69,252,199811,1,0,3:0:0:0:
73,240,199902,1,0,3:0:0:0:
79,228,199993,1,0,3:0:0:0:
86,218,200085,1,0,1:0:0:0:
91,206,200175,1,0,3:0:0:0:
95,194,200266,1,0,3:0:0:0:
96,182,200357,1,0,3:0:0:0:
97,169,200448,1,8,0:0:0:0:
95,157,200539,1,0,3:0:0:0:
91,145,200630,1,0,3:0:0:0:
85,133,200721,1,0,3:0:0:0:
77,124,200812,6,0,P|54:102|20:89,3,62.9999980773926,0|0|0|0,1:0|3:0|3:0|3:0,0:0:0:0:
166,107,201175,2,0,P|157:76|134:48,3,62.9999980773926,8|0|0|0,0:0|3:0|3:0|3:0,0:0:0:0:
241,161,201539,6,0,P|218:183|184:196,3,62.9999980773926,0|0|0|0,1:0|3:0|3:0|3:0,0:0:0:0:
330,178,201902,2,0,P|321:208|298:236,3,62.9999980773926,8|0|0|0,0:0|3:0|3:0|3:0,0:0:0:0:
421,201,202266,2,0,P|425:170|418:140,1,62.9999980773926,0|0,1:0|3:0,0:0:0:0:
487,77,202448,5,0,3:0:0:0:
446,47,202539,1,0,3:0:0:0:
395,46,202630,1,8,0:0:0:0:
350,70,202721,1,0,3:0:0:0:
299,76,202812,1,0,3:0:0:0:
251,58,202903,1,0,3:0:0:0:
220,18,202994,5,0,1:0:0:0:
207,66,203085,1,0,3:0:0:0:
166,95,203175,1,0,3:0:0:0:
116,101,203266,1,0,3:0:0:0:
71,77,203357,2,0,P|64:107|70:138,1,62.9999980773926,8|0,0:0|3:0,0:0:0:0:
164,189,203539,2,0,P|170:219|164:250,1,62.9999980773926,0|0,1:0|3:0,0:0:0:0:
63,290,203721,6,0,L|0:285,3,62.9999980773926,0|0|0|0,1:0|3:0|3:0|3:0,0:0:0:0:
153,349,204085,2,0,L|215:353,3,62.9999980773926,8|0|0|0,0:0|3:0|3:0|3:0,0:0:0:0:
227,255,204448,6,0,L|164:250,3,62.9999980773926,0|0|0|0,1:0|3:0|3:0|3:0,0:0:0:0:
317,314,204812,2,0,L|379:318,3,62.9999980773926,8|0|0|0,0:0|3:0|3:0|3:0,0:0:0:0:
472,273,205175,5,0,1:0:0:0:
466,260,205265,1,0,3:0:0:0:
460,248,205356,1,0,3:0:0:0:
450,240,205447,1,0,3:0:0:0:
441,231,205538,1,8,0:0:0:0:
431,225,205629,1,0,3:0:0:0:
420,220,205720,1,0,3:0:0:0:
407,217,205811,1,0,3:0:0:0:
395,214,205903,1,0,1:0:0:0:
382,209,205993,1,0,3:0:0:0:
371,204,206084,1,0,3:0:0:0:
362,197,206175,1,0,3:0:0:0:
351,190,206266,1,8,0:0:0:0:
343,180,206357,1,0,3:0:0:0:
337,169,206448,1,0,3:0:0:0:
332,157,206539,1,0,3:0:0:0:
330,144,206630,6,0,P|335:110|351:83,3,62.9999980773926,0|0|0|0,1:0|3:0|3:0|3:0,0:0:0:0:
395,6,206994,2,0,P|421:27|437:54,3,62.9999980773926,8|0|0|0,0:0|3:0|3:0|3:0,0:0:0:0:
486,129,207357,6,0,P|454:141|422:141,3,62.9999980773926,0|0|0|0,1:0|3:0|3:0|3:0,0:0:0:0:
330,144,207721,2,0,P|335:110|351:83,3,62.9999980773926,8|0|0|0,0:0|3:0|3:0|3:0,0:0:0:0:
395,6,208085,5,0,1:0:0:0:
411,14,208175,1,0,3:0:0:0:
425,25,208266,1,0,3:0:0:0:
434,41,208357,1,0,3:0:0:0:
441,58,208448,1,8,0:0:0:0:
443,76,208539,1,0,3:0:0:0:
441,94,208630,1,0,3:0:0:0:
435,111,208721,1,0,3:0:0:0:
427,128,208812,6,0,B|409:161|409:161|423:248,1,125.999996154785,0|0,1:0|3:0,0:0:0:0:
457,329,209085,1,0,1:0:0:0:
457,329,209175,2,0,P|427:335|395:331,1,62.9999980773926,8|0,0:0|0:0,0:0:0:0:
334,240,209357,2,0,P|304:234|272:237,1,62.9999980773926,0|0,1:0|0:0,0:0:0:0:
155,340,209539,6,0,P|135:286|188:264,1,125.999996154785,0|0,1:0|0:0,0:0:0:0:
246,326,209812,1,0,1:0:0:0:
246,326,209903,1,8,0:0:0:0:
65,353,210085,1,0,1:0:0:0:
272,238,210266,6,0,P|294:175|232:149,1,146.999995513916,0|0,1:0|0:0,0:0:0:0:
180,207,210539,1,0,1:0:0:0:
180,207,210630,1,8,0:0:0:0:
367,277,210812,1,0,1:0:0:0:
148,127,210994,6,0,P|122:54|193:25,1,168,0|0,1:0|0:0,0:0:0:0:
243,92,211266,1,0,1:0:0:0:
243,92,211357,1,8,0:0:0:0:
50,165,211539,1,0,1:0:0:0:
207,303,211721,6,0,P|285:269|256:188,1,188.999994232178,0|0,1:0|0:0,0:0:0:0:
180,207,211994,1,0,1:0:0:0:
180,207,212085,1,8,0:0:0:0:
387,285,212266,1,0,1:0:0:0:
498,47,212448,5,8,0:0:0:0:
442,16,212539,1,0,1:0:0:0:
378,16,212630,1,0,1:0:0:0:
322,46,212721,1,0,1:0:0:0:
290,101,212812,1,8,0:0:0:0:
323,154,212903,1,0,1:0:0:0:
385,148,212994,1,0,1:0:0:0:
411,90,213085,1,0,1:0:0:0:
369,42,213175,6,0,P|331:50|302:77,1,78.7500030040742,8|0,0:0|1:0,0:0:0:0:
113,171,213357,1,0,1:0:0:0:
113,171,213448,2,0,P|149:179|179:206,1,78.7500030040742,8|0,0:0|1:0,0:0:0:0:
387,285,213630,5,0,1:0:0:0:
326,301,213721,1,8,0:0:0:0:
293,355,213812,1,8,0:0:0:0:
231,367,213903,1,8,0:0:0:0:
438,204,214266,6,0,B|448:148|364:86|286:208|386:284,1,262.5
454,363,214812,5,0,1:0:0:0:
454,363,214903,1,0,1:0:0:0:
454,363,214994,2,0,P|354:266|215:261,1,283.499991348267,8|0,0:0|0:0,0:0:0:0:
123,367,215357,5,6,1:0:0:0:
123,367,215448,1,0,0:0:0:0:
123,367,215539,2,0,L|113:302,1,62.9999980773926,2|0,0:0|0:0,0:0:0:0:
206,198,215721,5,10,0:0:0:0:
206,198,215812,1,0,0:0:0:0:
206,198,215903,2,0,L|216:263,1,62.9999980773926,2|0,0:0|0:0,0:0:0:0:
20,310,216085,5,2,1:0:0:0:
20,310,216176,1,0,0:0:0:0:
20,310,216267,2,0,L|10:245,1,62.9999980773926,2|0,0:0|0:0,0:0:0:0:
103,141,216449,5,10,0:0:0:0:
103,141,216540,1,0,0:0:0:0:
103,141,216631,2,0,L|113:206,1,62.9999980773926,2|0,0:0|0:0,0:0:0:0:
232,349,216812,6,0,B|257:376|319:352|331:300|271:227,1,188.999994232178,2|0,1:0|0:0,0:0:0:0:
206,198,217175,1,8,0:0:0:0:
396,360,217357,6,0,P|356:182|191:105,1,377.999988464356,6|0,0:0|0:0,0:0:0:0:
63,246,217903,1,10,0:0:0:0:
232,349,218085,1,2,0:0:0:0:
461,173,218266,5,2,1:0:0:0:
461,173,218357,1,0,0:0:0:0:
461,173,218448,2,0,L|398:181,1,62.9999980773926,2|0,0:0|0:0,0:0:0:0:
348,82,218630,5,10,0:0:0:0:
348,82,218721,1,0,0:0:0:0:
348,82,218812,2,0,L|285:73,1,62.9999980773926,2|0,0:0|0:0,0:0:0:0:
308,234,218994,5,2,1:0:0:0:
308,234,219085,1,0,0:0:0:0:
308,234,219176,2,0,L|245:242,1,62.9999980773926,2|0,0:0|0:0,0:0:0:0:
198,30,219357,5,10,0:0:0:0:
198,30,219448,1,0,0:0:0:0:
198,30,219539,2,0,L|135:21,1,62.9999980773926,2|0,0:0|0:0,0:0:0:0:
87,230,219721,6,0,B|134:236|183:211|158:185|201:153|252:156,1,188.999994232178,2|0,1:0|0:0,0:0:0:0:
245,242,220085,1,8,0:0:0:0:
43,83,220266,6,0,B|29:9|154:-11|170:76|136:169|87:120|65:219|103:298,1,377.999988464356,6|0,0:0|0:0,0:0:0:0:
352,362,220812,2,0,P|353:300|351:236,1,125.999996154785,10|0,0:0|0:0,0:0:0:0:
487,35,221175,6,0,P|486:97|487:160,1,125.999996154785,2|0,1:0|0:0,0:0:0:0:
253,214,221539,2,0,P|283:160|340:134,1,125.999996154785,10|0,0:0|0:0,0:0:0:0:
480,341,221903,1,2,1:0:0:0:
246,348,222085,1,0,3:0:0:0:
246,348,222175,1,0,3:0:0:0:
246,348,222266,2,0,P|183:346|120:347,1,125.999996154785,10|0,0:0|0:0,0:0:0:0:
441,213,222630,6,0,P|348:215|252:213,1,188.999994232178,2|0,1:0|0:0,0:0:0:0:
172,214,222994,1,8,0:0:0:0:
411,23,223175,6,0,B|443:112|371:180|350:138|282:204|304:294,1,315.000012016297,6|0,0:0|0:0,0:0:0:0:
417,325,223721,2,0,P|450:273|440:212,1,125.999996154785,10|0,0:0|0:0,0:0:0:0:
256,0,224085,5,2,1:0:0:0:
256,0,224448,2,0,B|226:36|177:45|177:45|190:93|166:139|166:139|211:162|221:209,1,283.499991348267,10|0,0:0|0:0,0:0:0:0:
255,320,224812,5,2,1:0:0:0:
255,320,225175,2,0,B|284:283|333:274|333:274|320:226|344:180|344:180|299:157|289:110,1,283.499991348267,10|0,0:0|0:0,0:0:0:0:
256,0,225539,2,0,P|227:12|203:32,1,62.9999980773926,2|0,0:0|0:0,0:0:0:0:
167,181,225721,6,0,P|192:199|221:210,1,62.9999980773926,0|0,1:0|0:0,0:0:0:0:
436,122,225903,2,0,P|410:103|381:92,1,62.9999980773926,8|0,0:0|0:0,0:0:0:0:
109,106,226085,5,0,1:0:0:0:
80,147,226175,1,0,3:0:0:0:
74,197,226266,1,0,1:0:0:0:
95,242,226357,1,0,1:0:0:0:
135,272,226448,2,0,P|166:275|197:270,1,62.9999980773926,0|0,1:0|1:0,0:0:0:0:
455,254,226630,6,0,B|465:216|465:216|352:200|301:297,1,236.250009012223,8|0,0:0|0:0,0:0:0:0:
298,378,226994,5,6,1:0:0:0:
346,192,227175,1,2,0:0:0:0:
407,359,227357,5,10,0:0:0:0:
257,173,227539,1,2,0:0:0:0:
455,254,227721,5,2,1:0:0:0:
175,206,227903,1,2,0:0:0:0:
445,138,228085,5,10,0:0:0:0:
142,284,228266,1,2,0:0:0:0:
282,24,228448,2,0,B|270:50|254:67|254:67|276:124|281:201,1,188.999994232178,2|0,1:0|0:0,0:0:0:0:
277,278,228812,1,8,0:0:0:0:
120,9,228994,6,0,B|178:80|254:264|176:349|47:297|59:203,1,377.999988464356,6|2,0:0|0:0,0:0:0:0:
0,91,229539,1,10,0:0:0:0:
137,91,229721,1,2,0:0:0:0:
277,278,229903,5,2,1:0:0:0:
238,121,230085,1,2,0:0:0:0:
193,308,230266,5,10,0:0:0:0:
322,91,230448,1,2,0:0:0:0:
108,278,230630,5,2,1:0:0:0:
407,121,230812,1,2,0:0:0:0:
64,199,230993,5,10,0:0:0:0:
451,200,231175,1,2,0:0:0:0:
259,11,231357,6,0,P|221:94|265:174,1,188.999994232178,2|0,1:0|0:0,0:0:0:0:
342,259,231721,1,10,0:0:0:0:
342,259,231812,2,0,L|344:227,4,31.4999990386963,8|0|0|0|0,0:0|0:0|0:0|0:0|0:0,0:0:0:0:
267,359,232085,6,0,B|199:336|199:336|184:302|184:302|108:278,1,188.999994232178,2|0,1:0|0:0,0:0:0:0:
82,359,232358,2,0,P|171:336|185:246,1,188.999994232178,2|0,1:0|0:0,0:0:0:0:
108,135,232630,5,10,0:0:0:0:
59,147,232721,1,8,0:0:0:0:
10,161,232812,2,0,B|57:203|122:173|122:173|191:142|249:177,1,251.999992309571,6|8,1:0|0:0,0:0:0:0:
107,277,233357,1,2,0:0:0:0:
65,59,233539,2,0,P|127:60|190:58,1,125.999996154785,2|0,1:0|0:0,0:0:0:0:
348,8,233903,1,10,0:0:0:0:
288,202,234085,5,2,3:2:0:0:
288,202,234175,1,0,3:0:0:0:
288,202,234266,2,0,P|271:143|289:83,1,125.999996154785,0|0,1:0|0:0,0:0:0:0:
490,88,234630,2,0,P|506:147|487:206,1,125.999996154785,8|0,0:0|0:0,0:0:0:0:
257,313,234994,6,0,B|384:252|384:252|426:274,1,188.999994232178,2|0,1:0|0:0,0:0:0:0:
496,331,235357,2,0,P|443:363|382:353,1,125.999996154785,10|0,0:0|0:0,0:0:0:0:
198,235,235721,6,0,P|199:172|197:109,1,125.999996154785,2|0,1:0|0:0,0:0:0:0:
196,27,235994,1,0,3:0:0:0:
196,27,236085,2,0,P|138:47|113:103,1,125.999996154785,8|2,0:0|0:0,0:0:0:0:
124,287,236448,6,0,P|61:275|0:266,1,125.999996154785,2|0,1:0|0:0,0:0:0:0:
45,187,236721,2,0,P|75:193|106:197,1,62.9999980773926,2|8,0:0|0:0,0:0:0:0:
256,312,236994,1,2,0:0:0:0:
256,312,237175,2,0,P|290:261|352:247,1,125.999996154785,2|0,1:0|0:0,0:0:0:0:
438,282,237448,5,0,3:0:0:0:
440,231,237539,1,8,0:0:0:0:
440,180,237630,1,0,3:0:0:0:
395,155,237721,1,0,3:0:0:0:
351,129,237812,1,0,3:0:0:0:
306,105,237903,2,0,P|291:77|286:46,3,62.9999980773926,2|0|0|0,1:0|3:0|3:0|3:0,0:0:0:0:
354,0,238266,2,0,P|415:67|395:156,1,188.999994232178,10|0,0:0|0:0,0:0:0:0:
350,246,238630,5,2,1:0:0:0:
301,260,238721,1,0,3:0:0:0:
251,250,238812,1,0,3:0:0:0:
209,222,238903,1,0,3:0:0:0:
186,176,238994,1,8,0:0:0:0:
142,149,239085,1,0,3:0:0:0:
92,149,239175,1,2,3:2:0:0:
48,174,239266,1,0,3:0:0:0:
28,220,239357,5,2,1:0:0:0:
83,250,239448,1,0,3:0:0:0:
146,249,239539,1,0,3:0:0:0:
197,213,239630,1,0,3:0:0:0:
221,154,239721,1,8,0:0:0:0:
259,103,239812,1,0,3:0:0:0:
314,73,239903,1,2,3:2:0:0:
376,76,239994,1,0,3:0:0:0:
424,115,240085,6,0,L|424:157,2,41.9999987182618,10|0|0,0:0|0:0|0:0,0:0:0:0:
344,162,240267,6,0,L|344:204,2,41.9999987182618,8|0|0,0:0|0:0|0:0,0:0:0:0:
424,244,240449,5,8,0:0:0:0:
359,312,240812,5,2,3:2:0:0:
359,312,240902,1,0,3:0:0:0:
359,312,240993,1,0,3:0:0:0:
359,312,241084,1,0,3:0:0:0:
359,312,241175,2,0,L|307:312,3,52.5,2|0|0|0,3:2|3:0|3:0|3:0,0:0:0:0:
229,358,241539,6,0,P|217:296|168:255,1,125.999996154785,2|0,1:0|0:0,0:0:0:0:
96,250,241812,1,0,3:0:0:0:
96,250,241903,1,8,0:0:0:0:
137,344,242085,1,2,0:0:0:0:
349,125,242266,5,0,1:0:0:0:
203,258,242448,1,0,0:0:0:0:
37,113,242630,1,8,0:0:0:0:
145,14,242812,1,0,3:0:0:0:
145,14,242903,1,0,3:0:0:0:
145,14,242994,2,0,P|147:77|145:140,1,125.999996154785,0|0,1:0|0:0,0:0:0:0:
96,250,243266,5,0,3:0:0:0:
143,233,243357,1,8,0:0:0:0:
190,217,243448,1,0,3:0:0:0:
236,197,243539,1,0,3:0:0:0:
282,178,243630,1,0,3:0:0:0:
329,161,243721,2,0,L|329:98,3,62.9999980773926,2|0|0|2,1:0|3:0|3:0|3:2,0:0:0:0:
337,13,244085,2,0,B|376:13|414:54|414:98|414:98|414:161,1,188.999994232178,8|0,0:0|0:0,0:0:0:0:
482,231,244448,5,2,1:0:0:0:
440,258,244539,1,0,3:0:0:0:
389,257,244630,1,0,3:0:0:0:
345,234,244721,1,0,3:0:0:0:
315,191,244812,1,8,0:0:0:0:
269,169,244903,1,0,3:0:0:0:
219,172,244994,1,2,3:2:0:0:
177,202,245085,1,0,3:0:0:0:
155,247,245175,5,2,1:0:0:0:
206,284,245266,1,0,3:0:0:0:
268,288,245357,1,0,3:0:0:0:
324,261,245448,1,0,3:0:0:0:
358,208,245539,1,8,0:0:0:0:
360,143,245630,1,0,3:0:0:0:
328,89,245721,1,2,3:2:0:0:
273,58,245812,1,0,3:0:0:0:
209,61,245903,6,0,L|167:61,2,41.9999987182618,10|0|0,0:0|0:0|0:0,0:0:0:0:
162,141,246085,6,0,L|120:141,2,41.9999987182618,8|0|0,0:0|0:0|0:0,0:0:0:0:
80,62,246267,5,8,0:0:0:0:
256,165,248085,6,0,L|256:223,2,47.2499985580445,2|2|2,0:0|0:0|0:0,0:0:0:0:
256,192,248812,12,8,252994,0:0:0:0:
157,116,253357,6,0,P|183:99|203:76,1,62.9999980773926,8|0,0:0|0:0,0:0:0:0:
157,116,253539,2,0,B|149:131|149:131|157:148|157:148|149:164|149:164|156:180|156:180|149:196|149:196|157:212|157:212|149:228,1,125.999996154785,0|0,3:0|0:0,0:0:0:0:
173,306,253812,1,0,3:0:0:0:
173,306,253903,2,0,P|142:224|51:218,1,188.999994232178,2|0,3:2|0:0,0:0:0:0:
23,300,254266,6,0,P|57:303|85:296,1,62.9999980773926,2|0,0:0|0:0,0:0:0:0:
34,331,254448,2,0,P|65:317|85:296,1,62.9999980773926
248,157,254630,5,2,1:0:0:0:
25,69,254812,1,2,0:0:0:0:
255,6,254994,1,10,0:0:0:0:
142,194,255175,1,2,0:0:0:0:
384,288,255357,5,2,1:0:0:0:
128,192,255539,1,2,0:0:0:0:
361,75,255721,2,0,P|421:108|438:187,1,125.999996154785,8|2,0:0|0:0,0:0:0:0:
463,240,255994,5,0,3:0:0:0:
463,240,256085,2,0,P|401:237|338:239,1,125.999996154785,0|2,1:0|0:0,0:0:0:0:
128,191,256448,1,10,0:0:0:0:
128,191,256539,1,0,3:3:0:0:
128,191,256630,1,2,3:2:0:0:
128,191,256720,1,0,3:3:0:0:
128,191,256811,2,0,P|105:213|93:241,1,62.9999980773926,2|0,1:0|0:0,0:0:0:0:
187,307,256993,2,0,P|210:285|223:257,1,62.9999980773926,2|0,3:2|0:0,0:0:0:0:
214,61,257175,2,0,P|221:145|305:135,1,188.999994232178,8|0,0:0|0:0,0:0:0:0:
363,57,257539,6,0,P|336:41|305:34,3,62.9999980773926,2|0|0|0,1:0|0:0|0:0|0:0,0:0:0:0:
443,117,257903,2,0,P|458:90|465:59,3,62.9999980773926,10|0|0|0,0:0|0:0|0:0|0:0,0:0:0:0:
386,196,258266,2,0,P|412:211|443:218,3,62.9999980773926,2|0|0|0,1:0|0:0|0:0|0:0,0:0:0:0:
305,135,258630,2,0,P|289:161|282:192,3,62.9999980773926,10|0|0|0,0:0|0:0|0:0|0:0,0:0:0:0:
363,57,258994,5,0,1:0:0:0:
394,96,259085,1,0,3:0:0:0:
402,146,259175,1,0,3:0:0:0:
386,196,259266,1,0,3:0:0:0:
391,246,259357,1,8,0:0:0:0:
433,273,259448,1,0,3:0:0:0:
481,259,259539,1,0,3:0:0:0:
494,210,259630,1,0,3:0:0:0:
472,164,259721,5,0,1:0:0:0:
417,196,259812,1,0,3:0:0:0:
354,205,259903,1,0,3:0:0:0:
291,194,259994,1,0,3:0:0:0:
239,157,260085,1,8,0:0:0:0:
185,125,260175,1,0,3:0:0:0:
122,121,260266,1,0,3:0:0:0:
63,145,260357,1,0,3:0:0:0:
31,193,260448,5,2,1:0:0:0:
42,203,260539,1,0,3:0:0:0:
55,212,260630,1,2,3:2:0:0:
68,221,260721,1,0,3:0:0:0:
83,227,260812,1,8,0:0:0:0:
97,233,260903,1,0,3:0:0:0:
113,237,260994,1,2,3:2:0:0:
128,239,261085,1,0,3:0:0:0:
144,240,261175,1,2,1:0:0:0:
160,239,261266,1,0,3:0:0:0:
175,237,261357,1,0,3:0:0:0:
191,234,261447,1,0,3:0:0:0:
205,229,261538,1,10,0:0:0:0:
220,222,261629,1,0,3:0:0:0:
233,214,261720,1,0,3:0:0:0:
246,205,261811,1,0,3:0:0:0:
258,195,261903,1,2,1:0:0:0:
269,184,261993,1,0,3:0:0:0:
282,175,262084,1,2,3:2:0:0:
295,166,262175,1,0,3:0:0:0:
310,160,262266,1,10,0:0:0:0:
324,154,262357,1,0,3:0:0:0:
340,150,262448,1,2,3:2:0:0:
355,148,262539,1,0,3:0:0:0:
371,147,262630,1,0,1:0:0:0:
387,148,262721,1,0,3:0:0:0:
402,150,262812,1,0,3:0:0:0:
418,153,262902,1,0,3:0:0:0:
432,158,262993,1,8,0:0:0:0:
447,165,263084,1,0,3:0:0:0:
460,173,263175,1,0,3:0:0:0:
473,182,263266,1,0,3:0:0:0:
485,191,263357,6,0,L|486:254,1,62.9999980773926,2|0,1:0|3:0,0:0:0:0:
387,317,263539,2,0,L|386:254,1,62.9999980773926,2|0,3:2|3:0,0:0:0:0:
295,166,263721,2,0,L|295:103,3,62.9999980773926,10|0|0|0,0:0|3:0|3:0|3:0,0:0:0:0:
202,228,264085,6,0,L|202:166,1,62.9999980773926,2|0,0:0|3:0,0:0:0:0:
193,228,264266,2,0,L|193:164,1,62.9999980773926,2|0,3:2|3:0,0:0:0:0:
103,291,264448,6,0,L|103:229,1,62.9999980773926,10|0,0:0|3:0,0:0:0:0:
94,291,264629,2,0,L|94:227,1,62.9999980773926,2|0,3:2|3:0,0:0:0:0:
293,322,264812,6,0,L|293:256,1,62.9999980773926,2|0,3:2|3:0,0:0:0:0:
388,258,264994,2,0,L|388:192,1,62.9999980773926,2|0,1:0|3:0,0:0:0:0:
192,165,265175,6,0,L|192:99,1,62.9999980773926,10|0,0:0|3:0,0:0:0:0:
97,101,265357,2,0,L|97:35,1,62.9999980773926,2|0,1:0|3:0,0:0:0:0:
293,37,265539,6,0,L|293:100,1,62.9999980773926,2|0,1:0|3:0,0:0:0:0:
191,329,265721,2,0,L|191:266,1,62.9999980773926,0|0,1:0|3:0,0:0:0:0:
412,182,265903,6,0,L|97:182,1,315.000012016297,8|0,0:0|0:0,0:0:0:0:
