osu file format v14

[General]
AudioFilename: audio.mp3
AudioLeadIn: 0
PreviewTime: 43252
Countdown: 0
SampleSet: Soft
StackLeniency: 0.5
Mode: 0
LetterboxInBreaks: 0
WidescreenStoryboard: 1

[Editor]
DistanceSpacing: 1
BeatDivisor: 4
GridSize: 32
TimelineZoom: 1.8

[Metadata]
Title:Kagayaita (TV Size)
TitleUnicode:輝いた (TV Size)
Artist:Shigi
ArtistUnicode:シギ
Creator:Smoke
Version:Normal
Source:銀魂
Tags:ending ed 12 yoshiwara in flames gin sakata gintoki 坂田 銀時 gintama 上田 健司 Ueda Kenji season 1 japanese anime attendant
BeatmapID:2202515
BeatmapSetID:1054053

[Difficulty]
HPDrainRate:4
CircleSize:3.2
OverallDifficulty:4
ApproachRate:5.2
SliderMultiplier:1.1
SliderTickRate:1

[Events]
//Background and Video events
0,0,"gintoki+grave.jpg",0,0
Video,992,"ending.mp4"
//Break Periods
//Storyboard Layer 0 (Background)
//Storyboard Layer 1 (Fail)
//Storyboard Layer 2 (Pass)
//Storyboard Layer 3 (Foreground)
//Storyboard Layer 4 (Overlay)
//Storyboard Sound Samples

[TimingPoints]
1003,315.789473684211,4,2,1,60,1,0
1003,-100,4,2,1,60,0,0
1318,370.37037037037,4,2,1,60,1,0
1318,-100,4,2,1,60,0,0
1503,365.853658536585,4,2,1,60,1,0
1503,-100,4,2,1,60,0,0
2051,333.333333333333,4,2,1,60,1,0
2051,-100,4,2,1,60,0,0
2384,348.837209302326,4,2,1,60,1,0
2384,-100,4,2,1,60,0,0
2558,320.427236315087,4,2,1,60,1,0
2558,-100,4,2,1,60,0,0
3839,333.333333333333,4,2,1,60,1,0
3839,-100,4,2,1,60,0,0
4172,352.941176470588,4,2,1,60,1,0
4172,-100,4,2,1,60,0,0
4877,342.857142857143,4,2,1,60,1,0
4877,-100,4,2,1,60,0,0
5219,357.142857142857,4,2,1,60,1,0
5219,-100,4,2,1,60,0,0
5397,365.853658536585,4,2,1,60,1,0
5397,-100,4,2,1,60,0,0
5945,344.827586206896,4,2,1,55,1,0
5945,-100,4,2,1,55,0,0
6634,352.941176470588,4,2,1,55,1,0
6634,-100,4,2,1,55,0,0
8045,348.837209302326,4,2,1,55,1,0
8045,-100,4,2,1,55,0,0
8742,357.142857142857,4,2,1,55,1,0
8742,-100,4,2,1,55,0,0
9456,352.941176470588,4,2,1,55,1,0
9456,-100,4,2,1,55,0,0
11220,348.837209302326,4,2,1,55,1,0
11220,-100,4,2,1,55,0,0
11568,361.44578313253,4,2,1,55,1,0
11568,-100,4,2,1,55,0,0
11929,350.877192982456,4,2,1,55,1,0
11929,-100,4,2,1,55,0,0
12981,352.941176470588,4,2,1,55,1,0
12981,-100,4,2,1,55,0,0
13686,348.837209302326,4,2,1,55,1,0
13686,-100,4,2,1,55,0,0
14383,352.941176470588,4,2,1,55,1,0
14383,-100,4,2,1,55,0,0
15088,357.142857142857,4,2,1,55,1,0
15088,-100,4,2,1,55,0,0
16159,350.877192982456,4,2,1,55,1,0
16159,-100,4,2,1,55,0,0
16860,352.941176470588,4,2,1,55,1,0
16860,-100,4,2,1,55,0,0
17918,352.941176470588,4,2,1,55,1,0
17918,-100,4,2,1,55,0,0
18976,359.281437125748,4,2,1,55,1,0
18976,-100,4,2,1,55,0,0
19335,348.837209302326,4,2,1,55,1,0
19335,-100,4,2,1,55,0,0
19683,355.029585798817,4,2,1,55,1,0
19683,-100,4,2,1,55,0,0
20748,350.877192982456,4,2,1,55,1,0
20748,-100,4,2,1,55,0,0
22853,369.913686806412,4,2,1,55,1,0
22853,-100,4,2,1,55,0,0
23222,322.58064516129,4,2,1,55,1,0
23222,-100,4,2,1,55,0,0
23544,359.281437125748,4,2,1,55,1,0
23544,-100,4,2,1,55,0,0
24621,355.029585798817,4,2,1,55,1,0
24621,-100,4,2,1,55,0,0
24976,355.029585798817,4,2,1,55,1,0
24976,-100,4,2,1,55,0,0
25686,348.837209302326,4,2,1,55,1,0
25686,-100,4,2,1,55,0,0
26382,-100,4,2,1,60,0,0
26383,352.941176470588,4,2,1,60,1,0
26383,-100,4,2,1,60,0,0
27441,361.44578313253,4,2,1,60,1,0
27441,-100,4,2,1,60,0,0
28525,348.837209302326,4,2,1,60,1,0
28525,-100,4,2,1,60,0,0
29222,357.142857142857,4,2,1,60,1,0
29222,-100,4,2,1,60,0,0
30114,338.983050847458,4,2,1,60,1,0
30114,-100,4,2,1,60,0,0
30452,352.941176470588,4,2,1,60,1,0
30452,-100,4,2,1,60,0,0
30804,368.098159509202,4,2,1,60,1,0
30804,-100,4,2,1,60,0,0
31172,352.941176470588,4,2,1,60,1,0
31172,-100,4,2,1,60,0,0
31877,333.333333333333,4,2,1,60,1,0
31877,-100,4,2,1,60,0,0
32043,352.941176470588,4,2,1,60,1,0
32043,-100,4,2,1,60,0,0
33278,342.857142857143,4,2,1,60,1,0
33278,-100,4,2,1,60,0,0
33963,352.941176470588,4,2,1,60,1,0
33963,-100,4,2,1,60,0,0
34315,361.44578313253,4,2,1,60,1,0
34315,-100,4,2,1,60,0,0
34676,342.857142857143,4,2,1,60,1,0
34676,-100,4,2,1,60,0,0
34847,357.142857142857,4,2,1,60,1,0
34847,-100,4,2,1,60,0,0
35561,348.837209302326,4,2,1,60,1,0
35561,-100,4,2,1,60,0,0
36607,352.941176470588,4,2,1,60,1,0
36607,-100,4,2,1,60,0,0
37665,355.029585798817,4,2,1,60,1,0
37665,-100,4,2,1,50,0,0
38020,342.857142857143,4,2,1,50,1,0
38020,-100,4,2,1,50,0,0
38534,357.142857142857,4,2,1,50,1,0
38534,-100,4,2,1,50,0,0
38712,388.349514563107,4,2,1,50,1,0
38712,-100,4,2,1,50,0,0
39287,352.941176470588,4,2,1,60,1,0
39287,-100,4,2,1,50,0,0
39463,333.333333333333,4,2,1,55,1,0
39463,-100,4,2,1,55,0,0
39796,361.44578313253,4,2,1,60,1,0
39796,-100,4,2,1,55,0,0
40518,342.857142857143,4,2,1,60,1,0
40518,-100,4,2,1,70,0,0
41203,352.941176470588,4,2,1,60,1,0
41203,-100,4,2,1,70,0,0
41555,368.098159509202,4,2,1,60,1,0
41555,-100,4,2,1,70,0,0
42659,338.983050847458,4,2,1,70,1,0
42659,-100,4,2,1,70,0,0
43336,370.37037037037,4,2,1,80,1,1
43336,-100,4,2,1,80,0,1
43706,348.837209302326,4,2,1,60,1,1
43706,-100,4,2,1,80,0,1
44752,348.837209302326,4,2,1,60,1,1
44752,-100,4,2,1,80,0,1
45100,352.941176470588,4,2,1,60,1,1
45100,-100,4,2,1,80,0,1
46158,346.820809248555,4,2,1,60,1,1
46158,-100,4,2,1,80,0,1
46851,361.44578313253,4,2,1,60,1,1
46851,-100,4,2,1,80,0,1
47212,346.820809248555,4,2,1,60,1,1
47212,-100,4,2,1,80,0,1
47905,355.029585798817,4,2,1,60,1,1
47905,-100,4,2,1,80,0,1
48792,344.827586206897,4,2,1,60,1,1
48792,-100,4,2,1,80,0,1
48964,352.941176470588,4,2,1,60,1,1
48964,-100,4,2,1,80,0,1
49669,357.142857142857,4,2,1,60,1,1
49669,-100,4,2,1,80,0,1
50383,357.142857142857,4,2,1,60,1,1
50383,-100,4,2,1,80,0,1
51454,352.941176470588,4,2,1,60,1,1
51454,-100,4,2,1,80,0,1
51806,360.36036036036,4,2,1,60,1,1
51806,-100,4,2,1,80,0,1
52706,315.789473684211,4,2,1,60,1,1
52706,-100,4,2,1,80,0,1
52863,352.941176470588,4,2,1,60,1,1
52863,-100,4,2,1,80,0,1
53215,352.941176470588,4,2,1,60,1,1
53215,-100,4,2,1,80,0,1
53920,-100,4,2,1,65,0,0
54097,340.909090909091,4,2,1,65,1,0
54097,-100,4,2,1,70,0,0
54267,-100,4,2,1,70,0,0
54437,357.142857142857,4,2,1,60,1,0
54437,-100,4,2,1,80,0,1
54615,344.827586206897,4,2,1,60,1,0
54615,-100,4,2,1,80,0,1
54959,365.853658536585,4,2,1,80,1,1
54959,-100,4,2,1,80,0,1
55690,357.142857142857,4,2,1,80,1,1
55690,-100,4,2,1,80,0,1
56761,346.820809248555,4,2,1,80,1,1
56761,-100,4,2,1,80,0,1
57454,361.44578313253,4,2,1,80,1,1
57454,-100,4,2,1,80,0,1
57815,352.941176470588,4,2,1,80,1,1
57815,-100,4,2,1,80,0,1
58873,352.941176470588,4,2,1,80,1,1
58873,-100,4,2,1,80,0,1
60284,349.040139616056,4,2,1,80,1,1
60284,-100,4,2,1,80,0,1
60982,352.941176470588,4,2,1,80,1,1
60982,-100,4,2,1,80,0,1
61511,346.820809248555,4,2,1,80,1,1
61511,-100,4,2,1,80,0,1
62031,352.941176470588,4,2,1,80,1,1
62031,-100,4,2,1,80,0,1
63089,352.941176470588,4,2,1,80,1,1
63089,-100,4,2,1,75,0,0
64147,357.142857142857,4,2,1,60,1,0
64147,-100,4,2,1,75,0,0
65218,-100,4,2,1,65,0,0
65397,338.983050847458,4,2,1,60,1,0
65397,-100,4,2,1,70,0,0
65905,379.746835443038,4,2,1,60,1,1
65905,-100,4,2,1,80,0,1
66284,361.44578313253,4,2,1,60,1,1
66284,-100,4,2,1,80,0,1
66826,337.078651685393,4,2,1,60,1,1
66826,-100,4,2,1,80,0,1
67500,357.142857142857,4,2,1,60,1,1
67500,-100,4,2,1,80,0,1
67678,357.142857142857,4,2,1,60,1,1
67678,-100,4,2,1,80,0,1
68392,352.941176470588,4,2,1,60,1,1
68392,-100,4,2,1,80,0,1
68744,352.941176470588,4,2,1,60,1,1
68744,-100,4,2,1,80,0,1
69979,348.837209302326,4,2,1,60,1,1
69979,-100,4,2,1,80,0,1
70676,352.941176470588,4,2,1,60,1,1
70676,-100,4,2,1,80,0,1
71558,361.44578313253,4,2,1,60,1,1
71558,-100,4,2,1,80,0,1
72280,352.941176470588,4,2,1,60,1,1
72280,-100,4,2,1,80,0,1
72985,352.941176470588,4,2,1,60,1,1
72985,-100,4,2,1,80,0,1
76161,337.078651685393,4,2,1,60,1,1
76161,-100,4,2,1,80,0,1
76329,361.44578313253,4,2,1,60,1,1
76329,-100,4,2,1,80,0,1
77051,352.941176470588,4,2,1,60,1,1
77051,-100,4,2,1,80,0,1
77227,352.941176470588,4,2,1,60,1,0
77227,-100,4,2,1,60,0,0
78285,337.078651685393,4,2,1,60,1,0
78285,-100,4,2,1,60,0,0
78622,344.827586206897,4,2,1,60,1,0
78622,-100,4,2,1,60,0,0
78794,359.281437125748,4,2,1,60,1,0
78794,-100,4,2,1,60,0,0
80051,352.941176470588,4,2,1,60,1,0
80051,-100,4,2,1,60,0,0
80580,342.857142857143,4,2,1,60,1,0
80580,-100,4,2,1,60,0,0
81094,352.941176470588,4,2,1,60,1,0
81094,-100,4,2,1,60,0,0
81623,365.296803652968,4,2,1,60,1,0
81623,-100,4,2,1,60,0,0
82718,352.941176470588,4,2,1,60,1,0
82718,-100,4,2,1,60,0,0
82894,352.941176470588,4,2,1,60,1,0
82894,-100,4,2,1,60,0,0
83246,-100,4,2,1,55,0,0
83599,-100,4,2,1,50,0,0
83952,-100,4,2,1,45,0,0
84305,-100,4,2,1,40,0,0
84658,-100,4,2,1,35,0,0
85011,-100,4,2,1,30,0,0
85360,-100,4,2,1,25,0,0
85713,-100,4,2,1,20,0,0
86066,-100,4,2,1,15,0,0
86419,-100,4,2,1,10,0,0
86772,-100,4,2,1,5,0,0
88364,-100,4,2,11,5,0,0

[Colours]
Combo1 : 104,119,119
Combo2 : 154,154,154
Combo3 : 207,207,207
Combo4 : 103,158,158

[HitObjects]
193,138,1003,6,0,L|199:61,2,55,10|0|0,3:2|3:2|3:2,0:0:0:0:
226,182,1503,1,8,3:2:0:0:
343,309,2051,2,0,L|349:385,2,55,10|0|0,3:2|3:2|3:2,0:0:0:0:
376,265,2558,1,8,3:2:0:0:
234,133,3839,6,0,L|310:138,2,55,10|0|0,3:2|3:2|3:2,0:0:0:0:
190,166,4348,1,8,3:2:0:0:
63,283,4877,2,0,L|-13:289,2,55,10|0|0,3:2|3:2|3:2,0:0:0:0:
107,315,5397,1,10,3:2:0:0:
3,174,5945,6,0,L|76:181,1,55,8|8,3:2|3:2,0:0:0:0:
112,186,6289,1,8,3:2:0:0:
179,272,6634,6,0,P|231:257|290:256,1,110,6|10,3:2|3:2,0:0:0:0:
390,292,7339,1,2,3:2:0:0:
390,292,7516,2,0,P|425:291|461:284,1,55,2|8,0:0|3:2,0:0:0:0:
490,256,7869,1,2,0:0:0:0:
451,153,8219,1,2,0:0:0:0:
510,60,8568,2,0,P|459:40|389:57,1,111,2|2,0:0|0:0,0:0:0:0:
356,73,9099,2,0,P|325:73|281:65,1,55,10|2,3:2|0:0,0:0:0:0:
255,100,9456,6,0,B|272:160|272:160|261:227,1,110,2|10,3:2|3:2,0:0:0:0:
254,261,9985,1,2,0:0:0:0:
159,204,10338,1,2,0:0:0:0:
66,264,10691,2,0,P|118:309|183:314,1,110,2|0,0:0|0:0,0:0:0:0:
209,298,11220,2,0,P|239:293|277:293,1,55,8|0,3:2|0:0,0:0:0:0:
316,308,11568,1,2,3:2:0:0:
405,243,11929,1,10,3:2:0:0:
502,293,12279,6,0,L|491:167,1,110,2|10,3:2|3:2,0:0:0:0:
486,128,12806,1,2,0:0:0:0:
405,53,13157,1,2,0:0:0:0:
309,107,13510,1,2,0:0:0:0:
309,107,13686,2,0,P|257:120|190:94,1,110,2|10,3:2|3:2,0:0:0:0:
159,70,14209,2,0,P|101:72|33:79,1,110.5,2|2,0:0|0:0,0:0:0:0:
4,109,14735,2,0,L|7:174,1,55,10|2,3:2|0:0,0:0:0:0:
10,218,15088,5,2,3:2:0:0:
18,327,15445,1,10,3:2:0:0:
119,368,15802,1,2,3:2:0:0:
119,368,15980,2,0,P|154:368|178:364,1,55,2|8,0:0|3:2,0:0:0:0:
218,333,16334,2,0,P|277:322|332:355,1,110,2|0,0:0|0:0,0:0:0:0:
360,380,16860,1,8,3:2:0:0:
469,383,17212,1,0,3:2:0:0:
507,279,17565,2,0,P|505:249|499:213,1,55,2|8,1:3|1:3,0:0:0:0:
463,184,17918,6,0,B|410:194|410:194|349:175,1,110,6|10,3:2|3:2,0:0:0:0:
252,141,18623,1,2,3:2:0:0:
252,141,18800,2,0,L|258:71,1,55,2|8,0:0|3:2,0:0:0:0:
260,31,19155,1,2,0:0:0:0:
151,14,19509,1,2,0:0:0:0:
67,85,19860,1,2,0:0:0:0:
93,191,20215,1,2,0:0:0:0:
93,191,20393,2,0,L|89:271,1,55,8|2,3:2|0:0,0:0:0:0:
61,292,20748,6,0,P|118:277|187:288,1,110,2|10,3:2|3:2,0:0:0:0:
220,300,21274,1,2,0:0:0:0:
220,300,21449,2,0,P|254:301|295:295,1,55,2|2,3:2|0:0,0:0:0:0:
367,239,21976,2,0,L|375:354,1,110,2|0,0:0|0:0,0:0:0:0:
420,379,22502,2,0,P|455:375|480:364,1,55,8|0,3:2|0:0,0:0:0:0:
504,322,22853,1,2,3:2:0:0:
471,217,23222,1,10,3:2:0:0:
508,113,23544,6,0,B|460:97|460:97|387:109,1,110,4|10,3:2|3:2,0:0:0:0:
347,118,24082,1,2,0:0:0:0:
256,54,24442,1,2,0:0:0:0:
177,131,24798,1,0,0:0:0:0:
177,131,24976,2,0,P|172:81|164:20,1,110,2|10,3:2|3:2,0:0:0:0:
109,14,25508,2,0,P|80:21|50:21,1,55,2|0,0:0|3:2,0:0:0:0:
15,60,25860,1,2,0:0:0:0:
15,60,26034,1,10,3:2:0:0:
31,168,26383,6,0,B|40:227|40:227|20:289,1,110,6|10,3:2|3:2,0:0:0:0:
7,327,26912,2,0,B|66:318|66:318|128:338,1,110,6|10,3:2|3:2,0:0:0:0:
153,371,27441,2,0,P|204:364|283:359,1,110,6|10,3:2|3:2,0:0:0:0:
303,324,27983,2,0,P|296:273|291:194,1,110,6|2,3:2|3:2,0:0:0:0:
298,159,28525,1,14,3:2:0:0:
391,101,28873,1,10,3:2:0:0:
475,171,29222,6,0,P|470:225|463:280,2,110,6|8|0,3:2|3:2|3:2,0:0:0:0:
478,115,30114,1,0,3:2:0:0:
382,61,30452,2,0,P|326:47|257:71,1,110,6|2,3:2|3:2,0:0:0:0:
230,89,30988,1,8,3:2:0:0:
230,89,31172,2,0,L|108:81,1,110,2|2,0:0|3:2,0:0:0:0:
65,74,31701,1,10,3:2:0:0:
43,181,32043,6,0,B|34:241|34:241|46:298,1,110,6|10,3:2|3:2,0:0:0:0:
141,237,32748,1,2,3:2:0:0:
230,301,33101,1,8,3:2:0:0:
230,301,33278,2,0,P|291:310|342:279,1,110,6|2,3:2|3:2,0:0:0:0:
372,251,33792,1,8,3:2:0:0:
372,251,33963,2,0,P|430:245|488:244,1,110,6|2,3:2|3:2,0:0:0:0:
509,195,34495,2,0,P|500:164|487:139,1,55,10|10,3:2|3:2,0:0:0:0:
448,107,34847,6,0,P|460:63|493:0,2,110,4|8|2,3:2|3:2|3:2,0:0:0:0:
402,138,35735,1,2,3:2:0:0:
314,70,36084,2,0,B|259:58|259:58|201:79,1,110,6|2,3:2|3:2,0:0:0:0:
156,96,36607,1,8,3:2:0:0:
53,58,36959,2,0,L|48:129,1,55,2|2,3:2|3:2,0:0:0:0:
23,161,37312,2,0,L|28:232,1,55,10|2,3:2|0:0,0:0:0:0:
60,259,37665,6,0,P|113:237|172:253,1,110,6|8,3:2|3:2,0:0:0:0:
206,280,38191,2,0,P|259:258|309:271,1,110,6|8,3:2|3:2,0:0:0:0:
352,303,38711,1,6,3:2:0:0:
464,175,39287,1,8,3:2:0:0:
464,175,39463,2,0,L|460:103,1,55,8|8,3:2|1:3,0:0:0:0:
425,77,39796,2,0,L|353:72,1,55,8|2,1:3|1:3,0:0:0:0:
314,72,40157,1,8,1:3:0:0:
213,27,40518,6,0,L|222:152,1,110,14|4,3:2|3:3,0:0:0:0:
250,182,41032,2,0,L|241:307,1,111.5,14|4,3:2|3:3,0:0:0:0:
237,346,41555,1,14,3:2:0:0:
19,98,42659,6,0,L|83:103,1,55,8|8,3:2|3:2,0:0:0:0:
128,109,42997,1,8,3:2:0:0:
213,55,43336,6,0,P|254:82|325:86,1,110,6|8,3:2|3:2,0:0:0:0:
343,193,44054,1,0,3:2:0:0:
343,193,44229,2,0,L|279:200,1,55,0|8,3:2|3:2,0:0:0:0:
238,220,44578,2,0,L|230:337,1,110,0|0,3:2|3:2,0:0:0:0:
202,377,45100,1,8,3:2:0:0:
146,281,45452,1,2,3:2:0:0:
238,220,45805,1,10,3:2:0:0:
172,131,46158,6,0,P|222:112|282:121,1,110,6|10,3:2|3:2,0:0:0:0:
325,146,46678,1,2,0:0:0:0:
430,114,47031,2,0,P|451:135|470:163,1,55,2|8,3:2|3:2,0:0:0:0:
489,205,47385,1,2,3:2:0:0:
437,302,47732,2,0,P|413:300|377:290,1,55,2|8,3:2|3:2,0:0:0:0:
333,266,48082,2,0,P|271:259|211:259,1,110,2|2,0:0|3:2,0:0:0:0:
168,264,48615,1,10,3:2:0:0:
58,274,48964,6,0,P|36:324|54:385,2,110,6|8|2,3:2|3:2|3:2,0:0:0:0:
92,231,49847,2,0,P|91:206|85:165,1,55,2|8,3:2|3:2,0:0:0:0:
76,122,50204,1,2,3:2:0:0:
168,60,50561,2,0,P|195:67|228:72,1,55,2|8,3:2|3:2,0:0:0:0:
274,86,50918,1,2,0:0:0:0:
339,174,51275,1,2,3:2:0:0:
339,174,51454,2,0,L|413:179,1,55,10|2,3:2|0:0,0:0:0:0:
446,192,51806,6,0,L|453:305,2,110,6|8|0,3:2|3:2|3:2,0:0:0:0:
475,143,52706,2,0,L|479:80,1,55,0|8,3:2|3:2,0:0:0:0:
443,45,53039,2,0,B|393:27|393:27|335:39,1,110,4|0,3:2|3:2,0:0:0:0:
283,52,53567,1,8,3:2:0:0:
180,12,53920,1,10,3:2:0:0:
84,65,54267,1,10,3:2:0:0:
76,174,54615,6,0,L|67:308,1,110,6|10,3:2|3:2,0:0:0:0:
65,338,55141,1,2,0:0:0:0:
168,376,55507,2,0,L|241:365,1,55,2|8,3:2|3:2,0:0:0:0:
260,328,55868,1,2,3:2:0:0:
200,235,56225,2,0,L|210:167,1,55,2|8,3:2|3:2,0:0:0:0:
223,127,56582,1,2,0:0:0:0:
223,127,56761,2,0,P|284:107|340:121,1,110,2|8,3:2|3:2,0:0:0:0:
379,136,57281,1,2,0:0:0:0:
379,136,57454,6,0,P|369:205|365:259,1,110,2|10,3:2|3:2,0:0:0:0:
390,294,57991,1,2,0:0:0:0:
497,269,58344,2,0,P|494:238|484:196,1,55,2|8,3:2|3:2,0:0:0:0:
477,160,58697,1,2,3:2:0:0:
498,52,59049,1,2,3:2:0:0:
498,52,59225,2,0,L|423:47,1,55,10|2,3:2|0:0,0:0:0:0:
394,74,59578,2,0,L|387:177,2,82.5,2|2|2,3:2|0:0|0:0,0:0:0:0:
342,55,60284,6,0,B|286:66|286:66|223:49,1,110,2|8,3:2|3:2,0:0:0:0:
126,35,60982,2,0,P|134:70|138:100,1,55,2|0,3:2|3:2,0:0:0:0:
97,127,61334,1,8,3:2:0:0:
97,127,61511,2,0,P|84:197|80:257,1,110,2|0,3:2|3:2,0:0:0:0:
59,286,62031,1,8,3:2:0:0:
59,286,62207,2,0,P|116:264|163:271,1,110,2|2,0:0|3:2,0:0:0:0:
207,302,62736,1,10,3:2:0:0:
297,239,63089,6,0,L|305:366,1,110,6|8,3:2|3:2,0:0:0:0:
348,382,63618,2,0,P|406:368|472:364,1,110,6|8,3:2|3:2,0:0:0:0:
510,357,64147,1,6,3:2:0:0:
498,129,65218,5,10,3:2:0:0:
408,65,65566,1,10,3:2:0:0:
305,104,65905,6,0,P|251:114|201:83,1,110,6|8,3:2|3:2,0:0:0:0:
124,12,66645,2,0,L|59:21,1,55,0|0,3:2|3:2,0:0:0:0:
16,32,66994,1,8,3:2:0:0:
26,141,67331,2,0,L|152:153,1,113,2|8,0:0|3:2,0:0:0:0:
222,218,68035,2,0,L|216:277,1,55,0|0,3:2|3:2,0:0:0:0:
211,327,68392,1,8,3:2:0:0:
105,357,68744,6,0,L|117:236,1,110,6|8,3:2|3:2,0:0:0:0:
144,141,69449,2,0,P|179:143|208:151,1,55,0|0,3:2|3:2,0:0:0:0:
239,192,69802,1,8,3:2:0:0:
239,192,69979,2,0,P|300:204|358:178,1,110,6|0,3:2|3:2,0:0:0:0:
392,161,70502,1,8,3:2:0:0:
392,161,70676,2,0,L|382:282,1,110,4|0,3:2|3:2,0:0:0:0:
378,325,71205,1,10,3:2:0:0:
272,357,71558,6,0,P|215:339|149:351,1,110,6|10,3:2|3:2,0:0:0:0:
114,365,72100,1,2,0:0:0:0:
58,269,72456,2,0,P|61:237|69:196,1,55,2|8,3:2|3:2,0:0:0:0:
108,180,72809,2,0,P|107:123|101:48,1,110,6|2,3:2|3:2,0:0:0:0:
196,9,73514,1,2,0:0:0:0:
196,9,73690,2,0,P|249:30|317:14,1,110,2|8,3:2|3:2,0:0:0:0:
350,45,74220,1,2,0:0:0:0:
350,45,74396,6,0,P|335:107|331:163,1,110,6|10,3:2|3:2,0:0:0:0:
328,208,74926,1,2,0:0:0:0:
427,162,75279,2,0,P|438:195|460:229,1,55,2|8,3:2|3:2,0:0:0:0:
487,249,75632,2,0,P|474:311|445:347,1,110,6|2,3:2|3:2,0:0:0:0:
390,345,76161,1,8,3:2:0:0:
390,345,76329,2,0,P|339:326|279:335,1,110,6|0,3:2|3:2,0:0:0:0:
231,348,76871,1,8,3:2:0:0:
146,276,77227,6,0,L|70:270,2,55,14|0|0,3:2|3:2|3:2,0:0:0:0:
190,243,77756,1,8,3:2:0:0:
317,126,78285,2,0,L|393:120,2,55,10|0|0,3:2|3:2|3:2,0:0:0:0:
273,93,78794,1,8,3:2:0:0:
59,64,80051,6,0,L|65:-12,2,55,10|0|0,3:2|3:2|3:2,0:0:0:0:
92,108,80580,1,8,3:2:0:0:
209,235,81094,2,0,L|215:311,2,55,10|0|0,3:2|3:2|3:2,0:0:0:0:
242,191,81623,1,10,3:2:0:0:
390,369,82718,6,0,L|386:314,1,55,8|4,1:3|3:2,0:3:0:0:
256,192,82982,12,0,88541,0:0:0:0:
