osu file format v14

[General]
AudioFilename: audio.mp3
AudioLeadIn: 0
PreviewTime: 43252
Countdown: 0
SampleSet: Soft
StackLeniency: 0.4
Mode: 0
LetterboxInBreaks: 0
WidescreenStoryboard: 0

[Editor]
DistanceSpacing: 0.8
BeatDivisor: 4
GridSize: 32
TimelineZoom: 1.8

[Metadata]
Title:Kagayaita (TV Size)
TitleUnicode:輝いた (TV Size)
Artist:Shigi
ArtistUnicode:シギ
Creator:Smoke
Version:Insane
Source:銀魂
Tags:ending ed 12 yoshiwara in flames gin sakata gintoki 坂田 銀時 gintama 上田 健司 Ueda Kenji season 1 japanese anime attendant
BeatmapID:2202514
BeatmapSetID:1054053

[Difficulty]
HPDrainRate:5.2
CircleSize:4.3
OverallDifficulty:8
ApproachRate:9
SliderMultiplier:1.7
SliderTickRate:1

[Events]
//Background and Video events
0,0,"gintoki+grave.jpg",0,0
Video,992,"ending.mp4"
//Break Periods
//Storyboard Layer 0 (Background)
//Storyboard Layer 1 (Fail)
//Storyboard Layer 2 (Pass)
//Storyboard Layer 3 (Foreground)
//Storyboard Layer 4 (Overlay)
//Storyboard Sound Samples

[TimingPoints]
1003,315.789473684211,4,2,1,60,1,0
1003,-100,4,2,1,60,0,0
1318,370.37037037037,4,2,1,60,1,0
1318,-100,4,2,1,60,0,0
1503,365.853658536585,4,2,1,60,1,0
1503,-100,4,2,1,60,0,0
2051,333.333333333333,4,2,1,60,1,0
2051,-100,4,2,1,60,0,0
2384,348.837209302326,4,2,1,60,1,0
2384,-100,4,2,1,60,0,0
2558,320.427236315087,4,2,1,60,1,0
2558,-100,4,2,1,60,0,0
3839,333.333333333333,4,2,1,60,1,0
3839,-100,4,2,1,60,0,0
4172,352.941176470588,4,2,1,60,1,0
4172,-100,4,2,1,60,0,0
4877,342.857142857143,4,2,1,60,1,0
4877,-100,4,2,1,60,0,0
5219,357.142857142857,4,2,1,60,1,0
5219,-100,4,2,1,60,0,0
5397,365.853658536585,4,2,1,60,1,0
5397,-100,4,2,1,60,0,0
5945,344.827586206896,4,2,1,60,1,0
5945,-100,4,2,1,60,0,0
6634,352.941176470588,4,2,1,50,1,0
6634,-125,4,2,1,50,0,0
8045,348.837209302326,4,2,1,60,1,0
8045,-125,4,2,1,50,0,0
8742,357.142857142857,4,2,1,60,1,0
8742,-125,4,2,1,50,0,0
9456,352.941176470588,4,2,1,60,1,0
9456,-125,4,2,1,50,0,0
11220,348.837209302326,4,2,1,60,1,0
11220,-125,4,2,1,50,0,0
11568,361.44578313253,4,2,1,60,1,0
11568,-125,4,2,1,50,0,0
11839,-125,4,2,11,5,0,0
11929,350.877192982456,4,2,1,60,1,0
11929,-125,4,2,1,50,0,0
12192,-125,4,2,11,5,0,0
12279,-125,4,2,1,50,0,0
12981,352.941176470588,4,2,1,60,1,0
12981,-125,4,2,1,50,0,0
13686,348.837209302326,4,2,1,60,1,0
13686,-125,4,2,1,50,0,0
14383,352.941176470588,4,2,1,60,1,0
14383,-125,4,2,1,50,0,0
15088,357.142857142857,4,2,1,60,1,0
15088,-125,4,2,1,50,0,0
15355,-125,4,2,11,5,0,0
15445,-125,4,2,1,50,0,0
15713,-125,4,2,11,5,0,0
15802,-125,4,2,1,50,0,0
16159,350.877192982456,4,2,1,60,1,0
16159,-125,4,2,1,50,0,0
16860,352.941176470588,4,2,1,60,1,0
16860,-125,4,2,1,50,0,0
17918,352.941176470588,4,2,1,60,1,0
17918,-125,4,2,1,50,0,0
18976,359.281437125748,4,2,1,60,1,0
18976,-125,4,2,1,50,0,0
19335,348.837209302326,4,2,1,60,1,0
19335,-125,4,2,1,50,0,0
19683,355.029585798817,4,2,1,60,1,0
19683,-125,4,2,1,50,0,0
20748,350.877192982456,4,2,1,60,1,0
20748,-125,4,2,1,50,0,0
21011,-125,4,2,11,5,0,0
21098,-125,4,2,1,50,0,0
22239,-125,4,2,11,5,0,0
22326,-125,4,2,1,50,0,0
22853,369.913686806412,4,2,1,60,1,0
22853,-125,4,2,1,50,0,0
23222,322.58064516129,4,2,1,60,1,0
23222,-125,4,2,1,50,0,0
23544,359.281437125748,4,2,1,60,1,0
23544,-125,4,2,1,50,0,0
24621,355.029585798817,4,2,1,60,1,0
24621,-125,4,2,1,50,0,0
24976,355.029585798817,4,2,1,60,1,0
24976,-125,4,2,1,50,0,0
25686,348.837209302326,4,2,1,60,1,0
25686,-125,4,2,1,50,0,0
25773,-125,4,2,11,5,0,0
25860,-125,4,2,1,50,0,0
26382,-100,4,2,1,60,0,0
26383,352.941176470588,4,2,1,60,1,0
26383,-100,4,2,1,60,0,0
26647,-100,4,2,11,5,0,0
26735,-100,4,2,1,60,0,0
27177,-100,4,2,11,5,0,0
27265,-100,4,2,1,60,0,0
27441,361.44578313253,4,2,1,60,1,0
27441,-100,4,2,1,60,0,0
27712,-100,4,2,11,5,0,0
27802,-100,4,2,1,60,0,0
28254,-100,4,2,11,5,0,0
28344,-100,4,2,1,60,0,0
28525,348.837209302326,4,2,1,60,1,0
28525,-100,4,2,1,60,0,0
29222,357.142857142857,4,2,1,60,1,0
29222,-111.111111111111,4,2,1,60,0,0
30114,338.983050847458,4,2,1,60,1,0
30114,-100,4,2,1,60,0,0
30452,352.941176470588,4,2,1,60,1,0
30452,-111.111111111111,4,2,1,60,0,0
30716,-111.111111111111,4,2,11,5,0,0
30804,368.098159509202,4,2,1,60,1,0
30804,-111.111111111111,4,2,1,60,0,0
31172,352.941176470588,4,2,1,60,1,0
31172,-111.111111111111,4,2,1,60,0,0
31877,333.333333333333,4,2,1,60,1,0
31877,-111.111111111111,4,2,1,60,0,0
32043,352.941176470588,4,2,1,60,1,0
32043,-111.111111111111,4,2,1,60,0,0
32307,-111.111111111111,4,2,11,5,0,0
32395,-111.111111111111,4,2,1,60,0,0
32660,-111.111111111111,4,2,11,5,0,0
32748,-111.111111111111,4,2,1,60,0,0
33278,342.857142857143,4,2,1,60,1,0
33278,-99.9999999999999,4,2,1,60,0,0
33963,352.941176470588,4,2,1,60,1,0
33963,-99.9999999999999,4,2,1,60,0,0
34315,361.44578313253,4,2,1,60,1,0
34315,-99.9999999999999,4,2,1,60,0,0
34495,-99.9999999999999,4,2,1,60,0,0
34676,342.857142857143,4,2,1,60,1,0
34676,-99.9999999999999,4,2,1,60,0,0
34847,357.142857142857,4,2,1,60,1,0
34847,-111.111111111111,4,2,1,60,0,0
35114,-111.111111111111,4,2,11,5,0,0
35204,-111.111111111111,4,2,1,60,0,0
35561,348.837209302326,4,2,1,60,1,0
35561,-111.111111111111,4,2,1,60,0,0
36345,-111.111111111111,4,2,11,5,0,0
36433,-111.111111111111,4,2,1,60,0,0
36607,352.941176470588,4,2,1,60,1,0
36607,-111.111111111111,4,2,1,60,0,0
37665,355.029585798817,4,2,1,60,1,0
37665,-99.9999999999999,4,2,1,60,0,0
37931,-99.9999999999999,4,2,11,5,0,0
38020,342.857142857143,4,2,1,50,1,0
38020,-99.9999999999999,4,2,1,60,0,0
38448,-99.9999999999999,4,2,11,5,0,0
38534,357.142857142857,4,2,1,50,1,0
38534,-99.9999999999999,4,2,1,60,0,0
38712,388.349514563107,4,2,1,50,1,0
38712,-200,4,2,1,60,0,0
39197,-99.9999999999999,4,2,11,5,0,0
39287,352.941176470588,4,2,1,60,1,0
39287,-99.9999999999999,4,2,1,60,0,0
39463,333.333333333333,4,2,1,60,1,0
39463,-99.9999999999999,4,2,1,60,0,0
39796,361.44578313253,4,2,1,60,1,0
39796,-99.9999999999999,4,2,1,60,0,0
40518,342.857142857143,4,2,1,60,1,0
40518,-90.9090909090909,4,2,1,70,0,0
40775,-90.9090909090909,4,2,11,5,0,0
40860,-83.3333333333333,4,2,1,70,0,0
41203,352.941176470588,4,2,1,60,1,0
41203,-83.3333333333333,4,2,1,70,0,0
41291,-83.3333333333333,4,2,11,5,0,0
41379,-90.9090909090909,4,2,1,70,0,0
41555,368.098159509202,4,2,1,60,1,0
41555,-333.333333333334,4,2,1,70,0,0
42567,-333.333333333334,4,2,11,5,0,0
42659,338.983050847458,4,2,1,70,1,0
42659,-111.111111111111,4,2,1,70,0,0
43336,370.37037037037,4,2,1,80,1,1
43336,-83.3333333333334,4,2,1,80,0,1
43613,-83.3333333333334,4,2,11,5,0,1
43706,348.837209302326,4,2,1,60,1,1
43706,-83.3333333333333,4,2,1,80,0,1
44752,348.837209302326,4,2,1,60,1,1
44752,-83.3333333333333,4,2,1,80,0,1
45100,352.941176470588,4,2,1,60,1,1
45100,-83.3333333333333,4,2,1,80,0,1
46158,346.820809248555,4,2,1,60,1,1
46158,-83.3333333333333,4,2,1,80,0,1
46851,361.44578313253,4,2,1,60,1,1
46851,-83.3333333333333,4,2,1,80,0,1
47212,346.820809248555,4,2,1,60,1,1
47212,-83.3333333333333,4,2,1,80,0,1
47905,355.029585798817,4,2,1,60,1,1
47905,-83.3333333333333,4,2,1,80,0,1
48792,344.827586206897,4,2,1,60,1,1
48792,-83.3333333333333,4,2,1,80,0,1
48964,352.941176470588,4,2,1,60,1,1
48964,-83.3333333333333,4,2,1,80,0,1
49228,-83.3333333333333,4,2,11,5,0,1
49316,-83.3333333333333,4,2,1,80,0,1
49669,357.142857142857,4,2,1,60,1,1
49669,-83.3333333333333,4,2,1,80,0,1
50383,357.142857142857,4,2,1,60,1,1
50383,-83.3333333333333,4,2,1,80,0,1
50472,-83.3333333333333,4,2,11,5,0,1
50561,-83.3333333333333,4,2,1,80,0,1
51186,-83.3333333333333,4,2,11,5,0,1
51275,-83.3333333333333,4,2,1,80,0,1
51454,352.941176470588,4,2,1,60,1,1
51454,-83.3333333333333,4,2,1,80,0,1
51806,360.36036036036,4,2,1,60,1,1
51806,-83.3333333333333,4,2,1,80,0,1
52076,-83.3333333333333,4,2,11,5,0,1
52166,-83.3333333333333,4,2,1,80,0,1
52706,315.789473684211,4,2,1,60,1,1
52706,-83.3333333333333,4,2,1,80,0,1
52863,352.941176470588,4,2,1,60,1,1
52863,-83.3333333333333,4,2,1,80,0,1
53215,352.941176470588,4,2,1,60,1,1
53215,-83.3333333333333,4,2,1,80,0,1
53920,-90.9090909090909,4,2,1,65,0,0
54097,340.909090909091,4,2,1,60,1,1
54097,-90.9090909090909,4,2,1,65,0,0
54267,-90.9090909090909,4,2,1,70,0,0
54437,357.142857142857,4,2,1,60,1,1
54437,-90.9090909090909,4,2,1,70,0,0
54615,344.827586206897,4,2,1,60,1,1
54615,-83.3333333333333,4,2,1,80,0,1
54873,-83.3333333333333,4,2,1,5,0,1
54959,365.853658536585,4,2,1,60,1,1
54959,-83.3333333333333,4,2,1,80,0,1
55690,357.142857142857,4,2,1,60,1,1
55690,-83.3333333333333,4,2,1,80,0,1
56136,-83.3333333333333,4,2,11,5,0,1
56225,-83.3333333333333,4,2,1,80,0,1
56761,346.820809248555,4,2,1,60,1,1
56761,-83.3333333333333,4,2,1,80,0,1
57454,361.44578313253,4,2,1,60,1,1
57454,-83.3333333333333,4,2,1,80,0,1
57815,352.941176470588,4,2,1,60,1,1
57815,-83.3333333333333,4,2,1,80,0,1
58873,352.941176470588,4,2,1,60,1,1
58873,-83.3333333333333,4,2,1,80,0,1
60020,-83.3333333333333,4,2,11,5,0,1
60108,-83.3333333333333,4,2,1,80,0,1
60196,-83.3333333333333,4,2,11,5,0,1
60284,349.040139616056,4,2,1,60,1,1
60284,-83.3333333333333,4,2,1,80,0,1
60982,352.941176470588,4,2,1,60,1,1
60982,-83.3333333333333,4,2,1,80,0,1
61511,346.820809248555,4,2,1,60,1,1
61511,-83.3333333333333,4,2,1,80,0,1
61771,-83.3333333333333,4,2,11,5,0,1
61857,-83.3333333333333,4,2,1,80,0,1
62031,352.941176470588,4,2,1,60,1,1
62031,-83.3333333333333,4,2,1,80,0,1
62472,-83.3333333333333,4,2,11,5,0,1
62560,-83.3333333333333,4,2,1,80,0,1
63089,352.941176470588,4,2,1,60,1,1
63089,-83.3333333333333,4,2,1,80,0,1
63353,-83.3333333333333,4,2,11,5,0,1
63441,-83.3333333333333,4,2,1,80,0,1
63883,-83.3333333333333,4,2,11,5,0,1
63971,-83.3333333333333,4,2,1,80,0,1
64147,357.142857142857,4,2,1,60,1,0
64147,-125,4,2,1,80,0,0
64861,-125,4,2,11,5,0,0
65218,-125,4,2,1,80,0,0
65397,338.983050847458,4,2,1,60,1,0
65397,-125,4,2,1,80,0,0
65905,379.746835443038,4,2,1,60,1,1
65905,-83.3333333333333,4,2,1,80,0,1
66189,-83.3333333333333,4,2,11,5,0,1
66284,361.44578313253,4,2,1,60,1,1
66284,-83.3333333333333,4,2,1,80,0,1
66826,337.078651685393,4,2,1,60,1,1
66826,-83.3333333333333,4,2,1,80,0,1
67500,357.142857142857,4,2,1,60,1,1
67500,-83.3333333333333,4,2,1,80,0,1
67678,357.142857142857,4,2,1,60,1,1
67678,-83.3333333333333,4,2,1,80,0,1
68392,352.941176470588,4,2,1,60,1,1
68392,-83.3333333333333,4,2,1,80,0,1
68744,352.941176470588,4,2,1,60,1,1
68744,-83.3333333333333,4,2,1,80,0,1
69008,-83.3333333333333,4,2,11,5,0,1
69096,-83.3333333333333,4,2,1,80,0,1
69979,348.837209302326,4,2,1,60,1,1
69979,-83.3333333333333,4,2,1,80,0,1
70240,-83.3333333333333,4,2,11,5,0,1
70327,-83.3333333333333,4,2,1,80,0,1
70676,352.941176470588,4,2,1,60,1,1
70676,-83.3333333333333,4,2,1,80,0,1
71558,361.44578313253,4,2,1,60,1,1
71558,-83.3333333333333,4,2,1,80,0,1
71829,-83.3333333333333,4,2,11,5,0,1
71919,-83.3333333333333,4,2,1,80,0,1
72280,352.941176470588,4,2,1,60,1,1
72280,-83.3333333333333,4,2,1,80,0,1
72985,352.941176470588,4,2,1,60,1,1
72985,-83.3333333333333,4,2,1,80,0,1
73073,-83.3333333333333,4,2,11,5,0,1
73161,-83.3333333333333,4,2,1,80,0,1
76161,337.078651685393,4,2,1,60,1,1
76161,-83.3333333333333,4,2,1,80,0,1
76329,361.44578313253,4,2,1,60,1,1
76329,-83.3333333333333,4,2,1,80,0,1
77051,352.941176470588,4,2,1,60,1,1
77051,-83.3333333333333,4,2,1,80,0,1
77227,352.941176470588,4,2,1,60,1,0
77227,-100,4,2,1,60,0,0
78285,337.078651685393,4,2,1,60,1,0
78285,-100,4,2,1,60,0,0
78622,344.827586206897,4,2,1,60,1,0
78622,-100,4,2,1,60,0,0
78794,359.281437125748,4,2,1,60,1,0
78794,-100,4,2,1,60,0,0
80051,352.941176470588,4,2,1,60,1,0
80051,-100,4,2,1,60,0,0
80580,342.857142857143,4,2,1,60,1,0
80580,-100,4,2,1,60,0,0
81094,352.941176470588,4,2,1,60,1,0
81094,-100,4,2,1,60,0,0
81623,365.296803652968,4,2,1,60,1,0
81623,-100,4,2,1,60,0,0
82718,352.941176470588,4,2,1,60,1,0
82718,-250.000000000001,4,2,1,60,0,0
82894,352.941176470588,4,2,1,60,1,0
82894,-250.000000000001,4,2,1,60,0,0
83246,-250.000000000001,4,2,11,55,0,0
83599,-250.000000000001,4,2,1,50,0,0
83952,-250.000000000001,4,2,11,45,0,0
84305,-250.000000000001,4,2,1,40,0,0
84658,-250.000000000001,4,2,11,35,0,0
85011,-250.000000000001,4,2,1,30,0,0
85364,-250.000000000001,4,2,11,25,0,0
85717,-250.000000000001,4,2,1,20,0,0
86070,-250.000000000001,4,2,11,15,0,0
86423,-250.000000000001,4,2,1,10,0,0
88364,-250.000000000001,4,2,11,5,0,0

[Colours]
Combo1 : 104,119,119
Combo2 : 154,154,154
Combo3 : 207,207,207
Combo4 : 103,158,158

[HitObjects]
30,203,1003,5,10,3:2:0:0:
155,189,1160,1,0,3:2:0:0:
230,238,1318,1,0,3:2:0:0:
355,224,1503,1,8,3:2:0:0:
355,224,2051,5,10,3:2:0:0:
230,238,2217,1,0,3:2:0:0:
155,189,2384,1,0,3:2:0:0:
30,203,2558,1,8,3:2:0:0:
334,348,3839,5,10,3:2:0:0:
355,224,4005,1,0,3:2:0:0:
308,145,4172,1,0,3:2:0:0:
329,21,4348,1,8,3:2:0:0:
329,21,4877,5,10,3:2:0:0:
308,145,5048,1,0,3:2:0:0:
355,224,5219,1,0,3:2:0:0:
334,348,5397,1,8,3:2:0:0:
334,348,5945,5,8,3:2:0:0:
355,224,6117,1,8,3:2:0:0:
227,310,6289,1,8,3:2:0:0:
193,320,6376,1,8,3:2:0:0:
159,316,6462,1,8,1:3:0:0:
129,298,6548,1,4,1:3:0:0:
109,270,6634,6,0,L|115:183,1,68,6|0,3:2|0:0,0:0:0:0:
236,117,6986,2,0,P|212:139|174:146,1,68,10|0,3:2|0:0,0:0:0:0:
100,118,7339,1,2,3:2:0:0:
206,31,7516,2,0,L|284:36,1,68,2|8,0:0|3:2,0:0:0:0:
404,65,7869,6,0,P|398:29|368:-17,1,68,2|0,0:0|3:2,0:0:0:0:
374,144,8219,2,0,P|386:110|383:52,1,68,2|8,0:0|3:2,0:0:0:0:
308,197,8568,2,0,P|335:174|361:121,1,68,2|0,0:0|3:2,0:0:0:0:
218,195,8920,1,2,0:0:0:0:
339,269,9099,1,10,3:2:0:0:
436,218,9277,1,2,0:0:0:0:
483,275,9456,6,0,B|421:242|412:307|346:267,1,136,2|10,3:2|3:2,0:0:0:0:
273,171,9985,2,0,P|311:171|353:191,1,68,2|0,0:0|3:2,0:0:0:0:
198,208,10338,2,0,P|230:189|277:185,1,68,2|8,0:0|3:2,0:0:0:0:
167,300,10691,2,0,P|134:281|105:186,1,136,2|0,0:0|0:0,0:0:0:0:
155,73,11220,1,8,3:2:0:0:
152,83,11394,1,0,0:0:0:0:
5,41,11568,2,0,B|84:30|84:30|71:48,1,102,2|0,3:2|0:0,0:0:0:0:
32,124,11929,2,0,P|19:176|20:238,1,102,10|0,3:2|0:0,0:0:0:0:
119,252,12279,6,0,B|168:207|199:282|273:239,1,136,2|10,3:2|3:2,0:0:0:0:
350,189,12806,2,0,P|359:153|383:110,1,68,2|0,0:0|3:2,0:0:0:0:
375,268,13157,2,0,P|364:232|364:183,1,68,2|8,0:0|3:2,0:0:0:0:
436,323,13510,1,2,0:0:0:0:
295,291,13686,2,0,L|208:304,1,68,2|0,3:2|0:0,0:0:0:0:
463,224,14034,1,10,3:2:0:0:
356,141,14209,2,0,L|369:228,1,68,2|0,0:0|3:2,0:0:0:0:
489,85,14559,1,2,0:0:0:0:
376,9,14735,1,10,3:2:0:0:
295,60,14912,1,2,0:0:0:0:
234,15,15088,6,0,P|185:11|121:16,1,102,2|0,3:2|0:0,0:0:0:0:
83,80,15445,2,0,P|101:133|64:178,1,102,10|0,3:2|0:0,0:0:0:0:
78,169,15802,1,2,3:2:0:0:
2,237,15980,2,0,P|2:278|6:313,1,68,2|8,0:0|3:2,0:0:0:0:
224,287,16334,2,0,B|169:240|147:309|68:271,1,136,2|0,0:0|0:0,0:0:0:0:
2,237,16860,1,8,3:2:0:0:
111,132,17036,2,0,P|115:167|116:207,1,68,0|0,0:0|3:2,0:0:0:0:
43,347,17389,1,8,3:2:0:0:
2,237,17565,1,2,1:3:0:0:
28,215,17654,1,2,1:3:0:0:
60,205,17742,1,8,1:3:0:0:
93,208,17830,1,4,1:3:0:0:
124,223,17918,6,0,L|134:297,1,68,6|0,3:2|0:0,0:0:0:0:
233,153,18270,2,0,L|222:227,1,68,10|0,3:2|0:0,0:0:0:0:
283,311,18623,1,2,3:2:0:0:
392,206,18800,2,0,L|459:210,1,68,2|8,0:0|3:2,0:0:0:0:
267,124,19155,2,0,P|284:98|313:74,1,68,2|0,0:0|3:2,0:0:0:0:
239,198,19509,2,0,P|241:167|254:131,1,68,2|8,0:0|3:2,0:0:0:0:
254,275,19860,2,0,P|240:247|234:209,1,68,2|0,0:0|3:2,0:0:0:0:
322,324,20215,1,2,0:0:0:0:
374,194,20393,1,8,3:2:0:0:
335,106,20570,1,2,0:0:0:0:
374,42,20748,6,0,L|485:46,1,102,2|0,3:2|0:0,0:0:0:0:
475,45,21098,1,10,3:2:0:0:
363,123,21274,1,2,0:0:0:0:
284,69,21449,1,2,3:2:0:0:
218,106,21625,2,0,P|162:100|129:101,1,68,2|8,0:0|3:2,0:0:0:0:
42,65,21976,2,0,P|70:111|49:164,1,102,2|0,0:0|0:0,0:0:0:0:
57,154,22326,1,2,0:0:0:0:
9,228,22502,1,8,3:2:0:0:
37,325,22677,1,2,0:0:0:0:
147,360,22853,2,0,L|234:357,1,68,2|0,3:2|0:0,0:0:0:0:
313,239,23222,2,0,P|288:264|270:316,1,68,10|2,3:2|1:3,0:0:0:0:
341,357,23463,5,8,1:3:0:0:
341,357,23544,2,0,L|489:351,1,136,4|10,3:2|3:2,0:0:0:0:
512,240,24082,2,0,P|508:202|495:159,1,68,2|0,0:0|3:2,0:0:0:0:
364,116,24442,2,0,L|444:119,1,68,2|8,0:0|3:2,0:0:0:0:
403,33,24798,1,2,0:0:0:0:
279,110,24976,2,0,L|211:107,1,68,2|0,3:2|0:0,0:0:0:0:
93,67,25331,1,10,3:2:0:0:
93,67,25508,2,0,P|124:110|108:171,1,102,2|0,0:0|0:0,0:0:0:0:
118,155,25860,1,2,0:0:0:0:
81,235,26034,1,10,3:2:0:0:
141,326,26209,1,2,0:0:0:0:
304,287,26383,6,0,B|396:295|396:295|364:318,1,127.5,6|0,3:2|0:0,0:0:0:0:
367,315,26735,1,10,3:2:0:0:
237,337,26912,6,0,P|218:281|254:217,1,127.5,6|0,3:2|0:0,0:0:0:0:
246,222,27265,1,10,3:2:0:0:
125,276,27441,6,0,P|117:187|106:137,1,127.5,6|0,3:2|0:0,0:0:0:0:
109,149,27802,1,10,3:2:0:0:
21,46,27983,6,0,P|61:15|33:59,1,127.5,6|0,3:2|0:0,0:0:0:0:
50,61,28344,1,2,3:2:0:0:
3,190,28525,6,0,P|4:236|14:281,1,85,14|2,3:2|1:3,0:0:0:0:
76,330,28786,1,8,1:3:0:0:
76,330,28873,2,0,P|125:320|173:320,1,85,10|8,3:2|1:3,0:0:0:0:
244,335,29135,5,4,1:3:0:0:
244,335,29222,2,0,B|308:288|321:370|414:327,1,152.999995330811,6|8,3:2|3:2,0:0:0:0:
459,235,29757,1,2,0:0:0:0:
508,347,29936,1,0,3:2:0:0:
448,239,30114,1,0,3:2:0:0:
503,155,30283,1,8,3:2:0:0:
484,68,30452,6,0,P|426:56|358:54,1,114.749996498108,6|0,3:2|0:0,0:0:0:0:
298,89,30804,2,0,P|257:95|205:81,1,76.4999976654053,2|8,3:2|3:2,0:0:0:0:
126,25,31172,2,0,P|186:74|144:145,1,152.999995330811,2|2,0:0|3:2,0:0:0:0:
79,184,31701,1,10,3:2:0:0:
7,106,31877,1,2,0:0:0:0:
86,197,32043,6,0,P|94:276|88:320,1,114.749996498108,6|0,3:2|0:0,0:0:0:0:
31,367,32395,2,0,P|80:335|133:348,1,114.749996498108,10|0,3:2|0:0,0:0:0:0:
205,381,32748,1,2,3:2:0:0:
323,310,32925,1,2,3:2:0:0:
419,356,33101,1,8,3:2:0:0:
486,314,33278,6,0,B|411:272|402:357|308:302,1,170,6|2,3:2|3:2,0:0:0:0:
191,141,33792,1,8,3:2:0:0:
272,111,33963,2,0,P|256:192|247:289,1,170,6|2,3:2|3:2,0:0:0:0:
453,245,34495,1,10,3:2:0:0:
349,135,34676,5,10,3:2:0:0:
350,147,34761,1,8,3:2:0:0:
351,159,34847,2,0,P|417:161|443:97,1,114.749996498108,4|0,3:2|0:0,0:0:0:0:
409,51,35204,2,0,P|362:43|319:44,1,76.4999976654053,8|0,3:2|0:0,0:0:0:0:
165,79,35561,1,2,3:2:0:0:
232,21,35735,2,0,P|251:68|246:108,1,76.4999976654053,2|8,3:2|3:2,0:0:0:0:
79,171,36084,6,0,B|136:134|138:202|214:167,1,114.749996498108,6|0,3:2|0:0,0:0:0:0:
248,229,36433,2,0,P|236:272|229:319,1,76.4999976654053,2|8,3:2|3:2,0:0:0:0:
69,292,36783,1,2,0:0:0:0:
168,205,36959,1,2,3:2:0:0:
163,227,37136,1,2,3:2:0:0:
320,310,37312,1,10,3:2:0:0:
314,287,37489,1,2,0:0:0:0:
414,149,37665,6,0,P|399:218|392:281,1,127.5,6|0,3:2|0:0,0:0:0:0:
392,274,38020,1,8,3:2:0:0:
258,354,38191,6,0,P|228:312|252:233,1,127.5,6|0,3:2|0:0,0:0:0:0:
243,241,38534,1,8,3:2:0:0:
88,208,38712,6,0,P|82:143|72:97,1,106.25,6|0,3:2|0:0,0:0:0:0:
73,102,39287,1,8,3:2:0:0:
215,23,39463,1,8,3:2:0:0:
110,3,39629,1,8,1:3:0:0:
118,16,39796,1,8,1:3:0:0:
181,121,39976,1,2,1:3:0:0:
173,108,40157,1,8,1:3:0:0:
165,95,40338,1,4,1:3:0:0:
319,231,40518,6,0,P|219:213|174:209,1,140.25000428009,14|0,3:2|0:0,0:0:0:0:
180,209,40860,1,4,3:3:0:0:
231,16,41032,6,0,P|165:93|133:141,1,154,14|0,3:2|0:0,0:0:0:0:
136,135,41379,1,4,3:3:0:0:
3,0,41555,6,0,P|37:95|55:134,1,140.24999571991,14|0,3:2|0:0,0:0:0:0:
53,130,42659,1,8,3:2:0:0:
8,267,42828,1,8,3:2:0:0:
147,211,42997,1,8,3:2:0:0:
177,210,43082,1,8,3:2:0:0:
206,221,43167,1,8,3:2:0:0:
229,245,43252,1,8,3:2:0:0:
240,274,43336,6,0,P|233:201|226:93,1,152.999995330811,6|0,3:2|0:0,0:0:0:0:
287,43,43706,2,0,P|232:37|161:34,1,101.999996887207,8|0,3:2|0:0,0:0:0:0:
81,189,44054,1,0,3:2:0:0:
227,121,44229,1,0,3:2:0:0:
322,181,44403,1,8,3:2:0:0:
394,142,44578,2,0,L|177:154,1,203.999993774414,0|0,3:2|3:2,0:0:0:0:
126,299,45100,1,8,3:2:0:0:
6,174,45276,1,2,0:0:0:0:
6,174,45452,2,0,P|32:229|45:272,1,101.999996887207,2|0,3:2|3:2,0:0:0:0:
202,109,45805,2,0,P|176:164|163:207,1,101.999996887207,10|0,3:2|0:0,0:0:0:0:
280,350,46158,6,0,B|357:281|381:388|488:338,1,203.999993774414,6|10,3:2|3:2,0:0:0:0:
452,166,46678,2,0,P|435:221|430:291,1,101.999996887207,2|0,0:0|3:2,0:0:0:0:
439,60,47031,2,0,P|456:115|461:185,1,101.999996887207,2|8,3:2|3:2,0:0:0:0:
325,244,47385,2,0,P|279:249|216:211,1,101.999996887207,2|0,3:2|0:0,0:0:0:0:
259,64,47732,2,0,P|286:102|285:176,1,101.999996887207,2|8,3:2|3:2,0:0:0:0:
138,213,48082,2,0,P|157:171|221:135,1,101.999996887207,2|0,0:0|3:2,0:0:0:0:
386,176,48437,1,2,3:2:0:0:
242,279,48615,1,10,3:2:0:0:
138,213,48792,2,0,L|146:158,1,50.9999984436036,2|8,3:2|3:2,0:0:0:0:
59,237,48964,6,0,L|51:70,1,152.999995330811,6|0,3:2|0:0,0:0:0:0:
112,20,49316,2,0,P|168:22|230:45,1,101.999996887207,8|0,3:2|0:0,0:0:0:0:
372,93,49669,1,2,3:2:0:0:
304,220,49847,1,2,3:2:0:0:
344,317,50026,1,8,3:2:0:0:
308,384,50204,6,0,P|311:305|321:220,1,152.999995330811,2|0,3:2|0:0,0:0:0:0:
400,176,50561,2,0,P|344:196|293:174,1,101.999996887207,2|8,3:2|3:2,0:0:0:0:
317,63,50918,2,0,B|382:29|396:108|473:79,1,152.999995330811,2|0,0:0|0:0,0:0:0:0:
510,167,51275,1,2,3:2:0:0:
373,264,51454,1,10,3:2:0:0:
280,202,51630,1,2,0:0:0:0:
202,237,51806,6,0,P|121:226|47:221,1,152.999995330811,6|0,3:2|0:0,0:0:0:0:
49,221,52166,2,0,L|59:331,1,101.999996887207,8|0,3:2|0:0,0:0:0:0:
188,384,52526,1,0,3:2:0:0:
319,289,52706,1,0,3:2:0:0:
419,341,52863,1,8,3:2:0:0:
492,307,53039,6,0,L|475:96,1,203.999993774414,4|0,3:2|3:2,0:0:0:0:
297,153,53567,2,0,P|352:161|396:129,1,101.999996887207,8|0,3:2|3:2,0:0:0:0:
212,55,53920,6,0,P|220:81|221:108,1,46.7500014266968,10|8,3:2|3:2,0:0:0:0:
215,188,54097,2,0,P|209:210|196:232,1,46.7500014266968,8|8,3:2|3:2,0:0:0:0:
128,285,54267,1,10,3:2:0:0:
92,296,54352,1,8,3:2:0:0:
54,292,54437,1,2,1:3:0:0:
22,272,54526,1,4,1:3:0:0:
0,241,54615,6,0,L|11:79,1,152.999995330811,6|0,3:2|0:0,0:0:0:0:
10,88,54959,1,10,3:2:0:0:
193,124,55141,2,0,P|188:184|164:229,1,101.999996887207,2|0,0:0|3:2,0:0:0:0:
152,27,55507,2,0,P|178:81|179:133,1,101.999996887207,2|8,3:2|3:2,0:0:0:0:
0,197,55868,2,0,P|55:181|168:199,1,152.999995330811,2|0,3:2|0:0,0:0:0:0:
226,223,56225,2,0,P|281:239|347:237,1,101.999996887207,2|8,3:2|3:2,0:0:0:0:
495,169,56582,1,2,0:0:0:0:
412,123,56761,2,0,P|400:180|425:234,1,101.999996887207,2|0,3:2|3:2,0:0:0:0:
491,329,57107,1,8,3:2:0:0:
346,275,57281,1,2,0:0:0:0:
274,324,57454,6,0,B|191:364|184:291|116:313|116:313|133:300|152:286,1,203.999993774414,2|10,3:2|3:2,0:0:0:0:
260,159,57991,2,0,P|239:215|228:283,1,101.999996887207,2|0,0:0|3:2,0:0:0:0:
92,222,58344,2,0,P|81:172|64:125,1,101.999996887207,2|8,3:2|3:2,0:0:0:0:
278,57,58697,2,0,P|257:113|246:181,1,101.999996887207,2|0,3:2|0:0,0:0:0:0:
46,44,59049,1,2,3:2:0:0:
204,1,59225,1,10,3:2:0:0:
303,53,59402,1,2,0:0:0:0:
379,25,59578,2,0,L|365:143,1,101.999996887207,2|0,3:2|3:2,0:0:0:0:
323,190,59843,1,2,0:0:0:0:
323,190,59931,2,0,L|331:260,1,50.9999984436036,8|0,3:2|0:0,0:0:0:0:
381,297,60108,2,0,L|372:358,1,50.9999984436036,2|0,0:0|0:0,0:0:0:0:
497,141,60284,6,0,L|472:345,1,203.999993774414,2|8,3:2|3:2,0:0:0:0:
473,344,60982,1,2,3:2:0:0:
301,278,61158,1,0,3:2:0:0:
217,315,61334,1,8,3:2:0:0:
150,265,61511,6,0,L|166:100,1,152.999995330811,2|0,3:2|0:0,0:0:0:0:
117,39,61857,2,0,P|174:82|220:58,1,101.999996887207,0|8,3:2|3:2,0:0:0:0:
311,27,62207,2,0,B|373:-9|385:65|465:32,1,152.999995330811,2|0,0:0|0:0,0:0:0:0:
503,108,62560,1,2,3:2:0:0:
427,252,62736,1,10,3:2:0:0:
468,334,62913,5,2,3:2:0:0:
468,334,63001,1,8,3:2:0:0:
468,334,63089,2,0,P|393:325|295:320,1,152.999995330811,6|0,3:2|0:0,0:0:0:0:
315,320,63441,1,8,3:2:0:0:
242,175,63618,6,0,P|297:164|343:245,1,152.999995330811,6|0,3:2|0:0,0:0:0:0:
344,236,63971,1,8,3:2:0:0:
235,367,64147,6,0,P|160:269|246:284,1,272,6|0,3:2|0:0,0:0:0:0:
53,363,65218,5,10,3:2:0:0:
96,157,65397,2,0,L|86:212,1,34,8|8,3:2|3:2,0:0:0:0:
149,258,65566,1,10,3:2:0:0:
110,276,65651,1,8,3:2:0:0:
68,274,65735,1,8,3:2:0:0:
31,255,65820,1,8,3:2:0:0:
6,222,65905,6,0,L|3:48,1,152.999995330811,6|0,3:2|0:0,0:0:0:0:
3,69,66284,2,0,P|53:59|112:66,1,101.999996887207,8|0,3:2|0:0,0:0:0:0:
219,147,66645,1,0,3:2:0:0:
221,162,66826,1,0,3:2:0:0:
377,89,66994,1,8,3:2:0:0:
292,52,67163,1,4,3:2:0:0:
292,52,67331,6,0,L|299:154,1,101.999996887207,2|0,0:0|3:2,0:0:0:0:
446,243,67678,2,0,P|398:231|329:258,1,101.999996887207,8|0,3:2|0:0,0:0:0:0:
262,373,68035,1,0,3:2:0:0:
259,352,68213,1,0,3:2:0:0:
246,204,68392,1,8,3:2:0:0:
249,225,68568,1,0,0:0:0:0:
159,244,68744,6,0,B|103:191|85:281|-4:238,1,152.999995330811,6|0,3:2|0:0,0:0:0:0:
15,245,69096,2,0,P|21:192|31:126,1,101.999996887207,8|0,3:2|0:0,0:0:0:0:
100,32,69449,1,0,3:2:0:0:
70,27,69626,1,0,3:2:0:0:
189,137,69802,1,8,3:2:0:0:
272,97,69979,6,0,P|354:88|425:85,1,152.999995330811,6|0,3:2|0:0,0:0:0:0:
483,149,70327,1,0,3:2:0:0:
387,297,70502,1,8,3:2:0:0:
437,374,70676,2,0,P|476:275|410:209,1,203.999993774414,4|0,3:2|3:2,0:0:0:0:
192,249,71205,1,10,3:2:0:0:
238,170,71381,5,10,3:2:0:0:
238,170,71470,1,8,3:2:0:0:
238,170,71558,2,0,L|218:330,1,152.999995330811,6|0,3:2|0:0,0:0:0:0:
220,322,71919,1,10,3:2:0:0:
74,365,72100,2,0,P|62:316|65:266,1,101.999996887207,2|0,0:0|3:2,0:0:0:0:
98,167,72456,2,0,P|69:209|55:258,1,101.999996887207,2|8,3:2|3:2,0:0:0:0:
0,67,72809,2,0,B|71:28|84:103|155:80,1,152.999995330811,6|0,3:2|0:0,0:0:0:0:
224,62,73161,2,0,P|276:56|331:56,1,101.999996887207,2|8,3:2|3:2,0:0:0:0:
484,135,73514,1,2,0:0:0:0:
445,53,73690,2,0,P|404:96|398:157,1,101.999996887207,2|0,3:2|3:2,0:0:0:0:
481,261,74043,1,8,3:2:0:0:
330,197,74220,1,2,0:0:0:0:
373,277,74396,6,0,L|360:66,1,203.999993774414,6|10,3:2|3:2,0:0:0:0:
106,78,74926,2,0,P|119:127|129:178,1,101.999996887207,2|0,0:0|3:2,0:0:0:0:
265,242,75279,2,0,P|273:192|287:143,1,101.999996887207,2|8,3:2|3:2,0:0:0:0:
118,331,75632,2,0,B|195:269|205:376|316:331,1,203.999993774414,6|2,3:2|3:2,0:0:0:0:
464,211,76161,1,8,3:2:0:0:
379,175,76329,2,0,P|398:254|419:379,1,203.999993774414,6|0,3:2|3:2,0:0:0:0:
501,291,76871,1,8,3:2:0:0:
316,365,77051,5,8,3:2:0:0:
316,365,77139,1,8,3:2:0:0:
316,365,77227,1,14,3:2:0:0:
302,240,77403,1,0,3:2:0:0:
351,165,77579,1,0,3:2:0:0:
337,40,77756,1,8,3:2:0:0:
337,40,78285,5,10,3:2:0:0:
351,165,78453,1,0,3:2:0:0:
302,240,78622,1,0,3:2:0:0:
316,365,78794,1,8,3:2:0:0:
27,144,80051,5,10,3:2:0:0:
152,130,80227,1,0,3:2:0:0:
227,179,80403,1,0,3:2:0:0:
351,165,80580,1,8,3:2:0:0:
351,165,81094,5,10,3:2:0:0:
227,179,81270,1,0,3:2:0:0:
152,130,81446,1,0,3:2:0:0:
27,144,81623,1,10,3:2:0:0:
405,351,82718,5,8,1:3:0:0:
405,351,82806,1,4,1:3:0:0:
405,351,82894,2,0,B|322:359|265:350|229:326|196:247|218:205|283:193|326:201|364:241|373:280|367:314|342:357|283:373|213:367|162:330|132:304|91:265|44:263|47:231|38:148|44:117|51:97|83:77|112:68|146:70|181:113|181:113|196:56|239:31|306:55|318:108|311:157,1,1088,4|0,3:2|0:0,0:0:0:0:
