osu file format v14

[General]
AudioFilename: audio.mp3
AudioLeadIn: 0
PreviewTime: 43252
Countdown: 0
SampleSet: Soft
StackLeniency: 0.4
Mode: 0
LetterboxInBreaks: 0
WidescreenStoryboard: 1

[Editor]
DistanceSpacing: 1.3
BeatDivisor: 4
GridSize: 16
TimelineZoom: 2.1

[Metadata]
Title:Kagayaita (TV Size)
TitleUnicode:輝いた (TV Size)
Artist:Shigi
ArtistUnicode:シギ
Creator:Smoke
Version:Hard
Source:銀魂
Tags:ending ed 12 yoshiwara in flames gin sakata gintoki 坂田 銀時 gintama 上田 健司 Ueda Kenji season 1 japanese anime attendant
BeatmapID:2202513
BeatmapSetID:1054053

[Difficulty]
HPDrainRate:4.6
CircleSize:4
OverallDifficulty:6.5
ApproachRate:7.8
SliderMultiplier:1.3
SliderTickRate:1

[Events]
//Background and Video events
0,0,"gintoki+grave.jpg",0,0
Video,992,"ending.mp4"
//Break Periods
//Storyboard Layer 0 (Background)
//Storyboard Layer 1 (Fail)
//Storyboard Layer 2 (Pass)
//Storyboard Layer 3 (Foreground)
//Storyboard Layer 4 (Overlay)
//Storyboard Sound Samples

[TimingPoints]
1003,315.789473684211,4,2,1,60,1,0
1003,-100,4,2,1,60,0,0
1318,370.37037037037,4,2,1,60,1,0
1318,-100,4,2,1,60,0,0
1503,365.853658536585,4,2,1,60,1,0
1503,-100,4,2,1,60,0,0
2051,333.333333333333,4,2,1,60,1,0
2051,-100,4,2,1,60,0,0
2384,348.837209302326,4,2,1,60,1,0
2384,-100,4,2,1,60,0,0
2558,320.427236315087,4,2,1,60,1,0
2558,-100,4,2,1,60,0,0
3839,333.333333333333,4,2,1,60,1,0
3839,-100,4,2,1,60,0,0
4172,352.941176470588,4,2,1,60,1,0
4172,-100,4,2,1,60,0,0
4877,342.857142857143,4,2,1,60,1,0
4877,-100,4,2,1,60,0,0
5219,357.142857142857,4,2,1,60,1,0
5219,-100,4,2,1,60,0,0
5397,365.853658536585,4,2,1,60,1,0
5397,-100,4,2,1,60,0,0
5945,344.827586206896,4,2,1,60,1,0
5945,-100,4,2,1,60,0,0
6634,352.941176470588,4,2,1,50,1,0
6634,-125,4,2,1,50,0,0
8045,348.837209302326,4,2,1,60,1,0
8045,-125,4,2,1,50,0,0
8742,357.142857142857,4,2,1,60,1,0
8742,-125,4,2,1,50,0,0
9456,352.941176470588,4,2,1,60,1,0
9456,-125,4,2,1,50,0,0
10250,-125,4,2,11,5,0,0
10338,-125,4,2,1,50,0,0
10603,-125,4,2,11,5,0,0
10691,-125,4,2,1,50,0,0
11220,348.837209302326,4,2,1,60,1,0
11220,-125,4,2,1,50,0,0
11568,361.44578313253,4,2,1,60,1,0
11568,-125,4,2,1,50,0,0
11929,350.877192982456,4,2,1,60,1,0
11929,-125,4,2,1,50,0,0
12981,352.941176470588,4,2,1,60,1,0
12981,-125,4,2,1,50,0,0
13686,348.837209302326,4,2,1,60,1,0
13686,-125,4,2,1,50,0,0
14383,352.941176470588,4,2,1,60,1,0
14383,-125,4,2,1,50,0,0
15088,357.142857142857,4,2,1,60,1,0
15088,-125,4,2,1,50,0,0
15355,-125,4,2,11,5,0,0
15445,-125,4,2,1,50,0,0
15713,-125,4,2,11,5,0,0
15802,-125,4,2,1,50,0,0
16159,350.877192982456,4,2,1,60,1,0
16159,-125,4,2,1,50,0,0
16860,352.941176470588,4,2,1,60,1,0
16860,-125,4,2,1,50,0,0
17918,352.941176470588,4,2,1,60,1,0
17918,-125,4,2,1,50,0,0
18976,359.281437125748,4,2,1,60,1,0
18976,-125,4,2,1,50,0,0
19335,348.837209302326,4,2,1,60,1,0
19335,-125,4,2,1,50,0,0
19683,355.029585798817,4,2,1,60,1,0
19683,-125,4,2,1,50,0,0
20748,350.877192982456,4,2,1,60,1,0
20748,-125,4,2,1,50,0,0
21011,-125,4,2,11,5,0,0
21098,-125,4,2,1,50,0,0
22853,369.913686806412,4,2,1,60,1,0
22853,-125,4,2,1,50,0,0
23222,322.58064516129,4,2,1,60,1,0
23222,-125,4,2,1,50,0,0
23544,359.281437125748,4,2,1,60,1,0
23544,-125,4,2,1,50,0,0
24621,355.029585798817,4,2,1,60,1,0
24621,-125,4,2,1,50,0,0
24976,355.029585798817,4,2,1,60,1,0
24976,-125,4,2,1,50,0,0
25686,348.837209302326,4,2,1,60,1,0
25686,-125,4,2,1,50,0,0
26296,-125,4,2,11,5,0,0
26383,352.941176470588,4,2,1,60,1,0
26383,-100,4,2,1,60,0,0
27441,361.44578313253,4,2,1,60,1,0
27441,-100,4,2,1,60,0,0
28525,348.837209302326,4,2,1,60,1,0
28525,-100,4,2,1,60,0,0
29222,357.142857142857,4,2,1,60,1,0
29222,-111.111111111111,4,2,1,60,0,0
30114,338.983050847458,4,2,1,60,1,0
30114,-111.111111111111,4,2,1,60,0,0
30452,352.941176470588,4,2,1,60,1,0
30452,-111.111111111111,4,2,1,60,0,0
30804,368.098159509202,4,2,1,60,1,0
30804,-111.111111111111,4,2,1,60,0,0
31172,352.941176470588,4,2,1,60,1,0
31172,-111.111111111111,4,2,1,60,0,0
31877,333.333333333333,4,2,1,60,1,0
31877,-111.111111111111,4,2,1,60,0,0
32043,352.941176470588,4,2,1,60,1,0
32043,-111.111111111111,4,2,1,60,0,0
32307,-111.111111111111,4,2,11,5,0,0
32395,-111.111111111111,4,2,1,60,0,0
32660,-111.111111111111,4,2,11,5,0,0
32748,-111.111111111111,4,2,1,60,0,0
33278,342.857142857143,4,2,1,60,1,0
33278,-99.9999999999999,4,2,1,60,0,0
33963,352.941176470588,4,2,1,60,1,0
33963,-99.9999999999999,4,2,1,60,0,0
34315,361.44578313253,4,2,1,60,1,0
34315,-99.9999999999999,4,2,1,60,0,0
34676,342.857142857143,4,2,1,60,1,0
34676,-99.9999999999999,4,2,1,60,0,0
34847,357.142857142857,4,2,1,60,1,0
34847,-111.111111111111,4,2,1,60,0,0
35561,348.837209302326,4,2,1,60,1,0
35561,-111.111111111111,4,2,1,60,0,0
36607,352.941176470588,4,2,1,60,1,0
36607,-111.111111111111,4,2,1,60,0,0
37665,355.029585798817,4,2,1,60,1,0
37665,-99.9999999999999,4,2,1,60,0,0
37931,-99.9999999999999,4,2,11,5,0,0
38020,342.857142857143,4,2,1,50,1,0
38020,-99.9999999999999,4,2,1,60,0,0
38448,-99.9999999999999,4,2,11,5,0,0
38534,357.142857142857,4,2,1,50,1,0
38534,-99.9999999999999,4,2,1,60,0,0
38712,388.349514563107,4,2,1,50,1,0
38712,-125,4,2,1,60,0,0
39197,-99.9999999999999,4,2,11,5,0,0
39287,352.941176470588,4,2,1,60,1,0
39287,-111.111111111111,4,2,1,60,0,0
39463,333.333333333333,4,2,1,60,1,0
39463,-111.111111111111,4,2,1,60,0,0
39796,361.44578313253,4,2,1,60,1,0
39796,-117.647058823529,4,2,1,60,0,0
40157,-125,4,2,1,60,0,0
40518,342.857142857143,4,2,1,60,1,0
40518,-90.9090909090909,4,2,1,70,0,0
40775,-90.9090909090909,4,2,11,5,0,0
40860,-83.3333333333333,4,2,1,70,0,0
41203,352.941176470588,4,2,1,60,1,0
41203,-83.3333333333333,4,2,1,70,0,0
41291,-83.3333333333333,4,2,11,5,0,0
41379,-90.9090909090909,4,2,1,70,0,0
41555,368.098159509202,4,2,1,60,1,0
41555,-142.857142857143,4,2,1,70,0,0
42567,-142.857142857143,4,2,11,5,0,0
42659,338.983050847458,4,2,1,70,1,0
42659,-100,4,2,1,70,0,0
43252,-100,4,2,1,70,0,0
43336,370.37037037037,4,2,1,80,1,1
43336,-83.3333333333334,4,2,1,80,0,1
43613,-83.3333333333334,4,2,11,5,0,1
43706,348.837209302326,4,2,1,60,1,1
43706,-83.3333333333333,4,2,1,80,0,1
44752,348.837209302326,4,2,1,60,1,1
44752,-83.3333333333333,4,2,1,80,0,1
45100,352.941176470588,4,2,1,60,1,1
45100,-83.3333333333333,4,2,1,80,0,1
46158,346.820809248555,4,2,1,60,1,1
46158,-83.3333333333333,4,2,1,80,0,1
46851,361.44578313253,4,2,1,60,1,1
46851,-83.3333333333333,4,2,1,80,0,1
47212,346.820809248555,4,2,1,60,1,1
47212,-83.3333333333333,4,2,1,80,0,1
47905,355.029585798817,4,2,1,60,1,1
47905,-83.3333333333333,4,2,1,80,0,1
48792,344.827586206897,4,2,1,60,1,1
48792,-83.3333333333333,4,2,1,80,0,1
48964,352.941176470588,4,2,1,60,1,1
48964,-83.3333333333333,4,2,1,80,0,1
49228,-83.3333333333333,4,2,11,5,0,1
49316,-83.3333333333333,4,2,1,80,0,1
49669,357.142857142857,4,2,1,60,1,1
49669,-83.3333333333333,4,2,1,80,0,1
50383,357.142857142857,4,2,1,60,1,1
50383,-83.3333333333333,4,2,1,80,0,1
50472,-83.3333333333333,4,2,11,5,0,1
50561,-83.3333333333333,4,2,1,80,0,1
51186,-83.3333333333333,4,2,11,5,0,1
51275,-83.3333333333333,4,2,1,80,0,1
51454,352.941176470588,4,2,1,60,1,1
51454,-83.3333333333333,4,2,1,80,0,1
51806,360.36036036036,4,2,1,60,1,1
51806,-83.3333333333333,4,2,1,80,0,1
52076,-83.3333333333333,4,2,11,5,0,1
52166,-83.3333333333333,4,2,1,80,0,1
52706,315.789473684211,4,2,1,60,1,1
52706,-83.3333333333333,4,2,1,80,0,1
52863,352.941176470588,4,2,1,60,1,1
52863,-83.3333333333333,4,2,1,80,0,1
53215,352.941176470588,4,2,1,60,1,1
53215,-83.3333333333333,4,2,1,80,0,1
53920,-90.9090909090909,4,2,1,65,0,0
54097,340.909090909091,4,2,1,60,1,0
54097,-83.3333333333333,4,2,1,80,0,0
54267,-90.9090909090909,4,2,1,70,0,0
54437,357.142857142857,4,2,1,60,1,0
54437,-90.9090909090909,4,2,1,70,0,0
54615,344.827586206897,4,2,1,60,1,0
54615,-83.3333333333333,4,2,1,80,0,1
54959,365.853658536585,4,2,1,60,1,1
54959,-83.3333333333333,4,2,1,80,0,1
55690,357.142857142857,4,2,1,60,1,1
55690,-83.3333333333333,4,2,1,80,0,1
56136,-83.3333333333333,4,2,11,5,0,1
56225,-83.3333333333333,4,2,1,80,0,1
56761,346.820809248555,4,2,1,60,1,1
56761,-83.3333333333333,4,2,1,80,0,1
57454,361.44578313253,4,2,1,60,1,1
57454,-83.3333333333333,4,2,1,80,0,1
57815,352.941176470588,4,2,1,60,1,1
57815,-83.3333333333333,4,2,1,80,0,1
58873,352.941176470588,4,2,1,60,1,1
58873,-83.3333333333333,4,2,1,80,0,1
58961,-83.3333333333333,4,2,11,5,0,1
59049,-83.3333333333333,4,2,1,80,0,1
60284,349.040139616056,4,2,1,60,1,1
60284,-83.3333333333333,4,2,1,80,0,1
60982,352.941176470588,4,2,1,60,1,1
60982,-83.3333333333333,4,2,1,80,0,1
61511,346.820809248555,4,2,1,60,1,1
61511,-83.3333333333333,4,2,1,80,0,1
61771,-83.3333333333333,4,2,11,5,0,1
61857,-83.3333333333333,4,2,1,80,0,1
62031,352.941176470588,4,2,1,60,1,1
62031,-83.3333333333333,4,2,1,80,0,1
63089,352.941176470588,4,2,1,60,1,1
63089,-83.3333333333333,4,2,1,80,0,1
63353,-83.3333333333333,4,2,11,5,0,1
63441,-83.3333333333333,4,2,1,80,0,1
63618,-90.9090909090909,4,2,1,80,0,1
63883,-83.3333333333333,4,2,11,5,0,1
63971,-83.3333333333333,4,2,1,80,0,1
64147,357.142857142857,4,2,1,60,1,0
64147,-125,4,2,1,80,0,0
64861,-125,4,2,11,5,0,0
65218,-125,4,2,1,80,0,0
65397,338.983050847458,4,2,1,60,1,0
65397,-125,4,2,1,80,0,0
65905,379.746835443038,4,2,1,60,1,1
65905,-83.3333333333333,4,2,1,80,0,1
66284,361.44578313253,4,2,1,60,1,1
66284,-83.3333333333333,4,2,1,80,0,1
66826,337.078651685393,4,2,1,60,1,1
66826,-83.3333333333333,4,2,1,80,0,1
67500,357.142857142857,4,2,1,60,1,1
67500,-83.3333333333333,4,2,1,80,0,1
67678,357.142857142857,4,2,1,60,1,1
67678,-83.3333333333333,4,2,1,80,0,1
68392,352.941176470588,4,2,1,60,1,1
68392,-83.3333333333333,4,2,1,80,0,1
68744,352.941176470588,4,2,1,60,1,1
68744,-83.3333333333333,4,2,1,80,0,1
69979,348.837209302326,4,2,1,60,1,1
69979,-83.3333333333333,4,2,1,80,0,1
70240,-83.3333333333333,4,2,11,5,0,1
70327,-83.3333333333333,4,2,1,80,0,1
70676,352.941176470588,4,2,1,60,1,1
70676,-83.3333333333333,4,2,1,80,0,1
71558,361.44578313253,4,2,1,60,1,1
71558,-83.3333333333333,4,2,1,80,0,1
72280,352.941176470588,4,2,1,60,1,1
72280,-83.3333333333333,4,2,1,80,0,1
72985,352.941176470588,4,2,1,60,1,1
72985,-83.3333333333333,4,2,1,80,0,1
73073,-83.3333333333333,4,2,11,5,0,1
73161,-83.3333333333333,4,2,1,80,0,1
76161,337.078651685393,4,2,1,60,1,1
76161,-83.3333333333333,4,2,1,80,0,1
76329,361.44578313253,4,2,1,60,1,1
76329,-83.3333333333333,4,2,1,80,0,1
77051,352.941176470588,4,2,1,60,1,1
77051,-83.3333333333333,4,2,1,80,0,1
77227,352.941176470588,4,2,1,60,1,0
77227,-100,4,2,1,60,0,0
78285,337.078651685393,4,2,1,60,1,0
78285,-100,4,2,1,60,0,0
78622,344.827586206897,4,2,1,60,1,0
78622,-100,4,2,1,60,0,0
78794,359.281437125748,4,2,1,60,1,0
78794,-100,4,2,1,60,0,0
80051,352.941176470588,4,2,1,60,1,0
80051,-100,4,2,1,60,0,0
80580,342.857142857143,4,2,1,60,1,0
80580,-100,4,2,1,60,0,0
81094,352.941176470588,4,2,1,60,1,0
81094,-100,4,2,1,60,0,0
81623,365.296803652968,4,2,1,60,1,0
81623,-100,4,2,1,60,0,0
82718,352.941176470588,4,2,1,60,1,0
82718,-100,4,2,1,60,0,0
82894,352.941176470588,4,2,1,60,1,0
82894,-250.000000000001,4,2,1,60,0,0
83246,-250.000000000001,4,2,1,55,0,0
83599,-250.000000000001,4,2,1,50,0,0
83952,-250.000000000001,4,2,1,45,0,0
84305,-250.000000000001,4,2,1,40,0,0
84658,-250.000000000001,4,2,1,35,0,0
85011,-250.000000000001,4,2,1,30,0,0
85364,-250.000000000001,4,2,1,25,0,0
85717,-250.000000000001,4,2,1,20,0,0
86070,-250.000000000001,4,2,1,15,0,0
86423,-250.000000000001,4,2,1,10,0,0
86776,-250.000000000001,4,2,1,5,0,0
88364,-250.000000000001,4,2,11,5,0,0

[Colours]
Combo1 : 104,119,119
Combo2 : 154,154,154
Combo3 : 207,207,207
Combo4 : 103,158,158

[HitObjects]
220,228,1003,6,0,L|132:234,1,65,10|0,3:2|3:2,0:0:0:0:
52,242,1318,1,0,3:2:0:0:
52,242,1503,1,8,3:2:0:0:
52,242,2051,6,0,L|140:236,1,65,10|0,3:2|3:2,0:0:0:0:
220,228,2384,1,0,3:2:0:0:
220,228,2558,1,8,3:2:0:0:
445,333,3839,6,0,L|439:245,1,65,10|0,3:2|3:2,0:0:0:0:
431,165,4172,1,0,3:2:0:0:
431,165,4348,1,8,3:2:0:0:
431,165,4877,6,0,L|437:253,1,65,10|0,3:2|3:2,0:0:0:0:
445,333,5219,1,0,3:2:0:0:
445,333,5397,1,8,3:2:0:0:
445,333,5945,5,8,3:2:0:0:
435,229,6117,1,8,3:2:0:0:
350,289,6289,1,8,3:2:0:0:
337,292,6376,1,8,3:2:0:0:
324,295,6462,2,0,L|273:289,1,32.5,8|4,1:3|1:3,0:0:0:0:
262,260,6634,6,0,L|198:265,1,52,6|0,3:2|0:0,0:0:0:0:
145,315,6986,2,0,L|72:311,1,52,10|0,3:2|0:0,0:0:0:0:
57,240,7339,1,2,3:2:0:0:
57,240,7516,2,0,L|54:167,1,52,2|8,0:0|3:2,0:0:0:0:
94,114,7869,2,0,P|151:122|196:98,1,103,2|2,0:0|0:0,0:0:0:0:
250,42,8393,1,8,3:2:0:0:
327,71,8568,2,0,L|439:65,1,105,2|2,0:0|0:0,0:0:0:0:
497,115,9099,1,10,3:2:0:0:
497,115,9277,1,2,0:0:0:0:
460,189,9456,6,0,L|456:259,1,52,2|0,3:2|0:0,0:0:0:0:
487,318,9808,1,10,3:2:0:0:
414,358,9985,2,0,P|376:364|320:345,1,78,2|0,0:0|0:0,0:0:0:0:
308,324,10338,2,0,P|270:318|214:337,1,78,2|0,0:0|0:0,0:0:0:0:
195,348,10691,2,0,L|191:234,1,104,2|0,0:0|0:0,0:0:0:0:
189,160,11220,1,8,3:2:0:0:
189,160,11394,1,0,0:0:0:0:
263,197,11568,2,0,P|291:188|329:192,1,52,2|0,3:2|0:0,0:0:0:0:
380,138,11929,2,0,P|408:147|446:143,1,52,10|0,3:2|0:0,0:0:0:0:
468,72,12279,6,0,P|413:59|352:62,1,104,2|10,3:2|3:2,0:0:0:0:
285,84,12806,2,0,P|254:87|215:81,1,52,2|0,0:0|3:2,0:0:0:0:
156,51,13157,2,0,P|125:47|86:54,1,52,2|8,0:0|3:2,0:0:0:0:
39,101,13510,1,2,0:0:0:0:
39,101,13686,2,0,L|42:167,1,52,2|0,3:2|0:0,0:0:0:0:
82,225,14034,1,10,3:2:0:0:
82,225,14209,2,0,L|79:291,1,52,2|0,0:0|3:2,0:0:0:0:
131,342,14559,1,2,0:0:0:0:
199,294,14735,1,10,3:2:0:0:
268,339,14912,1,2,0:0:0:0:
346,312,15088,6,0,L|436:318,1,78,2|0,3:2|0:0,0:0:0:0:
458,293,15445,2,0,P|458:253|447:207,1,78,10|0,3:2|0:0,0:0:0:0:
431,178,15802,1,2,3:2:0:0:
431,178,15980,2,0,L|436:111,1,52,2|8,0:0|3:2,0:0:0:0:
381,61,16334,2,0,P|326:84|268:68,1,104,2|0,0:0|0:0,0:0:0:0:
213,30,16860,1,8,3:2:0:0:
142,73,17036,2,0,L|148:135,1,52,0|0,0:0|3:2,0:0:0:0:
186,198,17389,1,8,3:2:0:0:
146,271,17565,1,2,1:3:0:0:
148,283,17654,1,2,1:3:0:0:
151,295,17742,2,0,L|147:332,1,26,8|4,1:3|1:3,0:0:0:0:
117,344,17918,6,0,P|84:344|52:337,1,52,6|0,3:2|0:0,0:0:0:0:
23,268,18270,2,0,P|23:235|30:203,1,52,10|0,3:2|0:0,0:0:0:0:
83,152,18623,1,2,3:2:0:0:
83,152,18800,2,0,P|83:119|76:87,1,52,2|8,0:0|3:2,0:0:0:0:
23,38,19155,2,0,P|72:14|136:39,1,102.5,2|2,0:0|0:0,0:0:0:0:
178,82,19683,1,8,3:2:0:0:
237,140,19860,2,0,P|287:149|332:126,1,104,2|2,0:0|0:0,0:0:0:0:
385,62,20393,1,8,3:2:0:0:
467,74,20570,1,2,0:0:0:0:
492,152,20748,6,0,P|496:193|495:239,1,78,2|0,3:2|0:0,0:0:0:0:
484,270,21098,1,10,3:2:0:0:
414,223,21274,1,2,0:0:0:0:
341,263,21449,1,2,3:2:0:0:
263,233,21625,2,0,L|200:238,1,52,2|8,0:0|3:2,0:0:0:0:
140,281,21976,2,0,P|95:285|41:247,1,104,2|0,0:0|0:0,0:0:0:0:
17,176,22502,1,8,3:2:0:0:
17,176,22677,1,2,0:0:0:0:
71,113,22853,2,0,L|139:118,1,52,2|0,3:2|0:0,0:0:0:0:
178,54,23222,2,0,L|246:49,1,52,10|2,3:2|1:3,0:0:0:0:
267,33,23463,5,8,1:3:0:0:
277,30,23544,2,0,P|335:22|379:51,1,104,4|10,3:2|3:2,0:0:0:0:
398,123,24082,2,0,P|397:158|390:190,1,52,2|0,0:0|3:2,0:0:0:0:
360,250,24442,2,0,P|361:285|368:317,1,52,2|8,0:0|3:2,0:0:0:0:
441,332,24798,1,2,0:0:0:0:
441,332,24976,2,0,P|443:279|435:225,1,104,2|10,3:2|3:2,0:0:0:0:
480,157,25508,2,0,P|478:104|486:50,1,103,2|2,0:0|0:0,0:0:0:0:
409,17,26034,2,0,P|372:32|316:25,1,78,10|0,3:2|0:0,0:0:0:0:
283,18,26383,6,0,L|134:27,1,130,6|10,3:2|3:2,0:0:0:0:
85,105,26912,2,0,P|130:154|210:137,1,130,6|10,3:2|3:2,0:0:0:0:
286,114,27441,2,0,P|268:172|253:250,1,130,6|10,3:2|3:2,0:0:0:0:
255,344,27983,2,0,B|199:311|199:311|133:330,1,130,6|2,3:2|3:2,0:0:0:0:
37,362,28525,1,14,3:2:0:0:
10,261,28699,1,2,1:3:0:0:
8,251,28786,1,8,1:3:0:0:
6,241,28873,2,0,L|14:152,1,65,10|8,3:2|1:3,0:0:0:0:
41,145,29135,5,4,1:3:0:0:
49,143,29222,2,0,B|109:118|117:173|184:142,2,116.999996429443,6|8|0,3:2|3:2|3:2,0:0:0:0:
77,232,30114,1,0,3:2:0:0:
171,256,30283,1,8,3:2:0:0:
246,200,30452,2,0,L|236:70,1,116.999996429443,6|2,3:2|3:2,0:0:0:0:
301,14,30988,1,8,3:2:0:0:
301,14,31172,2,0,P|353:4|413:41,1,116.999996429443,2|2,0:0|3:2,0:0:0:0:
444,119,31701,1,10,3:2:0:0:
444,119,31877,1,2,0:0:0:0:
380,187,32043,6,0,P|371:245|368:290,1,87.7499973220826,6|0,3:2|0:0,0:0:0:0:
342,313,32395,2,0,B|298:295|298:295|248:302,1,87.7499973220826,10|0,3:2|0:0,0:0:0:0:
211,310,32748,1,2,3:2:0:0:
170,225,32925,1,2,3:2:0:0:
222,147,33101,1,8,3:2:0:0:
185,49,33278,2,0,P|113:38|51:78,1,130,6|2,3:2|3:2,0:0:0:0:
31,162,33792,1,8,3:2:0:0:
132,142,33963,2,0,P|122:213|116:271,1,130,6|2,3:2|3:2,0:0:0:0:
102,375,34495,1,10,3:2:0:0:
12,322,34676,5,10,3:2:0:0:
15,309,34761,1,8,3:2:0:0:
18,298,34847,2,0,L|139:291,2,116.999996429443,4|8|2,3:2|3:2|3:2,0:0:0:0:
8,206,35735,1,2,3:2:0:0:
51,122,35909,1,8,3:2:0:0:
2,41,36084,2,0,B|61:29|61:29|121:55,1,116.999996429443,6|2,3:2|3:2,0:0:0:0:
197,93,36607,1,8,3:2:0:0:
197,93,36783,1,2,0:0:0:0:
269,34,36959,2,0,L|346:38,1,58.4999982147217,2|2,3:2|3:2,0:0:0:0:
395,101,37312,2,0,L|472:97,1,58.4999982147217,10|2,3:2|0:0,0:0:0:0:
504,188,37665,6,0,P|512:247|499:303,1,97.5,6|0,3:2|0:0,0:0:0:0:
484,331,38020,1,8,3:2:0:0:
390,369,38191,2,0,P|337:361|287:357,1,97.5,6|0,3:2|0:0,0:0:0:0:
251,331,38534,1,8,3:2:0:0:
163,374,38712,6,0,P|104:353|117:285,1,130,6|0,3:2|0:0,0:0:0:0:
156,272,39287,1,8,3:2:0:0:
156,272,39463,2,0,P|146:239|130:194,1,58.4999982147217,8|8,3:2|1:3,0:0:0:0:
213,175,39796,2,0,P|187:151|156:124,1,55.2500010538101,8|2,1:3|1:3,0:0:0:0:
212,66,40157,2,0,P|178:57|149:53,1,52,8|4,1:3|1:3,0:0:0:0:
73,35,40518,6,0,P|62:96|77:154,1,107.25000327301,14|0,3:2|0:0,0:0:0:0:
95,184,40860,1,4,3:3:0:0:
62,279,41032,6,0,P|116:271|211:266,1,117.5,14|0,3:2|0:0,0:0:0:0:
224,265,41379,1,4,3:3:0:0:
321,304,41555,6,0,P|372:294|389:127,1,250.249992362976,14|0,3:2|0:0,0:0:0:0:
380,116,42659,5,8,3:2:0:0:
293,171,42828,1,8,3:2:0:0:
220,93,42997,2,0,L|228:48,3,32.5,8|8|8|8,3:2|3:2|3:2|3:2,0:0:0:0:
196,117,43336,6,0,P|141:130|79:66,1,116.999996429443,6|0,3:2|0:0,0:0:0:0:
41,99,43706,2,0,P|54:178|65:261,1,155.999995239258,8|0,3:2|3:2,0:0:0:0:
58,355,44229,1,0,3:2:0:0:
149,311,44403,1,8,3:2:0:0:
242,351,44578,2,0,P|318:355|377:286,1,155.999995239258,0|0,3:2|3:2,0:0:0:0:
378,200,45100,1,8,3:2:0:0:
378,200,45276,1,2,0:0:0:0:
277,186,45452,2,0,P|278:234|295:287,1,77.999997619629,2|0,3:2|3:2,0:0:0:0:
356,334,45805,2,0,P|404:333|457:316,1,77.999997619629,10|0,3:2|0:0,0:0:0:0:
494,244,46158,6,0,P|490:164|484:74,1,155.999995239258,6|10,3:2|3:2,0:0:0:0:
390,124,46678,2,0,P|351:130|299:120,1,77.999997619629,2|0,0:0|3:2,0:0:0:0:
245,48,47031,2,0,P|206:42|154:52,1,77.999997619629,2|8,3:2|3:2,0:0:0:0:
82,102,47385,2,0,P|84:152|89:196,1,77.999997619629,2|0,3:2|0:0,0:0:0:0:
16,253,47732,2,0,P|14:303|9:347,1,77.999997619629,2|8,3:2|3:2,0:0:0:0:
100,378,48082,2,0,P|181:367|281:358,1,155.999995239258,2|2,0:0|3:2,0:0:0:0:
356,350,48615,1,10,3:2:0:0:
299,266,48792,5,2,3:2:0:0:
301,250,48878,1,8,3:2:0:0:
303,234,48964,2,0,P|306:179|315:100,1,116.999996429443,6|0,3:2|0:0,0:0:0:0:
363,117,49316,2,0,B|401:132|401:132|439:128,1,77.999997619629,8|0,3:2|0:0,0:0:0:0:
466,30,49669,1,2,3:2:0:0:
364,33,49847,2,0,P|325:35|277:32,1,77.999997619629,2|8,3:2|3:2,0:0:0:0:
186,12,50204,2,0,P|121:7|63:54,1,116.999996429443,2|0,3:2|0:0,0:0:0:0:
49,74,50561,2,0,P|63:132|68:173,1,77.999997619629,2|8,3:2|3:2,0:0:0:0:
123,235,50918,2,0,P|109:293|102:377,1,116.999996429443,2|0,0:0|0:0,0:0:0:0:
141,383,51275,1,2,3:2:0:0:
228,327,51454,1,10,3:2:0:0:
321,367,51630,1,2,0:0:0:0:
404,309,51806,6,0,L|392:163,1,116.999996429443,6|0,3:2|0:0,0:0:0:0:
366,149,52166,2,0,B|328:141|328:141|270:162,1,77.999997619629,8|0,3:2|0:0,0:0:0:0:
198,196,52526,1,0,3:2:0:0:
116,135,52706,1,0,3:2:0:0:
130,34,52863,1,8,3:2:0:0:
227,6,53039,6,0,P|296:9|391:23,1,155.999995239258,4|0,3:2|3:2,0:0:0:0:
481,44,53567,1,8,3:2:0:0:
481,44,53744,1,0,3:2:0:0:
418,113,53920,1,10,3:2:0:0:
460,193,54097,1,8,3:2:0:0:
463,206,54182,1,8,3:2:0:0:
466,219,54267,2,0,L|459:278,2,35.7500010910034,10|8|2,3:2|3:2|1:3,0:0:0:0:
436,282,54526,1,4,1:3:0:0:
426,291,54615,6,0,P|366:278|247:276,1,155.999995239258,6|10,3:2|3:2,0:0:0:0:
174,293,55141,2,0,P|134:296|85:272,1,77.999997619629,2|0,0:0|3:2,0:0:0:0:
56,190,55507,2,0,P|65:155|71:100,1,77.999997619629,2|8,3:2|3:2,0:0:0:0:
34,18,55868,2,0,L|157:30,1,116.999996429443,2|0,3:2|0:0,0:0:0:0:
190,61,56225,2,0,L|282:51,1,77.999997619629,2|8,3:2|3:2,0:0:0:0:
360,11,56582,1,2,0:0:0:0:
360,11,56761,2,0,P|371:59|359:99,1,77.999997619629,2|0,3:2|3:2,0:0:0:0:
321,178,57107,1,8,3:2:0:0:
282,272,57281,1,2,0:0:0:0:
282,272,57454,6,0,P|375:260|443:257,1,155.999995239258,2|10,3:2|3:2,0:0:0:0:
490,170,57991,2,0,P|449:164|411:162,1,77.999997619629,2|0,0:0|3:2,0:0:0:0:
335,95,58344,2,0,P|294:101|256:103,1,77.999997619629,2|8,3:2|3:2,0:0:0:0:
181,170,58697,2,0,P|211:229|186:293,1,116.999996429443,2|0,3:2|0:0,0:0:0:0:
169,316,59049,1,2,3:2:0:0:
68,302,59225,1,10,3:2:0:0:
68,302,59402,1,2,0:0:0:0:
19,199,59578,2,0,L|36:76,2,116.999996429443,2|2|2,3:2|0:0|0:0,0:0:0:0:
117,226,60284,6,0,B|182:183|199:266|288:220,1,155.999995239258,2|8,3:2|3:2,0:0:0:0:
366,52,60982,1,2,3:2:0:0:
366,52,61158,1,0,3:2:0:0:
284,110,61334,1,8,3:2:0:0:
196,58,61511,2,0,P|183:129|208:177,1,116.999996429443,2|0,3:2|0:0,0:0:0:0:
240,200,61857,2,0,P|296:194|336:193,1,77.999997619629,0|8,3:2|3:2,0:0:0:0:
421,228,62207,2,0,P|440:283|385:357,1,155.999995239258,2|2,0:0|3:2,0:0:0:0:
303,307,62736,1,10,3:2:0:0:
208,324,62913,5,2,3:2:0:0:
202,338,63001,1,8,3:2:0:0:
196,352,63089,2,0,B|142:328|142:328|67:340,1,116.999996429443,6|0,3:2|0:0,0:0:0:0:
39,357,63441,1,8,3:2:0:0:
3,278,63618,6,0,P|-1:211|8:154,1,107.25000327301,6|0,3:2|0:0,0:0:0:0:
15,122,63971,1,8,3:2:0:0:
51,48,64147,6,0,B|87:3|136:10|167:34|177:88|258:54,1,208,6|0,3:2|0:0,0:0:0:0:
239,61,65218,5,10,3:2:0:0:
216,144,65397,1,8,3:2:0:0:
212,156,65481,1,8,3:2:0:0:
207,168,65566,2,0,L|202:214,3,26,10|8|8|8,3:2|3:2|3:2|3:2,0:0:0:0:
200,244,65905,6,0,P|264:286|341:251,1,155.999995239258,6|8,3:2|3:2,0:0:0:0:
404,190,66464,1,2,0:0:0:0:
498,227,66645,2,0,P|496:281|492:325,1,77.999997619629,0|0,3:2|3:2,0:0:0:0:
411,363,66994,1,8,3:2:0:0:
411,363,67163,1,4,3:2:0:0:
320,318,67331,6,0,B|247:293|247:293|164:326,1,160.5,2|8,0:0|3:2,0:0:0:0:
75,352,67856,1,2,0:0:0:0:
4,279,68035,2,0,L|14:191,1,77.999997619629,0|0,3:2|3:2,0:0:0:0:
26,100,68392,1,8,3:2:0:0:
26,100,68568,1,0,0:0:0:0:
116,146,68744,6,0,P|207:147|256:78,1,155.999995239258,6|8,3:2|3:2,0:0:0:0:
265,2,69273,1,2,0:0:0:0:
356,44,69449,1,0,3:2:0:0:
452,11,69626,1,0,3:2:0:0:
506,95,69802,1,8,3:2:0:0:
506,95,69979,6,0,L|490:225,1,116.999996429443,6|0,3:2|0:0,0:0:0:0:
480,260,70327,1,0,3:2:0:0:
400,196,70502,1,8,3:2:0:0:
315,251,70676,2,0,P|261:265|163:223,1,155.999995239258,4|0,3:2|3:2,0:0:0:0:
105,150,71205,1,10,3:2:0:0:
18,202,71381,5,10,3:2:0:0:
14,213,71470,1,8,3:2:0:0:
11,224,71558,2,0,P|3:292|-1:387,1,155.999995239258,6|10,3:2|3:2,0:0:0:0:
93,339,72100,2,0,P|135:337|183:343,1,77.999997619629,2|0,0:0|3:2,0:0:0:0:
252,280,72456,2,0,P|294:282|342:276,1,77.999997619629,2|8,3:2|3:2,0:0:0:0:
414,334,72809,2,0,P|433:284|402:207,1,116.999996429443,6|0,3:2|0:0,0:0:0:0:
389,181,73161,2,0,L|401:88,1,77.999997619629,2|8,3:2|3:2,0:0:0:0:
336,23,73514,1,2,0:0:0:0:
251,78,73690,2,0,P|167:93|105:36,1,155.999995239258,2|8,3:2|3:2,0:0:0:0:
15,24,74220,1,2,0:0:0:0:
15,24,74396,6,0,P|26:94|31:197,1,155.999995239258,6|10,3:2|3:2,0:0:0:0:
2,277,74926,2,0,P|50:263|107:267,1,77.999997619629,2|0,0:0|3:2,0:0:0:0:
155,196,75279,2,0,P|203:210|260:206,1,77.999997619629,2|8,3:2|3:2,0:0:0:0:
313,270,75632,2,0,P|284:341|194:336,1,155.999995239258,6|2,3:2|3:2,0:0:0:0:
126,293,76161,1,8,3:2:0:0:
26,309,76329,2,0,L|45:143,1,155.999995239258,6|0,3:2|3:2,0:0:0:0:
58,52,76871,1,8,3:2:0:0:
155,24,77051,5,8,3:2:0:0:
169,29,77139,1,8,3:2:0:0:
181,33,77227,2,0,L|269:39,1,65,14|0,3:2|3:2,0:0:0:0:
349,47,77579,1,0,3:2:0:0:
349,47,77756,1,8,3:2:0:0:
349,47,78285,6,0,L|261:41,1,65,10|0,3:2|3:2,0:0:0:0:
181,33,78622,1,0,3:2:0:0:
181,33,78794,1,8,3:2:0:0:
406,286,80051,6,0,L|400:198,1,65,10|0,3:2|3:2,0:0:0:0:
392,118,80403,1,0,3:2:0:0:
392,118,80580,1,8,3:2:0:0:
392,118,81094,6,0,L|398:206,1,65,10|0,3:2|3:2,0:0:0:0:
406,286,81446,1,0,3:2:0:0:
406,286,81623,1,10,3:2:0:0:
132,147,82718,5,8,1:3:0:0:
132,147,82806,1,4,1:3:0:0:
132,147,82894,1,4,3:2:0:0:
256,192,82982,12,0,88541,0:0:0:0:
