osu file format v14

[General]
AudioFilename: audio.mp3
AudioLeadIn: 0
PreviewTime: -1
Countdown: 1
SampleSet: Normal
StackLeniency: 0.7
Mode: 0
LetterboxInBreaks: 0
WidescreenStoryboard: 0

[Editor]
DistanceSpacing: 1.8
BeatDivisor: 4
GridSize: 32
TimelineZoom: 1

[Metadata]
Title:oyasumi
TitleUnicode:oyasumi
Artist:Shiggy Jr.
ArtistUnicode:Shiggy Jr.
Creator:xPray
Version:
Source:
Tags:
BeatmapID:1566146
BeatmapSetID:742539

[Difficulty]
HPDrainRate:4
CircleSize:4
OverallDifficulty:9
ApproachRate:10
SliderMultiplier:1.4
SliderTickRate:1

[Events]
//Background and Video events
//Break Periods
//Storyboard Layer 0 (Background)
//Storyboard Layer 1 (Fail)
//Storyboard Layer 2 (Pass)
//Storyboard Layer 3 (Foreground)
//Storyboard Sound Samples

[TimingPoints]
495,300,4,1,0,100,1,0

[HitObjects]
160,288,19695,5,0,0:0:0:0:
352,96,19845,1,0,0:0:0:0:
128,64,19995,1,0,0:0:0:0:
288,224,20145,1,0,0:0:0:0:
64,192,20295,1,0,0:0:0:0:
256,64,20445,1,0,0:0:0:0:
384,256,20595,1,0,0:0:0:0:
192,192,20745,1,0,0:0:0:0:
384,96,20895,1,0,0:0:0:0:
256,288,21045,1,0,0:0:0:0:
96,128,21195,1,0,0:0:0:0:
288,64,21345,1,0,0:0:0:0:
384,288,21495,1,0,0:0:0:0:
160,256,21645,1,0,0:0:0:0:
352,128,21795,1,0,0:0:0:0:
256,288,21945,1,0,0:0:0:0:
160,96,22095,1,0,0:0:0:0:
384,96,22245,1,0,0:0:0:0:
128,256,22395,1,0,0:0:0:0:
352,64,22545,1,0,0:0:0:0:
224,320,22695,1,0,0:0:0:0:
192,64,22845,1,0,0:0:0:0:
352,256,22995,1,0,0:0:0:0:
128,224,23145,1,0,0:0:0:0:
352,64,23295,1,0,0:0:0:0:
192,288,23445,1,0,0:0:0:0:
192,64,23595,1,0,0:0:0:0:
352,256,23745,1,0,0:0:0:0:
96,224,23895,1,0,0:0:0:0:
384,192,24045,1,0,0:0:0:0:
128,128,24195,1,0,0:0:0:0:
256,320,24345,1,0,0:0:0:0:
320,64,24495,1,0,0:0:0:0:
160,64,24645,1,0,0:0:0:0:
352,256,24795,1,0,0:0:0:0:
160,192,24945,1,0,0:0:0:0:
320,64,25095,1,0,0:0:0:0:
224,320,25245,1,0,0:0:0:0:
128,96,25395,1,0,0:0:0:0:
352,192,25545,1,0,0:0:0:0:
96,288,25695,1,0,0:0:0:0:
256,128,25845,1,0,0:0:0:0:
320,288,25995,1,0,0:0:0:0:
416,160,26145,1,0,0:0:0:0:
192,96,26295,1,0,0:0:0:0:
224,320,26445,1,0,0:0:0:0:
352,64,26595,1,0,0:0:0:0:
96,160,26745,1,0,0:0:0:0:
352,224,26895,1,0,0:0:0:0:
224,64,27045,1,0,0:0:0:0:
256,288,27195,1,0,0:0:0:0:
160,288,27345,5,0,0:0:0:0:
352,64,27495,1,0,0:0:0:0:
352,288,27645,1,0,0:0:0:0:
128,160,27795,1,0,0:0:0:0:
320,96,27945,1,0,0:0:0:0:
160,288,28095,1,0,0:0:0:0:
160,96,28245,1,0,0:0:0:0:
352,224,28395,1,0,0:0:0:0:
128,288,28545,1,0,0:0:0:0:
256,96,28695,1,0,0:0:0:0:
384,256,28845,1,0,0:0:0:0:
224,320,28995,1,0,0:0:0:0:
247,43,29145,1,0,0:0:0:0:
93,200,29295,1,0,0:0:0:0:
390,210,29445,1,0,0:0:0:0:
256,320,29595,1,0,0:0:0:0:
128,96,29745,1,0,0:0:0:0:
386,206,29895,1,0,0:0:0:0:
122,288,30045,1,0,0:0:0:0:
316,56,30195,1,0,0:0:0:0:
320,320,30345,1,0,0:0:0:0:
96,224,30495,1,0,0:0:0:0:
256,64,30645,1,0,0:0:0:0:
384,192,30795,1,0,0:0:0:0:
96,96,30945,1,0,0:0:0:0:
224,256,31095,1,0,0:0:0:0:
384,64,31245,1,0,0:0:0:0:
128,64,31395,1,0,0:0:0:0:
256,288,31545,1,0,0:0:0:0:
256,96,31695,1,0,0:0:0:0:
352,320,31845,1,0,0:0:0:0:
160,320,31995,1,0,0:0:0:0:
256,192,32145,1,0,0:0:0:0:
96,64,32295,1,0,0:0:0:0:
352,64,32445,1,0,0:0:0:0:
160,256,32595,1,0,0:0:0:0:
352,256,32745,1,0,0:0:0:0:
96,256,32895,1,0,0:0:0:0:
384,256,33045,1,0,0:0:0:0:
160,256,33195,1,0,0:0:0:0:
320,256,33345,1,0,0:0:0:0:
224,256,33495,1,0,0:0:0:0:
288,256,33645,1,0,0:0:0:0:
160,96,33795,1,0,0:0:0:0:
320,96,33945,1,0,0:0:0:0:
256,320,34095,1,0,0:0:0:0:
128,160,34245,1,0,0:0:0:0:
352,160,34395,1,0,0:0:0:0:
192,256,34545,1,0,0:0:0:0:
352,64,34695,1,0,0:0:0:0:
128,64,34845,1,0,0:0:0:0:
352,288,34995,1,0,0:0:0:0:
128,288,35145,1,0,0:0:0:0:
352,128,35295,1,0,0:0:0:0:
256,256,35445,1,0,0:0:0:0:
96,64,35595,1,0,0:0:0:0:
352,96,35745,1,0,0:0:0:0:
128,192,35895,1,0,0:0:0:0:
320,288,36045,1,0,0:0:0:0:
96,160,36195,1,0,0:0:0:0:
288,96,36345,1,0,0:0:0:0:
224,256,36495,1,0,0:0:0:0:
320,96,36645,1,0,0:0:0:0:
320,320,36795,1,0,0:0:0:0:
448,192,36945,1,0,0:0:0:0:
224,256,37095,1,0,0:0:0:0:
320,128,37245,1,0,0:0:0:0:
128,192,37395,1,0,0:0:0:0:
224,32,37545,1,0,0:0:0:0:
96,288,37695,1,0,0:0:0:0:
384,288,37845,1,0,0:0:0:0:
128,96,37995,1,0,0:0:0:0:
352,96,38145,1,0,0:0:0:0:
224,320,38295,1,0,0:0:0:0:
224,320,38445,1,0,0:0:0:0:
224,320,38595,1,0,0:0:0:0:
