osu file format v14

[General]
AudioFilename: audio.mp3
AudioLeadIn: 0
PreviewTime: 58017
Countdown: 0
SampleSet: Soft
StackLeniency: 0.4
Mode: 0
LetterboxInBreaks: 0
WidescreenStoryboard: 1

[Editor]
Bookmarks: 10077,19677,29277,48477,67677
DistanceSpacing: 0.1
BeatDivisor: 8
GridSize: 4
TimelineZoom: 2.3

[Metadata]
Title:oyasumi
TitleUnicode:oyasumi
Artist:Shiggy Jr.
ArtistUnicode:Shiggy Jr.
Creator:bite you death
Version:ohwow's insane
Source:
Tags:listen to the music jpop japanese pop おやすみ tomoko ikeda 池田 智子 shigeyuki harada 原田 茂幸 natsuhiko mori 森 夏彦 kazma moroishi 諸石 和馬 ohwow hazu- searasp hos hootowlstar walshy byd
BeatmapID:1437528
BeatmapSetID:665057

[Difficulty]
HPDrainRate:5.5
CircleSize:3.8
OverallDifficulty:7.5
ApproachRate:9
SliderMultiplier:1.5
SliderTickRate:1

[Events]
//Background and Video events
0,0,"starstorm.png",0,0
//Break Periods
2,10292,11563
2,12692,13992
2,15242,16692
2,39092,47892
//Storyboard Layer 0 (Background)
//Storyboard Layer 1 (Fail)
//Storyboard Layer 2 (Pass)
//Storyboard Layer 3 (Foreground)
//Storyboard Sound Samples

[TimingPoints]
492,300,4,2,1,60,1,0
492,-100,4,2,1,60,0,0
5292,-100,4,2,1,60,0,0
19692,-76.9230769230769,4,2,1,80,0,1
38892,-100,4,2,1,70,0,0
58092,-76.9230769230769,4,2,1,80,0,1
77292,-100,4,2,1,60,0,0

[Colours]
Combo1 : 131,131,131
Combo2 : 137,12,15
Combo3 : 192,192,192
Combo4 : 74,74,149

[HitObjects]
235,228,492,5,0,0:0:0:0:
230,214,792,1,0,0:0:0:0:
225,200,1092,1,0,0:0:0:0:
153,318,1242,2,0,L|227:313,1,75,0|0,0:0|0:0,0:0:0:0:
320,222,1542,6,0,L|394:217,1,75,0|0,0:0|0:0,0:0:0:0:
473,292,1842,1,0,0:0:0:0:
405,199,1992,2,0,L|330:203,1,75,0|0,0:0|0:0,0:0:0:0:
225,200,2292,1,0,0:0:0:0:
220,214,2442,1,0,0:0:0:0:
215,228,2592,2,0,L|211:153,1,75,0|0,0:0|0:0,0:0:0:0:
201,36,2892,5,0,0:0:0:0:
206,22,3192,1,0,0:0:0:0:
211,8,3492,1,0,0:0:0:0:
283,126,3642,2,0,L|209:121,1,75,0|0,0:0|0:0,0:0:0:0:
5,63,3942,6,0,L|79:68,1,75,0|0,0:0|0:0,0:0:0:0:
140,176,4242,1,0,0:0:0:0:
89,85,4392,2,0,L|15:80,1,75,0|0,0:0|0:0,0:0:0:0:
150,193,4692,2,0,L|261:200,1,112.5,0|0,0:0|0:0,0:0:0:0:
283,126,4992,1,0,0:0:0:0:
288,112,5142,1,0,0:0:0:0:
400,213,5292,5,2,0:0:0:0:
405,227,5592,2,0,L|410:301,1,75,8|0,0:0|0:0,0:0:0:0:
289,363,5892,1,2,0:0:0:0:
216,265,6042,2,0,P|185:243|149:236,1,75,2|8,0:0|0:0,0:0:0:0:
72,336,6342,6,0,L|146:331,1,75,0|2,0:0|0:0,0:0:0:0:
237,249,6642,1,0,0:0:0:0:
310,347,6792,2,0,L|384:342,1,75,8|0,0:0|0:0,0:0:0:0:
448,181,7092,2,0,L|453:255,1,75,2|2,0:0|0:0,0:0:0:0:
402,92,7392,2,0,L|476:87,1,75,8|0,0:0|0:0,0:0:0:0:
302,157,7692,5,2,0:0:0:0:
292,145,7992,2,0,L|287:70,1,75,8|0,0:0|0:0,0:0:0:0:
412,109,8292,1,2,0:0:0:0:
332,231,8442,2,0,P|295:239|258:233,1,75,2|8,0:0|0:0,0:0:0:0:
193,80,8742,6,0,L|197:154,1,75,0|2,0:0|0:0,0:0:0:0:
162,246,9042,1,0,0:0:0:0:
96,92,9192,2,0,L|100:166,1,75,8|0,0:0|0:0,0:0:0:0:
11,325,9492,2,0,B|46:303|46:303|116:315,1,112.5,2|0,0:0|0:0,0:0:0:0:
153,323,9792,1,8,0:0:0:0:
260,288,9942,1,0,0:0:0:0:
355,350,10092,5,2,0:0:0:0:
355,350,12192,5,10,0:0:0:0:
372,239,12342,1,2,0:0:0:0:
389,129,12492,1,2,0:0:0:0:
389,129,14592,5,10,0:0:0:0:
372,239,14742,1,2,0:0:0:0:
175,186,14892,5,2,0:0:0:0:
285,169,15042,1,2,0:0:0:0:
285,169,17292,5,2,0:0:0:0:
138,112,17442,1,2,0:0:0:0:
123,107,17742,1,2,0:0:0:0:
123,107,18492,6,0,L|133:46,3,37.5,8|8|8|8,0:0|0:0|0:0|0:0,0:0:0:0:
49,203,18792,2,0,L|42:165,3,37.5,2|0|8|8,0:0|0:0|0:0|0:0,0:0:0:0:
136,289,19092,5,2,0:0:0:0:
173,284,19167,1,0,0:0:0:0:
210,280,19242,1,8,0:0:0:0:
247,275,19317,1,8,0:0:0:0:
297,295,19392,5,2,0:0:0:0:
297,295,19692,6,0,P|341:276|390:276,1,97.4999955368044,6|0,0:3|0:0,0:0:0:0:
512,366,19992,2,0,P|467:384|418:384,1,97.4999955368044,8|0,0:0|0:0,0:0:0:0:
215,294,20292,2,0,P|170:275|121:275,1,97.4999955368044,2|0,0:0|0:0,0:0:0:0:
0,366,20592,2,0,P|44:384|93:384,1,97.4999955368044,8|0,0:0|0:0,0:0:0:0:
99,159,20892,6,0,L|1:167,2,97.4999955368044,2|0|8,0:0|0:0|0:0,0:0:0:0:
254,145,21342,1,0,0:0:0:0:
308,309,21492,1,2,0:0:0:0:
168,209,21642,1,2,0:0:0:0:
342,206,21792,1,8,0:0:0:0:
232,366,21942,6,0,P|214:321|220:274,1,97.4999955368044,0|2,0:0|0:0,0:0:0:0:
418,263,22242,2,0,P|436:218|430:171,1,97.4999955368044,0|8,0:0|0:0,0:0:0:0:
330,32,22542,1,0,0:0:0:0:
163,119,22692,2,0,B|207:149|207:149|298:133,1,146.249993305207,2|0,0:0|0:0,0:0:0:0:
332,127,22992,1,8,0:0:0:0:
229,48,23142,1,0,0:0:0:0:
87,192,23292,6,0,L|62:71,1,97.4999955368044,6|0,0:0|0:0,0:0:0:0:
192,296,23592,2,0,L|217:175,1,97.4999955368044,12|0,0:0|0:0,0:0:0:0:
77,356,23892,1,2,0:0:0:0:
97,228,24042,1,2,0:0:0:0:
259,343,24192,2,0,P|319:300|395:300,1,146.249993305207,12|0,0:0|0:0,0:0:0:0:
421,310,24492,6,0,P|421:261|441:217,1,97.4999955368044,6|0,0:0|0:0,0:0:0:0:
348,68,24792,2,0,P|367:109|362:178,1,97.4999955368044,8|0,0:0|0:0,0:0:0:0:
162,126,25092,2,0,L|260:134,1,97.4999955368044,2|0,0:0|0:0,0:0:0:0:
299,295,25392,2,0,L|201:303,1,97.4999955368044,8|0,0:0|0:0,0:0:0:0:
71,315,25692,5,2,0:0:0:0:
61,188,25842,1,0,0:0:0:0:
50,341,25992,1,8,0:0:0:0:
191,328,26142,2,0,L|289:320,1,97.4999955368044,0|2,0:0|0:0,0:0:0:0:
399,309,26442,1,2,0:0:0:0:
424,183,26592,1,8,0:0:0:0:
510,298,26742,1,0,0:0:0:0:
454,99,26892,6,0,P|386:88|344:144,1,146.249993305207,6|0,0:0|0:0,0:0:0:0:
348,177,27192,2,0,L|250:171,1,97.4999955368044,8|0,0:0|0:0,0:0:0:0:
52,187,27492,2,0,P|121:176|163:232,1,146.249993305207,6|0,0:0|0:0,0:0:0:0:
159,265,27792,2,0,L|257:259,1,97.4999955368044,8|0,0:0|0:0,0:0:0:0:
426,248,28092,5,6,0:0:0:0:
342,332,28242,1,8,0:0:0:0:
342,332,28317,1,8,0:0:0:0:
342,332,28392,1,8,0:0:0:0:
503,303,28542,1,8,0:0:0:0:
420,150,28692,2,0,L|426:248,1,97.4999955368044,8|2,0:0|0:0,0:0:0:0:
265,129,28992,2,0,L|259:31,1,97.4999955368044,8|8,0:0|0:0,0:0:0:0:
24,150,29292,6,0,P|102:198|178:146,1,194.999991073609,6|8,0:0|0:0,0:0:0:0:
33,264,29742,2,0,P|23:313|39:362,1,97.4999955368044,0|2,0:0|0:0,0:0:0:0:
220,338,30042,1,2,0:0:0:0:
138,205,30192,1,8,0:0:0:0:
113,308,30342,1,0,0:0:0:0:
292,202,30492,6,0,P|214:153|138:205,1,194.999991073609,6|8,0:0|0:0,0:0:0:0:
368,253,30942,2,0,P|382:205|370:154,1,97.4999955368044,0|2,0:0|0:0,0:0:0:0:
178,122,31242,1,2,0:0:0:0:
217,240,31392,1,8,0:0:0:0:
306,93,31542,1,0,0:0:0:0:
368,253,31692,6,0,L|363:359,1,97.4999955368044,6|0,0:0|0:0,0:0:0:0:
463,188,31992,2,0,L|458:294,1,97.4999955368044,8|0,0:0|0:0,0:0:0:0:
306,93,32292,2,0,L|311:199,1,97.4999955368044,6|0,0:0|0:0,0:0:0:0:
211,28,32592,2,0,L|216:134,1,97.4999955368044,8|0,0:0|0:0,0:0:0:0:
501,95,32892,6,0,L|404:91,1,97.4999955368044,6|0,0:0|0:0,0:0:0:0:
224,10,33192,2,0,L|321:5,1,97.4999955368044,8|0,0:0|0:0,0:0:0:0:
179,144,33492,1,2,0:0:0:0:
118,68,33642,1,2,0:0:0:0:
46,248,33792,1,8,0:0:0:0:
143,234,33942,1,8,0:0:0:0:
21,82,34092,6,0,L|213:53,1,194.999991073609,6|8,0:0|0:0,0:0:0:0:
240,249,34542,2,0,L|143:234,1,97.4999955368044,0|2,0:0|0:0,0:0:0:0:
289,163,34842,1,2,0:0:0:0:
324,261,34992,1,8,0:0:0:0:
276,131,35142,1,0,0:0:0:0:
482,192,35292,6,0,L|289:163,1,194.999991073609,6|8,0:0|0:0,0:0:0:0:
250,355,35742,2,0,L|346:340,1,97.4999955368044,0|2,0:0|0:0,0:0:0:0:
143,234,36042,1,2,0:0:0:0:
92,327,36192,1,8,0:0:0:0:
237,232,36342,1,0,0:0:0:0:
92,120,36492,6,0,P|122:157|139:202,1,97.4999955368044,6|0,0:0|0:0,0:0:0:0:
267,27,36792,2,0,P|236:64|219:109,1,97.4999955368044,8|0,0:0|0:0,0:0:0:0:
384,93,37092,2,0,P|367:138|335:176,1,97.4999955368044,6|0,0:0|0:0,0:0:0:0:
463,0,37392,2,0,P|480:45|511:83,1,97.4999955368044,8|0,0:0|0:0,0:0:0:0:
512,260,37692,6,0,P|428:229|364:266,1,146.249993305207,6|0,0:0|0:0,0:0:0:0:
296,376,37992,2,0,P|355:336|370:266,1,146.249993305207,12|0,0:0|0:0,0:0:0:0:
303,130,38292,2,0,P|307:201|360:249,1,146.249993305207,6|0,0:0|0:0,0:0:0:0:
512,174,38592,2,0,P|507:102|454:54,1,146.249993305207,12|0,0:0|0:0,0:0:0:0:
315,113,38892,5,6,0:0:0:0:
203,85,48492,5,2,0:0:0:0:
100,185,48642,2,0,B|149:166|149:166|194:188|243:172,1,150,0|0,0:0|0:0,0:0:0:0:
313,82,49092,2,0,P|296:48|291:11,1,75,2|0,0:0|0:0,0:0:0:0:
410,147,49392,2,0,P|404:184|388:217,1,75,8|0,0:0|0:0,0:0:0:0:
268,274,49692,5,2,0:0:0:0:
324,376,49842,1,0,0:0:0:0:
292,249,49992,1,8,0:0:0:0:
200,356,50142,2,0,L|108:348,1,75,0|2,0:0|0:0,0:0:0:0:
32,159,50442,2,0,L|106:152,2,75,0|8|2,0:0|0:0|0:0,0:0:0:0:
4,288,50892,6,0,P|40:274|76:267,1,75,2|0,0:0|0:0,0:0:0:0:
240,262,51192,2,0,P|201:261|165:267,1,75,8|0,0:0|0:0,0:0:0:0:
121,176,51492,1,2,0:0:0:0:
236,97,51642,2,0,B|227:171,1,75,0|8,0:0|0:0,0:0:0:0:
209,351,51942,1,0,0:0:0:0:
209,351,52092,6,0,B|283:342,1,75,2|0,0:0|0:0,0:0:0:0:
413,265,52392,2,0,B|339:256,1,75,8|0,0:0|0:0,0:0:0:0:
189,187,52692,2,0,B|263:178,1,75,2|0,0:0|0:0,0:0:0:0:
396,90,52992,1,10,0:0:0:0:
295,77,53142,1,2,0:0:0:0:
404,177,53292,5,2,0:0:0:0:
273,58,53442,2,0,B|199:49,2,75,0|8|0,0:0|0:0|0:0,0:0:0:0:
483,39,53892,2,0,P|428:32|385:67,1,112.5,2|0,0:0|0:0,0:0:0:0:
396,90,54192,2,0,P|411:137|407:187,1,75,8|0,0:0|0:0,0:0:0:0:
379,283,54492,6,0,B|230:263,1,150,2|8,0:0|0:0,0:0:0:0:
124,111,54942,2,0,P|133:147|138:184,1,75,0|2,0:0|0:0,0:0:0:0:
0,333,55242,2,0,P|58:294|132:314,1,150,0|0,0:0|0:0,0:0:0:0:
245,343,55692,6,0,L|318:328,1,75,2|0,0:0|0:0,0:0:0:0:
426,217,55992,2,0,L|352:202,1,75,8|0,0:0|0:0,0:0:0:0:
220,64,56292,2,0,B|247:108|247:108|235:217,1,150,2|8,0:0|0:0,0:0:0:0:
141,132,56742,1,0,0:0:0:0:
311,40,56892,6,0,L|347:33,3,37.5,8|8|8|8,0:0|0:0|0:0|0:0,0:0:0:0:
407,114,57192,2,0,L|444:120,3,37.5,8|8|8|8,0:0|0:0|0:0|0:0,0:0:0:0:
327,182,57492,5,2,0:0:0:0:
322,219,57567,1,2,0:0:0:0:
318,256,57642,1,2,0:0:0:0:
313,293,57717,1,2,0:0:0:0:
338,341,57792,5,2,0:1:0:0:
338,341,58092,6,0,P|292:326|244:327,1,97.4999955368044,6|0,0:3|0:0,0:0:0:0:
62,284,58392,2,0,P|110:284|156:269,1,97.4999955368044,8|0,0:0|0:0,0:0:0:0:
217,105,58692,1,2,0:0:0:0:
271,207,58842,1,2,0:0:0:0:
132,71,58992,2,0,P|181:20|252:21,1,146.249993305207,8|0,0:0|0:0,0:0:0:0:
281,40,59292,5,2,0:0:0:0:
398,0,59442,1,0,0:0:0:0:
442,152,59592,1,8,0:0:0:0:
325,112,59742,1,0,0:0:0:0:
281,264,59892,2,0,P|346:219|428:236,1,146.249993305207,2|0,0:0|0:0,0:0:0:0:
434,248,60192,1,8,0:0:0:0:
314,365,60342,6,0,L|217:352,1,97.4999955368044,0|2,0:0|0:0,0:0:0:0:
130,209,60642,2,0,L|226:196,1,97.4999955368044,0|8,0:0|0:0,0:0:0:0:
121,335,60942,1,0,0:0:0:0:
38,188,61092,2,0,P|78:129|152:116,1,146.249993305207,2|0,0:0|0:0,0:0:0:0:
180,127,61392,1,8,0:0:0:0:
263,24,61542,1,0,0:0:0:0:
301,215,61692,6,0,L|326:94,1,97.4999955368044,6|0,0:0|0:0,0:0:0:0:
181,303,61992,2,0,L|156:182,1,97.4999955368044,12|0,0:0|0:0,0:0:0:0:
309,330,62292,1,2,0:0:0:0:
161,333,62442,1,2,0:0:0:0:
322,236,62592,2,0,P|384:271|399:358,1,146.249993305207,12|0,0:0|0:0,0:0:0:0:
402,373,62892,6,0,L|507:365,1,97.4999955368044,6|0,0:0|0:0,0:0:0:0:
501,189,63192,2,0,L|403:181,1,97.4999955368044,8|0,0:0|0:0,0:0:0:0:
271,94,63492,2,0,P|271:45|287:0,1,97.4999955368044,2|0,0:0|0:0,0:0:0:0:
142,149,63792,2,0,P|158:194|158:243,1,97.4999955368044,8|0,0:0|0:0,0:0:0:0:
23,339,64092,5,2,0:0:0:0:
55,214,64242,1,0,0:0:0:0:
168,357,64392,1,8,0:0:0:0:
255,239,64542,2,0,L|157:243,1,97.4999955368044,0|2,0:0|0:0,0:0:0:0:
288,356,64842,1,2,0:0:0:0:
401,213,64992,1,8,0:0:0:0:
433,338,65142,1,0,0:0:0:0:
319,173,65292,6,0,P|355:134|456:140,1,146.249993305207,6|0,0:0|0:0,0:0:0:0:
473,150,65592,2,0,L|486:53,1,97.4999955368044,8|0,0:0|0:0,0:0:0:0:
365,243,65892,2,0,P|311:196|240:202,1,146.249993305207,6|0,0:0|0:0,0:0:0:0:
211,220,66192,2,0,L|197:123,1,97.4999955368044,8|0,0:0|0:0,0:0:0:0:
179,2,66492,5,6,0:0:0:0:
115,142,66642,1,8,0:0:0:0:
115,142,66717,1,8,0:0:0:0:
115,142,66792,1,8,0:0:0:0:
51,40,66942,1,8,0:0:0:0:
4,232,67092,2,0,L|101:222,1,97.4999955368044,8|2,0:0|0:0,0:0:0:0:
292,83,67392,2,0,L|194:92,1,97.4999955368044,8|8,0:0|0:0,0:0:0:0:
199,306,67692,6,0,P|257:233|351:257,1,194.999991073609,6|8,0:0|0:0,0:0:0:0:
163,302,68142,2,0,P|177:255|210:219,1,97.4999955368044,0|2,0:0|0:0,0:0:0:0:
286,320,68442,1,2,0:0:0:0:
333,161,68592,1,8,0:0:0:0:
434,257,68742,1,0,0:0:0:0:
476,86,68892,6,0,P|418:13|324:37,1,194.999991073609,6|8,0:0|0:0,0:0:0:0:
512,82,69342,2,0,P|498:35|465:-1,1,97.4999955368044,0|2,0:0|0:0,0:0:0:0:
389,100,69642,1,2,0:0:0:0:
228,52,69792,1,8,0:0:0:0:
209,220,69942,1,0,0:0:0:0:
40,156,70092,6,0,P|86:140|134:132,1,97.4999955368044,6|0,0:0|0:0,0:0:0:0:
209,220,70392,2,0,P|160:223|113:235,1,97.4999955368044,8|0,0:0|0:0,0:0:0:0:
300,179,70692,2,0,P|348:180|396:189,1,97.4999955368044,6|0,0:0|0:0,0:0:0:0:
436,296,70992,2,0,P|389:282|340:277,1,97.4999955368044,8|0,0:0|0:0,0:0:0:0:
204,317,71292,6,0,L|210:191,1,97.4999955368044,6|0,0:0|0:0,0:0:0:0:
296,82,71592,2,0,L|300:179,1,97.4999955368044,8|0,0:0|0:0,0:0:0:0:
305,211,71817,1,0,0:0:0:0:
305,211,71892,1,2,0:0:0:0:
405,116,72042,1,2,0:0:0:0:
258,9,72192,2,0,P|224:43|215:90,1,97.4999955368044,8|8,0:0|0:0,0:0:0:0:
120,216,72492,6,0,L|107:21,1,194.999991073609,6|8,0:0|0:0,0:0:0:0:
25,238,72942,2,0,L|122:244,1,97.4999955368044,0|2,0:0|0:0,0:0:0:0:
296,260,73242,1,2,0:0:0:0:
201,167,73392,1,8,0:0:0:0:
217,337,73542,1,0,0:0:0:0:
393,181,73692,6,0,L|380:375,1,194.999991073609,6|8,0:0|0:0,0:0:0:0:
298,159,74142,2,0,L|395:152,1,97.4999955368044,0|2,0:0|0:0,0:0:0:0:
478,273,74442,1,2,0:0:0:0:
296,260,74592,1,8,0:0:0:0:
398,118,74742,1,0,0:0:0:0:
384,324,74892,6,0,L|390:227,1,97.4999955368044,6|0,0:0|0:0,0:0:0:0:
204,256,75192,2,0,L|197:159,1,97.4999955368044,8|0,0:0|0:0,0:0:0:0:
476,192,75492,2,0,L|482:95,1,97.4999955368044,6|0,0:0|0:0,0:0:0:0:
296,260,75792,2,0,L|289:163,1,97.4999955368044,8|0,0:0|0:0,0:0:0:0:
106,27,76092,6,0,P|54:76|51:147,1,146.249993305207,6|0,0:0|0:0,0:0:0:0:
210,135,76392,2,0,P|193:65|132:27,1,146.249993305207,12|0,0:0|0:0,0:0:0:0:
65,171,76692,2,0,P|133:191|196:157,1,146.249993305207,6|0,0:0|0:0,0:0:0:0:
341,122,76992,2,0,P|272:101|209:135,1,146.249993305207,12|0,0:0|0:0,0:0:0:0:
209,286,77292,5,6,0:0:0:0:
109,265,77442,2,0,B|71:267,2,37.5,0|0|2,0:0|0:0|0:0,0:0:0:0:
211,311,77742,1,2,0:0:0:0:
281,200,77892,2,0,B|336:196|336:196|377:205|377:205|433:201,1,150,8|0,0:0|0:0,0:0:0:0:
429,201,78492,5,2,0:0:0:0:
381,107,78642,2,0,B|379:69,2,37.5,8|0|2,0:0|0:0|0:0,0:0:0:0:
454,199,78942,1,2,0:0:0:0:
360,290,79092,2,0,B|254:297|254:297|207:263,1,150,8|0,0:0|0:0,0:0:0:0:
218,271,79692,5,2,0:0:0:0:
156,200,79842,2,0,B|118:202,2,37.5,8|0|2,0:0|0:0|0:0,0:0:0:0:
202,291,80142,1,2,0:0:0:0:
249,169,80292,2,0,B|245:114|245:114|254:73|254:73|250:17,1,150,8|0,0:0|0:0,0:0:0:0:
251,21,80892,5,2,0:0:0:0:
