osu file format v14

[General]
AudioFilename: audio.mp3
AudioLeadIn: 0
PreviewTime: 58017
Countdown: 0
SampleSet: Soft
StackLeniency: 0.5
Mode: 0
LetterboxInBreaks: 0
WidescreenStoryboard: 0

[Editor]
DistanceSpacing: 1
BeatDivisor: 4
GridSize: 4
TimelineZoom: 2.3

[Metadata]
Title:oyasumi
TitleUnicode:oyasumi
Artist:Shiggy Jr.
ArtistUnicode:Shiggy Jr.
Creator:bite you death
Version:hazu's expert
Source:
Tags:listen to the music jpop japanese pop おやすみ tomoko ikeda 池田 智子 shigeyuki harada 原田 茂幸 natsuhiko mori 森 夏彦 kazma moroishi 諸石 和馬 ohwow hazu- searasp hos hootowlstar walshy byd
BeatmapID:1441095
BeatmapSetID:665057

[Difficulty]
HPDrainRate:6
CircleSize:4
OverallDifficulty:8
ApproachRate:9.3
SliderMultiplier:1.8
SliderTickRate:1

[Events]
//Background and Video events
0,0,"starstorm.png",0,0
//Break Periods
2,10292,11638
2,12692,14038
2,15242,16738
2,39092,47938
//Storyboard Layer 0 (Background)
//Storyboard Layer 1 (Fail)
//Storyboard Layer 2 (Pass)
//Storyboard Layer 3 (Foreground)
//Storyboard Sound Samples

[TimingPoints]
492,300,4,2,1,60,1,0
492,-133.333333333333,4,2,1,60,0,0
18492,-100,4,2,1,50,0,0
19467,-100,4,2,1,5,0,0
19692,-100,4,2,1,80,0,1
20517,-100,4,2,1,5,0,1
20592,-100,4,2,1,80,0,1
24417,-100,4,2,1,5,0,1
24492,-100,4,2,1,80,0,1
38817,-100,4,2,1,5,0,1
38892,-100,4,2,1,70,0,0
48492,-133.333333333333,4,2,1,70,0,0
56892,-100,4,2,1,50,0,0
57867,-100,4,2,1,5,0,0
58092,-100,4,2,1,80,0,1
62817,-100,4,2,1,5,0,1
62892,-100,4,2,1,80,0,1
76317,-100,4,2,1,5,0,1
76392,-100,4,2,1,80,0,1
76617,-100,4,2,1,5,0,1
76692,-100,4,2,1,80,0,1
76917,-100,4,2,1,5,0,1
76992,-100,4,2,1,80,0,1
77217,-100,4,2,1,5,0,1
77292,-100,4,2,1,60,0,0

[Colours]
Combo1 : 131,131,131
Combo2 : 137,12,15
Combo3 : 192,192,192
Combo4 : 74,74,149

[HitObjects]
232,100,492,5,0,0:0:0:0:
232,100,792,2,0,P|228:148|220:248,1,135.000005149842,0|0,0:0|0:0,0:0:0:0:
104,48,1242,2,0,P|108:76|112:136,1,67.5000025749208,0|0,0:0|0:0,0:0:0:0:
124,300,1542,6,0,P|88:264|-4:260,1,135.000005149842,0|0,0:0|0:0,0:0:0:0:
236,248,1992,1,0,0:0:0:0:
236,248,2292,2,0,P|232:284|228:336,2,67.5000025749208,0|0|0,0:0|0:0|0:0,0:0:0:0:
252,144,2742,1,0,0:0:0:0:
328,320,2892,5,0,0:0:0:0:
328,320,3192,2,0,P|388:316|480:312,1,135.000005149842,0|0,0:0|0:0,0:0:0:0:
340,208,3642,2,0,L|252:212,1,67.5000025749208,0|0,0:0|0:0,0:0:0:0:
456,92,3942,6,0,P|436:144|488:228,1,135.000005149842,0|0,0:0|0:0,0:0:0:0:
352,36,4392,1,0,0:0:0:0:
352,36,4692,2,0,P|288:40|216:44,1,135.000005149842,0|0,0:0|0:0,0:0:0:0:
108,56,5142,1,0,0:0:0:0:
284,136,5292,5,2,0:0:0:0:
284,136,5592,2,0,P|351:132|418:128,1,135.000005149842,8|2,0:0|0:0,0:0:0:0:
200,200,6042,2,0,P|184:160|184:108,1,67.5000025749208,2|8,0:0|0:0,0:0:0:0:
300,240,6342,6,0,P|294:273|285:392,1,135.000005149842,0|0,0:0|0:0,0:0:0:0:
392,168,6792,1,8,0:0:0:0:
392,168,7092,2,0,P|388:120|376:72,2,67.5000025749208,2|2|8,0:0|0:0|0:0,0:0:0:0:
456,44,7542,1,0,0:0:0:0:
264,116,7692,5,2,0:0:0:0:
264,116,7992,2,0,P|204:128|124:76,1,135.000005149842,8|2,0:0|0:0,0:0:0:0:
36,216,8442,2,0,P|68:212|128:208,1,67.5000025749208,2|8,0:0|0:0,0:0:0:0:
284,196,8742,6,0,B|269:239|269:239|285:327,1,135.000005149842,0|0,0:0|0:0,0:0:0:0:
184,152,9192,1,8,0:0:0:0:
184,152,9492,2,0,P|144:140|56:168,1,135.000005149842,2|8,0:0|0:0,0:0:0:0:
0,256,9942,1,0,0:0:0:0:
24,68,10092,5,2,0:0:0:0:
368,296,12192,5,10,0:0:0:0:
368,194,12342,1,2,0:0:0:0:
455,245,12492,1,2,0:0:0:0:
96,200,14592,5,10,0:0:0:0:
224,160,14742,1,2,0:0:0:0:
264,284,14892,1,2,0:0:0:0:
136,324,15042,1,2,0:0:0:0:
288,168,17292,5,2,0:0:0:0:
456,220,17442,1,2,0:0:0:0:
112,240,17742,5,2,0:0:0:0:
112,240,18492,6,0,L|116:316,3,45,8|8|8|8,0:0|0:0|0:0|0:0,0:0:0:0:
176,148,18792,2,0,L|172:72,3,45,2|0|8|8,0:0|0:0|0:0|0:0,0:0:0:0:
252,236,19092,1,2,0:0:0:0:
295,247,19167,1,0,0:0:0:0:
338,238,19242,1,8,0:0:0:0:
382,228,19317,1,8,0:0:0:0:
424,241,19392,2,0,P|420:288|420:308,1,45,2|0,0:0|0:0,0:0:0:0:
108,196,19692,6,0,P|112:236|116:316,1,90,6|0,0:3|0:0,0:0:0:0:
224,56,19992,2,0,P|219:100|216:145,1,90,8|0,0:0|0:0,0:0:0:0:
8,140,20292,2,0,P|12:192|16:292,1,135,2|0,0:0|0:0,0:0:0:0:
32,320,20592,2,0,P|29:275|28:224,1,90,8|0,0:0|0:0,0:0:0:0:
136,56,20892,5,2,0:0:0:0:
216,224,21042,2,0,P|160:216|126:213,1,90,0|8,0:0|0:0,0:0:0:0:
372,136,21342,1,0,0:0:0:0:
292,304,21492,1,2,0:0:0:0:
272,64,21642,2,0,P|276:108|279:153,1,90,2|8,0:0|0:0,0:0:0:0:
404,284,21942,1,0,0:0:0:0:
216,224,22092,5,2,0:0:0:0:
372,136,22242,2,0,P|416:138|461:143,1,90,0|8,0:0|0:0,0:0:0:0:
200,240,22542,1,0,0:0:0:0:
352,52,22692,2,0,P|396:54|441:59,1,90,2|0,0:0|0:0,0:0:0:0:
132,104,22992,1,8,0:0:0:0:
296,192,23142,1,0,0:0:0:0:
188,16,23292,5,6,0:0:0:0:
156,212,23442,2,0,P|153:256|149:301,1,90,0|12,0:0|0:0,0:0:0:0:
0,64,23742,2,0,P|4:104|8:160,1,90,0|2,0:0|0:0,0:0:0:0:
24,320,24042,1,2,0:0:0:0:
132,104,24192,2,0,B|200:80|200:128|288:92,1,135,12|0,0:0|0:0,0:0:0:0:
340,72,24492,6,0,P|342:116|346:161,1,90,6|0,0:0|0:0,0:0:0:0:
500,24,24792,2,0,P|496:80|492:144,1,90,8|0,0:0|0:0,0:0:0:0:
264,100,25092,2,0,P|266:144|270:189,1,90,2|0,0:0|0:0,0:0:0:0:
424,72,25392,2,0,P|420:128|416:192,1,90,8|0,0:0|0:0,0:0:0:0:
258,10,25692,5,2,0:0:0:0:
424,72,25842,1,0,0:0:0:0:
180,112,25992,1,8,0:0:0:0:
344,56,26142,2,0,P|348:96|352:160,1,90,0|2,0:0|0:0,0:0:0:0:
244,316,26442,2,0,P|246:271|251:226,1,90,2|8,0:0|0:0,0:0:0:0:
360,348,26742,1,0,0:0:0:0:
144,312,26892,6,0,P|112:308|40:304,1,90,6|0,0:0|0:0,0:0:0:0:
284,208,27192,2,0,P|328:205|373:200,1,90,8|0,0:0|0:0,0:0:0:0:
132,124,27492,6,0,P|136:168|138:213,1,90,6|0,0:0|0:0,0:0:0:0:
256,384,27792,2,0,P|261:339|267:294,1,90,8|0,0:0|0:0,0:0:0:0:
292,88,28092,5,6,0:0:0:0:
408,232,28242,1,8,0:0:0:0:
408,232,28317,1,8,0:0:0:0:
408,232,28392,2,0,P|356:224|300:220,1,90,8|8,0:0|0:0,0:0:0:0:
512,332,28692,5,8,0:0:0:0:
444,124,28842,1,2,0:0:0:0:
344,340,28992,5,8,0:0:0:0:
512,220,29142,1,8,0:0:0:0:
236,216,29292,6,0,P|152:220|40:224,1,180,6|8,0:0|0:0,0:0:0:0:
202,91,29742,2,0,L|302:87,1,90,0|2,0:0|0:0,0:0:0:0:
496,68,30042,1,2,0:0:0:0:
320,172,30192,1,8,0:0:0:0:
412,8,30342,1,0,0:0:0:0:
416,264,30492,6,0,P|352:256|224:248,1,180,6|8,0:0|0:0,0:0:0:0:
28,172,30942,2,0,P|68:172|136:168,1,90,0|2,0:0|0:0,0:0:0:0:
304,88,31242,1,2,0:0:0:0:
236,248,31392,1,8,0:0:0:0:
188,64,31542,1,0,0:0:0:0:
408,176,31692,6,0,P|363:175|318:171,1,90,6|0,0:0|0:0,0:0:0:0:
64,252,31992,2,0,P|108:248|153:247,1,90,8|0,0:0|0:0,0:0:0:0:
416,264,32292,6,0,P|371:263|326:259,1,90,6|0,0:0|0:0,0:0:0:0:
84,164,32592,2,0,P|128:160|173:159,1,90,8|0,0:0|0:0,0:0:0:0:
332,348,32892,6,0,P|287:347|242:343,1,90,6|0,0:0|0:0,0:0:0:0:
400,176,33192,2,0,P|444:172|489:171,1,90,8|0,0:0|0:0,0:0:0:0:
184,252,33492,5,2,0:0:0:0:
324,100,33642,1,2,0:0:0:0:
242,343,33792,5,8,0:0:0:0:
216,104,33942,1,8,0:0:0:0:
456,220,34092,6,0,P|400:212|272:200,1,180,6|8,0:0|0:0,0:0:0:0:
484,44,34542,2,0,P|439:49|394:54,1,90,0|2,0:0|0:0,0:0:0:0:
132,112,34842,1,2,0:0:0:0:
332,128,34992,1,8,0:0:0:0:
196,24,35142,1,0,0:0:0:0:
136,256,35292,6,0,P|224:248|332:244,1,180,6|8,0:0|0:0,0:0:0:0:
508,360,35742,2,0,P|464:357|419:352,1,90,0|2,0:0|0:0,0:0:0:0:
216,332,36042,1,2,0:0:0:0:
308,168,36192,1,8,0:0:0:0:
324,376,36342,1,0,0:0:0:0:
172,212,36492,6,0,P|168:168|164:96,1,90,6|0,0:0|0:0,0:0:0:0:
396,84,36792,2,0,P|399:129|403:174,1,90,8|0,0:0|0:0,0:0:0:0:
76,208,37092,6,0,P|80:164|84:92,1,90,6|0,0:0|0:0,0:0:0:0:
316,204,37392,2,0,P|314:249|310:294,1,90,8|0,0:0|0:0,0:0:0:0:
289,7,37692,5,6,0:0:0:0:
213,211,37842,1,0,0:0:0:0:
213,211,37917,1,0,0:0:0:0:
213,211,37992,1,12,0:0:0:0:
405,103,38142,1,0,0:0:0:0:
169,87,38292,6,0,P|109:95|57:99,1,90,6|0,0:0|0:0,0:0:0:0:
317,235,38592,2,0,P|313:199|301:75,1,135,12|0,0:0|0:0,0:0:0:0:
289,7,38892,5,6,0:0:0:0:
204,108,48492,5,2,0:0:0:0:
204,108,48642,2,0,P|256:116|332:64,1,135.000005149842,0|0,0:0|0:0,0:0:0:0:
400,152,49092,2,0,P|392:192|388:248,2,67.5000025749208,2|0|8,0:0|0:0|0:0,0:0:0:0:
324,75,49542,1,0,0:0:0:0:
232,212,49692,6,0,P|264:208|328:204,1,67.5000025749208,2|0,0:0|0:0,0:0:0:0:
136,264,49992,1,8,0:0:0:0:
136,264,50142,2,0,P|140:200|144:116,1,135.000005149842,0|0,0:0|0:0,0:0:0:0:
200,40,50592,1,8,0:0:0:0:
200,40,50742,1,2,0:0:0:0:
260,168,50892,6,0,P|292:164|344:160,1,67.5000025749208,2|0,0:0|0:0,0:0:0:0:
384,304,51192,2,0,P|364:278|335:235,1,67.5000025749208,8|0,0:0|0:0,0:0:0:0:
440,132,51492,1,2,0:0:0:0:
440,132,51642,2,0,P|427:161|404:208,1,67.5000025749208,0|8,0:0|0:0,0:0:0:0:
264,312,51942,5,0,0:0:0:0:
264,312,52092,2,0,P|216:284|128:296,1,135.000005149842,2|8,0:0|0:0,0:0:0:0:
0,144,52692,2,0,P|65:152|124:122,1,135.000005149842,2|10,0:0|0:0,0:0:0:0:
196,60,53142,1,2,0:0:0:0:
216,200,53292,6,0,P|212:248|212:296,1,67.5000025749208,2|0,0:0|0:0,0:0:0:0:
300,368,53592,2,0,P|298:334|295:300,1,67.5000025749208,8|0,0:0|0:0,0:0:0:0:
120,224,53892,2,0,P|124:280|128:380,1,135.000005149842,2|8,0:0|0:0,0:0:0:0:
240,92,54492,6,0,P|296:68|380:92,1,135.000005149842,2|8,0:0|0:0,0:0:0:0:
448,156,54942,2,0,P|444:208|440:308,1,135.000005149842,0|0,0:0|0:0,0:0:0:0:
376,372,55392,1,8,0:0:0:0:
376,372,55542,1,0,0:0:0:0:
328,232,55692,6,0,P|332:184|336:136,1,67.5000025749208,2|0,0:0|0:0,0:0:0:0:
248,52,55992,2,0,P|252:100|256:148,1,67.5000025749208,8|0,0:0|0:0,0:0:0:0:
224,216,56292,2,0,P|160:188|92:224,1,135.000005149842,2|8,0:0|0:0,0:0:0:0:
52,292,56742,1,0,0:0:0:0:
64,116,56892,6,0,P|64:80|60:40,3,45,8|8|8|8,0:0|0:0|0:0|0:0,0:0:0:0:
188,28,57192,2,0,P|187:50|187:72,3,45,8|8|8|8,0:0|0:0|0:0|0:0,0:0:0:0:
240,232,57492,1,2,0:0:0:0:
282,243,57567,1,2,0:0:0:0:
324,228,57642,1,2,0:0:0:0:
349,191,57717,1,2,0:0:0:0:
348,147,57792,2,2,P|348:116|352:84,1,45,2|0,0:1|0:0,0:0:0:0:
80,288,58092,6,0,P|84:332|88:400,1,90,6|0,0:3|0:0,0:0:0:0:
180,162,58392,2,0,P|182:117|186:72,1,90,8|0,0:0|0:0,0:0:0:0:
200,316,58692,1,2,0:0:0:0:
88,156,58842,1,2,0:0:0:0:
312,236,58992,2,0,P|308:280|304:348,1,90,8|0,0:0|0:0,0:0:0:0:
328,72,59292,5,2,0:0:0:0:
412,236,59442,1,0,0:0:0:0:
420,24,59592,1,8,0:0:0:0:
268,140,59742,1,0,0:0:0:0:
504,128,59892,2,0,P|500:172|496:256,1,90,2|0,0:0|0:0,0:0:0:0:
305,325,60192,1,8,0:0:0:0:
368,144,60342,1,0,0:0:0:0:
416,340,60492,5,2,0:0:0:0:
264,232,60642,2,0,P|208:228|144:232,1,90,0|8,0:0|0:0,0:0:0:0:
432,356,60942,1,0,0:0:0:0:
368,144,61092,2,0,P|312:140|248:144,1,90,2|0,0:0|0:0,0:0:0:0:
76,176,61392,1,8,0:0:0:0:
172,36,61542,1,0,0:0:0:0:
174,228,61692,5,6,0:0:0:0:
0,88,61842,2,0,P|40:84|104:80,1,90,0|12,0:0|0:0,0:0:0:0:
278,140,62142,2,0,P|233:137|188:132,1,90,0|2,0:0|0:0,0:0:0:0:
380,48,62442,1,2,0:0:0:0:
348,260,62592,2,0,P|300:228|208:236,1,135,12|0,0:0|0:0,0:0:0:0:
152,268,62892,6,0,P|156:316|160:380,1,90,6|0,0:0|0:0,0:0:0:0:
354,170,63192,2,0,P|350:218|346:282,1,90,8|0,0:0|0:0,0:0:0:0:
56,204,63492,2,0,P|60:252|64:316,1,90,2|0,0:0|0:0,0:0:0:0:
258,106,63792,2,0,P|254:154|250:218,1,90,8|0,0:0|0:0,0:0:0:0:
88,68,64092,5,2,0:0:0:0:
144,216,64242,1,0,0:0:0:0:
200,24,64392,1,8,0:0:0:0:
8,156,64542,2,0,P|60:148|116:144,1,90,0|2,0:0|0:0,0:0:0:0:
348,192,64842,1,2,0:0:0:0:
224,168,64992,1,8,0:0:0:0:
444,136,65142,1,0,0:0:0:0:
252,276,65292,6,0,P|208:272|136:272,1,90,6|0,0:0|0:0,0:0:0:0:
416,352,65592,2,0,P|460:351|505:347,1,90,8|0,0:0|0:0,0:0:0:0:
216,360,65892,6,0,P|172:356|100:356,1,90,6|0,0:0|0:0,0:0:0:0:
420,272,66192,2,0,P|464:271|509:267,1,90,8|0,0:0|0:0,0:0:0:0:
216,168,66492,5,6,0:0:0:0:
312,368,66642,1,8,0:0:0:0:
312,368,66717,1,8,0:0:0:0:
312,368,66792,2,0,P|316:324|324:268,1,90,8|8,0:0|0:0,0:0:0:0:
380,80,67092,5,8,0:0:0:0:
420,272,67242,1,2,0:0:0:0:
272,96,67392,5,8,0:0:0:0:
496,184,67542,1,8,0:0:0:0:
208,208,67692,6,0,P|160:168|20:192,1,180,6|8,0:0|0:0,0:0:0:0:
0,36,68142,2,0,P|40:40|112:44,1,90,0|2,0:0|0:0,0:0:0:0:
272,96,68442,1,2,0:0:0:0:
100,136,68592,1,8,0:0:0:0:
268,12,68742,1,0,0:0:0:0:
200,248,68892,6,0,P|120:240|0:232,1,180,6|8,0:0|0:0,0:0:0:0:
208,368,69342,2,0,P|252:364|312:360,1,90,0|2,0:0|0:0,0:0:0:0:
20,308,69642,1,2,0:0:0:0:
200,248,69792,1,8,0:0:0:0:
64,384,69942,1,0,0:0:0:0:
120,164,70092,6,0,P|120:124|116:72,1,90,6|0,0:0|0:0,0:0:0:0:
299,166,70392,2,0,P|296:211|296:256,1,90,8|0,0:0|0:0,0:0:0:0:
40,228,70692,6,0,P|40:188|36:136,1,90,6|0,0:0|0:0,0:0:0:0:
227,38,70992,2,0,P|224:83|224:128,1,90,8|0,0:0|0:0,0:0:0:0:
124,344,71292,6,0,P|124:304|120:252,1,90,6|0,0:0|0:0,0:0:0:0:
384,128,71592,2,0,P|384:172|387:217,1,90,8|0,0:0|0:0,0:0:0:0:
144,128,71892,5,2,0:0:0:0:
396,36,72042,1,2,0:0:0:0:
104,20,72192,5,8,0:0:0:0:
384,128,72342,1,8,0:0:0:0:
28,148,72492,6,0,P|32:204|40:332,1,180,6|8,0:0|0:0,0:0:0:0:
188,196,72942,2,0,P|240:188|296:188,1,90,0|2,0:0|0:0,0:0:0:0:
448,232,73242,1,2,0:0:0:0:
264,284,73392,1,8,0:0:0:0:
384,128,73542,1,0,0:0:0:0:
420,368,73692,6,0,P|344:364|228:360,1,180,6|8,0:0|0:0,0:0:0:0:
0,280,74142,2,0,P|56:280|128:276,1,90,0|2,0:0|0:0,0:0:0:0:
264,284,74442,1,2,0:0:0:0:
124,164,74592,1,8,0:0:0:0:
160,376,74742,1,0,0:0:0:0:
256,128,74892,6,0,P|304:132|368:136,1,90,6|0,0:0|0:0,0:0:0:0:
512,296,75192,2,0,P|464:292|400:288,1,90,8|0,0:0|0:0,0:0:0:0:
120,216,75492,6,0,P|168:220|232:224,1,90,6|0,0:0|0:0,0:0:0:0:
376,384,75792,2,0,P|328:380|264:376,1,90,8|0,0:0|0:0,0:0:0:0:
359,121,76092,6,0,P|355:181|351:289,1,135,6|0,0:0|0:0,0:0:0:0:
440,88,76392,2,0,P|400:44|309:45,1,135,12|0,0:0|0:0,0:0:0:0:
168,128,76692,2,0,P|216:152|220:72,1,135,6|0,0:0|0:0,0:0:0:0:
72,48,76992,2,0,B|88:92|88:92|80:220,1,135,12|0,0:0|0:0,0:0:0:0:
24,260,77292,5,6,0:0:0:0:
200,232,77442,1,0,0:0:0:0:
200,232,77517,1,0,0:0:0:0:
200,232,77592,2,0,P|248:224|312:220,1,90,2|2,0:0|0:0,0:0:0:0:
120,296,77892,2,0,B|48:160|200:160|108:12,1,270,8|0,0:0|0:0,0:0:0:0:
40,104,78492,5,2,0:0:0:0:
216,152,78642,1,8,0:0:0:0:
216,152,78717,1,0,0:0:0:0:
216,152,78792,2,0,P|224:104|216:48,1,90,2|2,0:0|0:0,0:0:0:0:
128,236,79092,2,0,P|137:328|292:292,1,270,8|0,0:0|0:0,0:0:0:0:
206,274,79692,5,2,0:0:0:0:
28,252,79842,1,8,0:0:0:0:
28,252,79917,1,0,0:0:0:0:
28,252,79992,2,0,P|29:292|48:358,1,90,2|2,0:0|0:0,0:0:0:0:
120,120,80292,2,0,B|184:96|248:148|248:148|292:88|384:96,1,270,8|0,0:0|0:0,0:0:0:0:
344,204,80892,5,2,0:0:0:0:
