osu file format v14

[General]
AudioFilename: audio.mp3
AudioLeadIn: 0
PreviewTime: 58017
Countdown: 0
SampleSet: Soft
StackLeniency: 0.2
Mode: 0
LetterboxInBreaks: 0
WidescreenStoryboard: 1

[Editor]
Bookmarks: 29877,31077,34677,35877,49377,68277,69477,73077,74277
DistanceSpacing: 0.8
BeatDivisor: 8
GridSize: 32
TimelineZoom: 3.900004

[Metadata]
Title:oyasumi
TitleUnicode:oyasumi
Artist:Shiggy Jr.
ArtistUnicode:Shiggy Jr.
Creator:bite you death
Version:ex
Source:
Tags:listen to the music jpop japanese pop おやすみ tomoko ikeda 池田 智子 shigeyuki harada 原田 茂幸 natsuhiko mori 森 夏彦 kazma moroishi 諸石 和馬 ohwow hazu- searasp hos hootowlstar walshy byd
BeatmapID:1431582
BeatmapSetID:665057

[Difficulty]
HPDrainRate:6
CircleSize:4.2
OverallDifficulty:9.2
ApproachRate:9.6
SliderMultiplier:2
SliderTickRate:1

[Events]
//Background and Video events
0,0,"starstorm.png",0,0
//Break Periods
2,10292,11683
2,12692,14083
2,15242,16783
2,39092,47983
//Storyboard Layer 0 (Background)
//Storyboard Layer 1 (Fail)
//Storyboard Layer 2 (Pass)
//Storyboard Layer 3 (Foreground)
//Storyboard Sound Samples

[TimingPoints]
492,300,4,2,1,60,1,0
492,-125,4,2,1,60,0,0
1017,-125,4,2,1,5,0,0
1092,-125,4,2,1,60,0,0
2817,-125,4,2,1,5,0,0
2892,-125,4,2,1,60,0,0
3417,-125,4,2,1,5,0,0
3492,-125,4,2,1,60,0,0
4167,-125,4,2,1,5,0,0
4242,-125,4,2,1,60,0,0
4917,-125,4,2,1,5,0,0
4992,-125,4,2,1,60,0,0
7017,-125,4,2,1,5,0,0
7092,-125,4,2,1,60,0,0
8967,-125,4,2,1,5,0,0
9042,-125,4,2,1,60,0,0
9717,-125,4,2,1,5,0,0
9792,-125,4,2,1,60,0,0
18492,-100,4,2,1,50,0,0
19392,-200,4,2,1,50,0,0
19467,-200,4,2,1,5,0,0
19692,-83.3333333333333,4,2,1,80,0,1
20517,-83.3333333333333,4,2,1,5,0,1
20592,-83.3333333333333,4,2,1,80,0,1
21717,-83.3333333333333,4,2,1,5,0,1
21792,-83.3333333333333,4,2,1,80,0,1
21867,-83.3333333333333,4,2,1,5,0,1
21942,-83.3333333333333,4,2,1,80,0,1
24192,-200,4,2,1,80,0,1
24417,-200,4,2,1,5,0,1
24492,-83.3333333333333,4,2,1,80,0,1
24717,-83.3333333333333,4,2,1,5,0,1
24792,-83.3333333333333,4,2,1,80,0,1
25017,-83.3333333333333,4,2,1,5,0,1
25092,-83.3333333333333,4,2,1,80,0,1
25317,-83.3333333333333,4,2,1,5,0,1
25392,-66.6666666666667,4,2,1,80,0,1
25617,-66.6666666666667,4,2,1,5,0,1
25692,-83.3333333333333,4,2,1,80,0,1
26367,-83.3333333333333,4,2,1,5,0,1
26442,-83.3333333333333,4,2,1,80,0,1
27117,-83.3333333333333,4,2,1,5,0,1
27192,-83.3333333333333,4,2,1,80,0,1
27417,-83.3333333333333,4,2,1,5,0,1
27492,-83.3333333333333,4,2,1,80,0,1
27717,-83.3333333333333,4,2,1,5,0,1
27792,-83.3333333333333,4,2,1,80,0,1
28017,-83.3333333333333,4,2,1,5,0,1
28092,-83.3333333333333,4,2,1,80,0,1
29517,-83.3333333333333,4,2,1,5,0,1
29592,-83.3333333333333,4,2,1,80,0,1
30717,-83.3333333333333,4,2,1,5,0,1
30792,-83.3333333333333,4,2,1,80,0,1
31917,-83.3333333333333,4,2,1,5,0,1
31992,-83.3333333333333,4,2,1,80,0,1
32217,-83.3333333333333,4,2,1,5,0,1
32292,-83.3333333333333,4,2,1,80,0,1
32517,-83.3333333333333,4,2,1,5,0,1
32592,-83.3333333333333,4,2,1,80,0,1
32817,-83.3333333333333,4,2,1,5,0,1
32892,-83.3333333333333,4,2,1,80,0,1
34317,-83.3333333333333,4,2,1,5,0,1
34392,-83.3333333333333,4,2,1,80,0,1
35517,-83.3333333333333,4,2,1,5,0,1
35592,-83.3333333333333,4,2,1,80,0,1
36717,-83.3333333333333,4,2,1,5,0,1
36792,-83.3333333333333,4,2,1,80,0,1
37017,-83.3333333333333,4,2,1,5,0,1
37092,-83.3333333333333,4,2,1,80,0,1
37317,-83.3333333333333,4,2,1,5,0,1
37392,-83.3333333333333,4,2,1,80,0,1
37617,-83.3333333333333,4,2,1,5,0,1
37692,-76.9230769230769,4,2,1,80,0,1
37917,-76.9230769230769,4,2,1,5,0,1
37992,-71.4285714285714,4,2,1,80,0,1
38217,-71.4285714285714,4,2,1,5,0,1
38292,-66.6666666666667,4,2,1,80,0,1
38517,-66.6666666666667,4,2,1,5,0,1
38592,-58.8235294117647,4,2,1,80,0,1
38817,-58.8235294117647,4,2,1,5,0,1
38892,-100,4,2,1,70,0,0
48492,-125,4,2,1,70,0,0
54717,-125,4,2,1,5,0,0
54792,-125,4,2,1,70,0,0
56892,-100,4,2,1,50,0,0
57492,-83.3333333333333,4,2,1,50,0,0
57567,-83.3333333333333,4,2,1,40,0,0
57642,-83.3333333333333,4,2,1,30,0,0
57717,-83.3333333333333,4,2,1,20,0,0
57792,-83.3333333333333,4,2,1,30,0,0
57829,-83.3333333333333,4,2,1,5,0,0
58092,-83.3333333333333,4,2,1,80,0,1
58767,-83.3333333333333,4,2,1,5,0,1
58842,-83.3333333333333,4,2,1,80,0,1
58917,-83.3333333333333,4,2,1,5,0,1
58992,-83.3333333333333,4,2,1,80,0,1
60117,-83.3333333333333,4,2,1,5,0,1
60192,-83.3333333333333,4,2,1,80,0,1
62592,-200,4,2,1,80,0,1
62817,-200,4,2,1,5,0,1
62892,-83.3333333333333,4,2,1,80,0,1
63117,-83.3333333333333,4,2,1,5,0,1
63192,-83.3333333333333,4,2,1,80,0,1
63417,-83.3333333333333,4,2,1,5,0,1
63492,-83.3333333333333,4,2,1,80,0,1
63717,-83.3333333333333,4,2,1,5,0,1
63792,-66.6666666666667,4,2,1,80,0,1
64017,-66.6666666666667,4,2,1,5,0,1
64092,-83.3333333333333,4,2,1,80,0,1
64767,-83.3333333333333,4,2,1,5,0,1
64842,-83.3333333333333,4,2,1,80,0,1
65517,-83.3333333333333,4,2,1,5,0,1
65592,-83.3333333333333,4,2,1,80,0,1
65817,-83.3333333333333,4,2,1,5,0,1
65892,-83.3333333333333,4,2,1,80,0,1
66117,-83.3333333333333,4,2,1,5,0,1
66192,-83.3333333333333,4,2,1,80,0,1
66417,-83.3333333333333,4,2,1,5,0,1
66492,-83.3333333333333,4,2,1,80,0,1
67917,-83.3333333333333,4,2,1,5,0,1
67992,-83.3333333333333,4,2,1,80,0,1
69117,-83.3333333333333,4,2,1,5,0,1
69192,-83.3333333333333,4,2,1,80,0,1
70317,-83.3333333333333,4,2,1,5,0,1
70392,-83.3333333333333,4,2,1,80,0,1
70617,-83.3333333333333,4,2,1,5,0,1
70692,-83.3333333333333,4,2,1,80,0,1
70917,-83.3333333333333,4,2,1,5,0,1
70992,-83.3333333333333,4,2,1,80,0,1
71217,-83.3333333333333,4,2,1,5,0,1
71292,-83.3333333333333,4,2,1,80,0,1
72717,-83.3333333333333,4,2,1,5,0,1
72792,-83.3333333333333,4,2,1,80,0,1
73917,-83.3333333333333,4,2,1,5,0,1
73992,-83.3333333333333,4,2,1,80,0,1
75117,-83.3333333333333,4,2,1,5,0,1
75192,-83.3333333333333,4,2,1,80,0,1
75417,-83.3333333333333,4,2,1,5,0,1
75492,-83.3333333333333,4,2,1,80,0,1
75717,-83.3333333333333,4,2,1,5,0,1
75792,-83.3333333333333,4,2,1,80,0,1
76017,-83.3333333333333,4,2,1,5,0,1
76092,-76.9230769230769,4,2,1,80,0,1
76317,-76.9230769230769,4,2,1,5,0,1
76392,-71.4285714285714,4,2,1,80,0,1
76617,-71.4285714285714,4,2,1,5,0,1
76692,-66.6666666666667,4,2,1,80,0,1
76917,-66.6666666666667,4,2,1,5,0,1
76992,-58.8235294117647,4,2,1,80,0,1
77217,-58.8235294117647,4,2,1,5,0,1
77292,-125,4,2,1,60,0,0
81117,-125,4,2,1,30,0,0
81792,-125,4,2,0,30,0,0

[Colours]
Combo1 : 131,131,131
Combo2 : 137,12,15
Combo3 : 192,192,192
Combo4 : 74,74,149

[HitObjects]
178,287,492,5,0,0:0:0:0:
178,287,792,2,0,L|193:136,1,120,0|0,0:0|0:0,0:0:0:0:
233,102,1092,1,0,0:0:0:0:
103,211,1242,2,0,L|7:199,1,80,0|0,0:0|0:0,0:0:0:0:
155,366,1542,6,0,P|204:364|245:337,1,80,0|0,0:0|0:0,0:0:0:0:
321,217,1842,1,0,0:0:0:0:
321,217,1992,2,0,L|236:223,1,80,0|0,0:0|0:0,0:0:0:0:
396,273,2292,2,0,P|414:214|404:171,1,80,0|0,0:0|0:0,0:0:0:0:
321,24,2592,2,0,B|299:59|299:59|308:148,1,120,0|0,0:0|0:0,0:0:0:0:
321,217,2892,5,0,0:0:0:0:
321,217,3192,2,0,P|266:228|181:197,1,120,0|0,0:0|0:0,0:0:0:0:
147,141,3492,1,0,0:0:0:0:
33,267,3642,2,0,P|46:310|41:355,1,80
123,251,3942,6,0,P|115:208|170:127,1,120,0|0,0:0|0:0,0:0:0:0:
222,100,4242,1,0,0:0:0:0:
284,221,4392,2,0,L|179:210,1,80,0|0,0:0|0:0,0:0:0:0:
107,337,4692,2,0,L|236:323,1,120,0|0,0:0|0:0,0:0:0:0:
303,315,4992,1,0,0:0:0:0:
303,315,5142,1,0,0:0:0:0:
247,81,5292,5,2,0:0:0:0:
303,315,5592,1,8,0:0:0:0:
404,192,5742,1,0,0:0:0:0:
404,192,5892,2,0,L|316:199,1,80,2|2,0:0|0:0,0:0:0:0:
159,211,6192,1,8,0:0:0:0:
223,273,6342,6,0,P|248:205|189:126,1,160,0|0,0:0|0:0,0:0:0:0:
1,213,6792,2,0,B|55:216|55:216|84:206|84:206|133:209,1,120,8|0,0:0|0:0,0:0:0:0:
159,211,7092,1,2,0:0:0:0:
40,118,7242,1,2,0:0:0:0:
85,360,7392,2,0,B|103:321|103:321|95:269,1,80,8|0,0:0|0:0,0:0:0:0:
205,134,7692,5,2,0:0:0:0:
273,326,7842,1,0,0:0:0:0:
372,203,7992,2,0,L|274:196,1,80,8|0,0:0|0:0,0:0:0:0:
381,334,8292,1,2,0:0:0:0:
381,334,8442,2,0,L|479:327,1,80,2|8,0:0|0:0,0:0:0:0:
411,207,8742,6,0,L|281:196,1,120,0|0,0:0|0:0,0:0:0:0:
215,189,9042,1,0,0:0:0:0:
235,335,9192,2,0,P|252:286|240:238,1,80,8|0,0:0|0:0,0:0:0:0:
178,117,9492,2,0,P|143:156|156:244,1,120,2|0,0:0|0:0,0:0:0:0:
179,283,9792,1,8,0:0:0:0:
352,339,9942,1,0,0:0:0:0:
215,189,10092,5,2,0:0:0:0:
215,189,12192,5,10,0:0:0:0:
401,106,12342,1,2,0:0:0:0:
300,284,12492,1,2,0:0:0:0:
300,284,14592,5,10,0:0:0:0:
278,80,14742,1,2,0:0:0:0:
415,231,14892,1,2,0:0:0:0:
215,189,15042,1,2,0:0:0:0:
215,189,17292,5,2,0:0:0:0:
401,106,17442,1,2,0:0:0:0:
110,101,17742,5,2,0:0:0:0:
110,101,18492,5,8,0:0:0:0:
134,98,18567,1,8,0:0:0:0:
159,95,18642,1,8,0:0:0:0:
184,92,18717,1,8,0:0:0:0:
209,89,18792,6,0,L|200:144,1,50,2|0,0:0|0:0,0:0:0:0:
304,266,18942,1,8,0:0:0:0:
279,268,19017,1,8,0:0:0:0:
254,271,19092,6,0,L|263:216,1,50,2|0,0:0|0:0,0:0:0:0:
314,94,19242,1,8,0:0:0:0:
339,92,19317,1,8,0:0:0:0:
364,89,19392,6,0,L|351:170,1,75,2|0,0:0|0:0,0:0:0:0:
442,32,19692,6,0,B|457:159,1,119.999996337891,6|0,0:3|0:0,0:0:0:0:
387,346,19992,1,8,0:0:0:0:
462,181,20142,1,0,0:0:0:0:
238,238,20292,2,0,B|302:247|302:247|349:234|349:234|424:246,1,179.999994506836,2|0,0:0|0:0,0:0:0:0:
506,360,20592,2,0,L|371:343,1,119.999996337891,8|0,0:0|0:0,0:0:0:0:
284,130,20892,5,2,0:0:0:0:
163,351,21042,1,0,0:0:0:0:
183,110,21192,1,8,0:0:0:0:
288,321,21342,1,0,0:0:0:0:
95,190,21492,1,2,0:0:0:0:
343,124,21642,6,0,L|283:130,1,59.9999981689454,2|0,0:0|0:0,0:0:0:0:
95,190,21792,2,0,L|154:196,1,59.9999981689454,8|0,0:0|0:0,0:0:0:0:
311,212,21942,1,0,0:0:0:0:
61,263,22092,6,0,L|188:277,1,119.999996337891,2|0,0:0|0:0,0:0:0:0:
397,300,22392,1,8,0:0:0:0:
203,132,22542,1,0,0:0:0:0:
288,321,22692,2,0,B|319:276|319:276|310:204,1,119.999996337891,2|0,0:0|0:0,0:0:0:0:
243,36,22992,1,8,0:0:0:0:
95,190,23142,1,0,0:0:0:0:
412,185,23292,5,6,0:0:0:0:
144,50,23442,1,0,0:0:0:0:
466,108,23592,5,12,0:0:0:0:
170,200,23742,1,0,0:0:0:0:
505,193,23892,5,2,0:0:0:0:
316,48,24042,1,2,0:0:0:0:
315,251,24192,6,0,P|325:212|321:173,1,75,12|0,0:0|0:0,0:0:0:0:
323,78,24492,6,0,B|285:175|340:163|310:253,1,179.999994506836,6|0,0:0|0:0,0:0:0:0:
92,224,24792,2,0,B|228:210|228:210|202:232|188:277,1,179.999994506836,8|0,0:0|0:0,0:0:0:0:
49,301,25092,2,0,P|7:244|48:149,1,179.999994506836,2|0,0:0|0:0,0:0:0:0:
227,113,25392,2,0,B|171:68|70:75|70:75|116:87|144:174,1,225.000008583069,8|0,0:0|0:0,0:0:0:0:
228,210,25692,6,0,L|367:205,1,119.999996337891,2|0,0:0|0:0,0:0:0:0:
227,113,25992,1,8,0:0:0:0:
188,307,26142,2,0,L|371:300,1,179.999994506836,0|0,0:0|0:0,0:0:0:0:
457,296,26442,1,2,0:0:0:0:
367,94,26592,2,0,B|337:148|337:148|348:210,1,119.999996337891,8|0,0:0|0:0,0:0:0:0:
452,103,26892,6,0,P|430:36|291:51,1,179.999994506836,6|0,0:0|0:0,0:0:0:0:
238,79,27192,2,0,B|367:94|367:94|325:122,1,179.999994506836,8|0,0:0|0:0,0:0:0:0:
167,135,27492,2,0,B|126:67|176:13|176:13|146:43|90:46,1,209.999993591309,6|0,0:0|0:0,0:0:0:0:
132,205,27792,2,0,B|181:223|220:204|243:160|243:160|240:201|262:223,1,179.999994506836,8|0,0:0|0:0,0:0:0:0:
297,277,28092,5,6,0:0:0:0:
318,41,28242,1,8,0:0:0:0:
318,41,28317,1,8,0:0:0:0:
318,41,28392,1,8,0:0:0:0:
132,205,28542,1,8,0:0:0:0:
324,361,28692,5,8,0:0:0:0:
320,120,28842,1,2,0:0:0:0:
237,342,28992,5,8,0:0:0:0:
319,79,29142,1,8,0:0:0:0:
461,297,29292,6,0,B|377:318|371:252|272:287,1,179.999994506836,6|0,0:0|0:0,0:0:0:0:
208,334,29592,1,8,0:0:0:0:
228,123,29742,2,0,L|212:259,1,119.999996337891,0|2,0:0|0:0,0:0:0:0:
127,68,30042,5,2,0:0:0:0:
390,158,30192,1,8,0:0:0:0:
258,299,30342,1,0,0:0:0:0:
306,104,30492,6,0,L|281:317,1,179.999994506836,6|0,0:0|0:0,0:0:0:0:
274,373,30792,1,8,0:0:0:0:
217,172,30942,1,0,0:0:0:0:
351,330,31092,1,2,0:0:0:0:
139,317,31242,5,2,0:0:0:0:
371,243,31392,1,8,0:0:0:0:
187,186,31542,1,0,0:0:0:0:
351,330,31692,6,0,P|405:324|452:208,1,179.999994506836,6|0,0:0|0:0,0:0:0:0:
376,157,31992,2,0,B|310:147|310:147|372:245,1,179.999994506836,8|0,0:0|0:0,0:0:0:0:
427,91,32292,2,0,B|294:71|294:71|245:103,1,179.999994506836,6|0,0:0|0:0,0:0:0:0:
199,195,32592,2,0,P|134:174|174:83,1,179.999994506836,8|0,0:0|0:0,0:0:0:0:
256,96,32892,5,6,0:0:0:0:
351,330,33042,1,0,0:0:0:0:
351,60,33192,5,8,0:0:0:0:
266,293,33342,1,0,0:0:0:0:
162,71,33492,5,2,0:0:0:0:
414,145,33642,1,2,0:0:0:0:
250,195,33792,5,8,0:0:0:0:
441,136,33942,1,8,0:0:0:0:
174,248,34092,6,0,B|138:154|197:166|158:60,1,179.999994506836,6|0,0:0|0:0,0:0:0:0:
112,4,34392,1,8,0:0:0:0:
250,195,34542,2,0,L|383:187,1,119.999996337891,0|2,0:0|0:0,0:0:0:0:
509,263,34842,5,2,0:0:0:0:
357,93,34992,1,8,0:0:0:0:
339,269,35142,1,0,0:0:0:0:
447,64,35292,6,0,P|391:6|281:40,1,179.999994506836,6|0,0:0|0:0,0:0:0:0:
242,90,35592,1,8,0:0:0:0:
447,166,35742,1,0,0:0:0:0:
299,20,35892,1,2,0:0:0:0:
251,279,36042,5,2,0:0:0:0:
357,93,36192,1,8,0:0:0:0:
190,162,36342,1,0,0:0:0:0:
412,274,36492,6,0,B|536:283|536:283|485:230,1,179.999994506836,6|0,0:0|0:0,0:0:0:0:
359,201,36792,2,0,P|324:261|371:354,1,179.999994506836,8|0,0:0|0:0,0:0:0:0:
437,162,37092,2,0,B|392:119|392:119|246:131,1,179.999994506836,6|0,0:0|0:0,0:0:0:0:
90,192,37392,2,0,B|186:225|164:161|272:205,1,179.999994506836,8|0,0:0|0:0,0:0:0:0:
46,261,37692,6,0,P|8:193|85:107,1,194.999991073609,6|0,0:0|0:0,0:0:0:0:
208,279,37992,6,0,B|258:315|258:315|109:309,1,209.999993591309,12|0,0:0|0:0,0:0:0:0:
324,259,38292,6,0,B|364:325|316:377|316:377|354:347|417:361,1,225.000008583069,6|0,0:0|0:0,0:0:0:0:
380,180,38592,6,0,B|278:139|278:216|196:176|196:176|210:145|251:131,1,255.000004863739,12|0,0:0|0:0,0:0:0:0:
313,91,38892,5,6,0:0:0:0:
286,106,48492,5,2,0:0:0:0:
223,185,48642,2,0,P|287:207|376:152,1,160,0|0,0:0|0:0,0:0:0:0:
271,28,49092,2,0,L|287:109,1,80,2|0,0:0|0:0,0:0:0:0:
147,201,49392,2,0,P|147:167|175:122,1,80,8|0,0:0|0:0,0:0:0:0:
195,265,49692,6,0,P|157:279|98:267,1,80,2|0,0:0|0:0,0:0:0:0:
223,185,49992,1,8,0:0:0:0:
349,244,50142,2,0,B|259:227|293:280|193:264,1,160,0|0,0:0|0:0,0:0:0:0:
66,210,50592,1,8,0:0:0:0:
168,127,50742,1,2,0:0:0:0:
80,292,50892,6,0,P|33:284|-7:254,1,80,2|0,0:0|0:0,0:0:0:0:
59,130,51192,2,0,L|66:222,1,80,8|0,0:0|0:0,0:0:0:0:
113,52,51492,1,2,0:0:0:0:
168,127,51642,2,0,B|257:151|238:105|326:133,1,160,0|0,0:0|0:0,0:0:0:0:
413,186,52092,6,0,B|424:123|424:123|410:76|410:76|421:8,3,160,2|8|2|10,0:0|0:0|0:0|0:0,0:0:0:0:
325,132,53142,1,2,0:0:0:0:
381,257,53292,6,0,P|425:264|464:248,1,80,2|0,0:0|0:0,0:0:0:0:
325,132,53592,1,8,0:0:0:0:
282,248,53742,1,0,0:0:0:0:
245,144,53892,2,0,P|255:90|280:60,1,80,2|0,0:0|0:0,0:0:0:0:
404,139,54192,2,0,L|314:130,1,80,8|0,0:0|0:0,0:0:0:0:
457,69,54492,6,0,P|483:109|463:198,1,120,2|0,0:0|0:0,0:0:0:0:
452,210,54792,1,8,0:0:0:0:
375,292,54942,2,0,P|307:273|212:309,1,160,0|0,0:0|0:0,0:0:0:0:
148,191,55392,2,0,L|234:209,1,80,8|0,0:0|0:0,0:0:0:0:
52,270,55692,6,0,P|32:240|27:177,1,80,2|0,0:0|0:0,0:0:0:0:
154,66,55992,1,8,0:0:0:0:
223,299,56292,5,2,0:0:0:0:
77,115,56592,2,0,P|63:67|86:7,1,80,8|0,0:0|0:0,0:0:0:0:
286,73,56892,6,0,L|335:69,1,50,8|8,0:0|0:0,0:0:0:0:
253,145,57042,2,0,L|203:141,1,50,8|8,0:0|0:0,0:0:0:0:
282,226,57192,5,8,0:0:0:0:
320,194,57267,1,8,0:0:0:0:
335,148,57342,1,8,0:0:0:0:
324,100,57417,1,8,0:0:0:0:
286,73,57492,5,2,0:0:0:0:
308,70,57567,1,2,0:0:0:0:
330,68,57642,1,2,0:0:0:0:
353,66,57717,1,2,0:0:0:0:
375,64,57792,6,0,L|417:74,1,29.9999990844727,2|0,0:1|0:0,0:0:0:0:
278,332,58092,6,0,B|215:344|215:344|149:318,1,119.999996337891,6|0,0:3|0:0,0:0:0:0:
31,147,58392,1,8,0:0:0:0:
223,250,58542,1,0,0:0:0:0:
54,322,58692,1,2,0:0:0:0:
257,240,58842,1,2,0:0:0:0:
149,74,58992,2,0,L|143:219,1,119.999996337891,8|0,0:0|0:0,0:0:0:0:
380,295,59292,5,2,0:0:0:0:
144,274,59442,1,0,0:0:0:0:
320,142,59592,1,8,0:0:0:0:
265,361,59742,1,0,0:0:0:0:
223,116,59892,2,0,P|272:53|400:78,1,179.999994506836,2|0,0:0|0:0,0:0:0:0:
441,96,60192,1,8,0:0:0:0:
380,295,60342,1,0,0:0:0:0:
287,183,60492,6,0,L|430:201,1,119.999996337891,2|0,0:0|0:0,0:0:0:0:
198,285,60792,1,8,0:0:0:0:
223,116,60942,1,0,0:0:0:0:
262,343,61092,2,0,P|203:368|148:355,1,119.999996337891,2|0,0:0|0:0,0:0:0:0:
110,106,61392,1,8,0:0:0:0:
280,258,61542,1,0,0:0:0:0:
297,17,61692,5,6,0:0:0:0:
198,285,61842,1,0,0:0:0:0:
97,0,61992,5,12,0:0:0:0:
194,253,62142,1,0,0:0:0:0:
306,43,62292,5,2,0:0:0:0:
189,221,62442,1,2,0:0:0:0:
380,295,62592,6,0,L|369:208,1,75,12|0,0:0|0:0,0:0:0:0:
242,126,62892,6,0,B|337:177|340:102|446:162,1,179.999994506836,6|0,0:0|0:0,0:0:0:0:
469,333,63192,2,0,B|338:318|338:318|391:288,1,179.999994506836,8|0,0:0|0:0,0:0:0:0:
481,92,63492,2,0,P|501:147|427:231,1,179.999994506836,2|0,0:0|0:0,0:0:0:0:
170,234,63792,2,0,B|139:206|134:180|134:180|167:184|183:201|183:201|215:228|250:234|292:211,1,225.000008583069,8|0,0:0|0:0,0:0:0:0:
350,174,64092,6,0,P|317:147|224:159,1,119.999996337891,2|0,0:0|0:0,0:0:0:0:
105,291,64392,1,8,0:0:0:0:
76,44,64542,2,0,B|48:109|48:109|72:221,1,179.999994506836
105,291,64842,1,2,0:0:0:0:
265,104,64992,2,0,L|137:113,1,119.999996337891,8|0,0:0|0:0,0:0:0:0:
333,170,65292,6,0,P|360:98|285:10,1,179.999994506836,6|0,0:0|0:0,0:0:0:0:
155,221,65592,2,0,B|289:236|289:236|267:219|259:200,1,179.999994506836,8|0,0:0|0:0,0:0:0:0:
122,140,65892,2,0,B|60:174|73:250|73:250|52:220|26:204,1,179.999994506836,6|0,0:0|0:0,0:0:0:0:
67,64,66192,2,0,B|138:58|138:58|178:77|178:77|270:73,1,179.999994506836,8|0,0:0|0:0,0:0:0:0:
352,70,66492,5,6,0:0:0:0:
304,309,66642,1,8,0:0:0:0:
304,309,66717,1,8,0:0:0:0:
304,309,66792,1,8,0:0:0:0:
242,74,66942,1,8,0:0:0:0:
159,303,67092,5,8,0:0:0:0:
346,227,67242,1,2,0:0:0:0:
132,216,67392,5,8,0:0:0:0:
396,304,67542,1,8,0:0:0:0:
68,286,67692,6,0,P|39:225|101:126,1,179.999994506836,6|0,0:0|0:0,0:0:0:0:
168,96,67992,1,8,0:0:0:0:
276,190,68142,2,0,L|101:171,1,119.999996337891,0|2,0:0|0:0,0:0:0:0:
352,70,68442,5,2,0:0:0:0:
344,288,68592,1,8,0:0:0:0:
221,146,68742,1,0,0:0:0:0:
429,23,68892,6,0,B|436:83|436:83|416:126|416:126|426:237,1,179.999994506836,6|0,0:0|0:0,0:0:0:0:
435,278,69192,1,8,0:0:0:0:
238,241,69342,2,0,L|363:250,1,119.999996337891,0|2,0:0|0:0,0:0:0:0:
120,322,69642,5,2,0:0:0:0:
168,96,69792,1,8,0:0:0:0:
332,234,69942,1,0,0:0:0:0:
100,158,70092,6,0,P|75:97|147:6,1,179.999994506836,6|0,0:0|0:0,0:0:0:0:
339,94,70392,2,0,B|278:121|278:121|167:95,1,179.999994506836,8|0,0:0|0:0,0:0:0:0:
382,13,70692,2,0,P|424:73|386:173,1,179.999994506836,6|0,0:0|0:0,0:0:0:0:
275,199,70992,2,0,L|93:156,1,179.999994506836,8|0,0:0|0:0,0:0:0:0:
25,101,71292,5,6,0:0:0:0:
268,39,71442,1,0,0:0:0:0:
74,254,71592,5,8,0:0:0:0:
317,114,71742,1,0,0:0:0:0:
317,114,71817,1,0,0:0:0:0:
317,114,71892,5,2,0:0:0:0:
213,331,72042,1,2,0:0:0:0:
220,129,72192,5,8,0:0:0:0:
356,252,72342,1,8,0:0:0:0:
415,43,72492,6,0,B|359:24|359:24|231:48,1,179.999994506836,6|0,0:0|0:0,0:0:0:0:
159,68,72792,1,8,0:0:0:0:
216,249,72942,2,0,L|221:120,1,119.999996337891,0|2,0:0|0:0,0:0:0:0:
113,332,73242,5,2,0:0:0:0:
339,222,73392,1,8,0:0:0:0:
133,154,73542,1,0,0:0:0:0:
403,315,73692,6,0,P|445:252|417:139,1,179.999994506836,6|0,0:0|0:0,0:0:0:0:
370,92,73992,1,8,0:0:0:0:
227,182,74142,2,0,L|360:171,1,119.999996337891,0|2,0:0|0:0,0:0:0:0:
159,68,74442,5,2,0:0:0:0:
229,339,74592,1,8,0:0:0:0:
346,172,74742,1,0,0:0:0:0:
104,273,74892,6,0,B|177:276|177:276|214:257|214:257|311:262,1,179.999994506836,6|0,0:0|0:0,0:0:0:0:
55,346,75192,2,0,P|18:291|66:193,1,179.999994506836,8|0,0:0|0:0,0:0:0:0:
227,182,75492,2,0,B|251:177|268:159|268:159|199:172|209:139|129:166,1,179.999994506836,6|0,0:0|0:0,0:0:0:0:
335,216,75792,2,0,B|370:156|331:96|331:96|355:111|408:112,1,179.999994506836,8|0,0:0|0:0,0:0:0:0:
398,293,76092,6,0,B|317:293|317:293|282:277|282:277|207:283,1,194.999991073609,6|0,0:0|0:0,0:0:0:0:
101,366,76392,6,0,P|125:302|27:322,1,209.999993591309,12|0,0:0|0:0,0:0:0:0:
223,352,76692,6,0,B|381:338|381:338|299:300,1,225.000008583069,6|0,0:0|0:0,0:0:0:0:
169,97,76992,6,0,B|154:200|250:254|250:254|228:210|251:157,1,255.000004863739,12|0,0:0|0:0,0:0:0:0:
284,71,77292,5,6,0:0:0:0:
320,211,77442,1,0,0:0:0:0:
320,211,77517,1,0,0:0:0:0:
320,211,77592,2,0,P|338:169|328:110,1,80,2|2,0:0|0:0,0:0:0:0:
198,284,77892,6,0,B|284:261|264:314|367:293,1,160,8|0,0:0|0:0,0:0:0:0:
256,156,78342,1,0,0:0:0:0:
91,244,78492,5,2,0:0:0:0:
205,363,78642,1,8,0:0:0:0:
205,363,78717,1,0,0:0:0:0:
205,363,78792,2,0,L|197:272,1,80,2|2,0:0|0:0,0:0:0:0:
63,162,79092,6,0,B|85:154|100:134|100:134|68:189|96:260,1,160,8|0,0:0|0:0,0:0:0:0:
36,88,79542,1,0,0:0:0:0:
194,195,79692,5,2,0:0:0:0:
254,82,79842,1,8,0:0:0:0:
254,82,79917,1,0,0:0:0:0:
254,82,79992,2,0,L|166:92,1,80,2|2,0:0|0:0,0:0:0:0:
293,218,80292,6,0,B|416:197|390:265|522:245|522:245|471:230|439:178,1,320,8|2,0:0|0:0,0:0:0:0:
