osu file format v14

[General]
AudioFilename: audio.mp3
AudioLeadIn: 0
PreviewTime: 58017
Countdown: 0
SampleSet: Soft
StackLeniency: 0.5
Mode: 0
LetterboxInBreaks: 0
WidescreenStoryboard: 0

[Editor]
Bookmarks: 22377,48450,56850,58050,80850
DistanceSpacing: 1
BeatDivisor: 8
GridSize: 32
TimelineZoom: 2.3

[Metadata]
Title:oyasumi
TitleUnicode:oyasumi
Artist:Shiggy Jr.
ArtistUnicode:Shiggy Jr.
Creator:bite you death
Version:easy
Source:
Tags:listen to the music jpop japanese pop おやすみ tomoko ikeda 池田 智子 shigeyuki harada 原田 茂幸 natsuhiko mori 森 夏彦 kazma moroishi 諸石 和馬 ohwow hazu- searasp hos hootowlstar walshy byd
BeatmapID:1408143
BeatmapSetID:665057

[Difficulty]
HPDrainRate:2
CircleSize:2.5
OverallDifficulty:2.5
ApproachRate:3.5
SliderMultiplier:0.9
SliderTickRate:1

[Events]
//Background and Video events
0,0,"starstorm.png",0,0
//Break Periods
2,10292,17112
2,48692,55512
//Storyboard Layer 0 (Background)
//Storyboard Layer 1 (Fail)
//Storyboard Layer 2 (Pass)
//Storyboard Layer 3 (Foreground)
//Storyboard Sound Samples

[TimingPoints]
492,300,4,2,1,60,1,0
492,-100,4,2,1,60,0,0
18492,-100,4,2,1,50,0,0
19692,-100,4,2,1,80,0,1
38892,-100,4,2,1,70,0,0
56892,-100,4,2,1,50,0,0
58092,-100,4,2,1,80,0,1
77292,-100,4,2,1,60,0,0

[Colours]
Combo1 : 131,131,131
Combo2 : 137,12,15
Combo3 : 192,192,192
Combo4 : 74,74,149

[HitObjects]
164,181,492,6,0,P|216:166|266:175,1,90,0|0,0:0|0:0,0:0:0:0:
319,228,1092,2,0,B|355:240|355:240|453:219,2,135,0|0|0,0:0|0:0|0:0,0:0:0:0:
251,169,2292,2,0,L|256:78,1,90,0|0,0:0|0:0,0:0:0:0:
166,70,2892,6,0,L|161:161,1,90,0|0,0:0|0:0,0:0:0:0:
193,244,3492,2,0,P|245:263|325:231,2,135,0|0|0,0:0|0:0|0:0,0:0:0:0:
108,275,4692,2,0,L|111:373,1,90,0|0,0:0|0:0,0:0:0:0:
20,357,5292,6,0,L|17:259,1,90,2|8,0:0|0:0,0:0:0:0:
51,183,5892,2,0,B|76:161|110:154|110:154|136:170|186:172,1,135,2|0,0:0|0:0,0:0:0:0:
291,101,6792,1,8,0:0:0:0:
351,167,7092,2,0,L|450:163,1,90,2|8,0:0|0:0,0:0:0:0:
505,225,7692,6,0,P|513:267|503:321,1,90,2|8,0:0|0:0,0:0:0:0:
430,362,8292,2,0,B|380:374|380:374|294:353,1,135,2|0,0:0|0:0,0:0:0:0:
211,251,9192,1,8,0:0:0:0:
140,306,9492,2,0,P|125:223|194:162,1,180,2|2,0:0|0:0,0:0:0:0:
112,267,18492,6,0,B|162:276|202:255|202:255|232:275|232:275|273:248|313:260|313:260|342:289|377:290,1,270,8|0,0:0|0:0,0:0:0:0:
448,266,19692,6,0,P|471:215|467:163,1,90,6|8,0:3|0:0,0:0:0:0:
382,204,20292,2,0,P|359:153|363:101,1,90,2|8,0:0|0:0,0:0:0:0:
407,44,20892,2,0,B|316:7|314:75|220:41,1,180,2|2,0:0|0:0,0:0:0:0:
148,78,21792,1,8,0:0:0:0:
84,142,22092,6,0,B|71:188|71:188|91:241,1,90,2|8,0:0|0:0,0:0:0:0:
167,188,22692,2,0,B|180:234|180:234|160:287,1,90,2|8,0:0|0:0,0:0:0:0:
104,339,23292,2,0,B|138:365|170:373|222:346|222:346|259:341|286:355,1,180,6|2,0:0|0:0,0:0:0:0:
353,305,24192,1,12,0:0:0:0:
416,241,24492,6,0,L|411:143,1,90,6|8,0:0|0:0,0:0:0:0:
340,95,25092,2,0,P|279:81|238:91,1,90,2|8,0:0|0:0,0:0:0:0:
178,136,25692,2,0,B|117:141|68:111|68:111|88:137|84:177,1,180,2|2,0:0|0:0,0:0:0:0:
39,250,26592,1,8,0:0:0:0:
112,302,26892,6,0,L|204:298,1,90,6|8,0:0|0:0,0:0:0:0:
280,342,27492,2,0,L|372:346,1,90,6|8,0:0|0:0,0:0:0:0:
445,297,28092,2,0,P|460:256|448:192,1,90,6|8,0:0|0:0,0:0:0:0:
371,242,28692,2,0,P|356:201|368:137,1,90,10|8,0:0|0:0,0:0:0:0:
433,102,29292,6,0,P|389:72|297:90,2,135,6|0|8,0:0|0:0|0:0,0:0:0:0:
360,155,30492,2,0,P|302:168|231:119,2,135,6|0|8,0:0|0:0|0:0,0:0:0:0:
433,102,31692,6,0,P|449:154|438:202,1,90,6|8,0:0|0:0,0:0:0:0:
386,257,32292,2,0,P|370:309|381:357,1,90,6|8,0:0|0:0,0:0:0:0:
292,377,32892,2,0,L|191:372,1,90,6|8,0:0|0:0,0:0:0:0:
182,284,33492,2,0,L|283:289,1,90,2|8,0:0|0:0,0:0:0:0:
338,228,34092,6,0,B|402:203|405:248|477:221,2,135,6|0|8,0:0|0:0|0:0,0:0:0:0:
256,186,35292,2,0,B|243:145|243:145|267:35,2,135,6|0|8,0:0|0:0|0:0,0:0:0:0:
197,254,36492,6,0,P|154:262|98:249,1,90,6|8,0:0|0:0,0:0:0:0:
49,186,37092,2,0,P|41:143|54:87,1,90,6|8,0:0|0:0,0:0:0:0:
131,61,37692,1,6,0:0:0:0:
199,119,37992,1,12,0:0:0:0:
218,206,38292,2,0,P|275:215|314:203,1,90,6|12,0:0|0:0,0:0:0:0:
381,158,38892,6,0,B|394:108|394:108|380:75|380:75|378:33|413:1|444:-1,2,180,6|8|2,0:0|0:0|0:0,0:0:0:0:
256,283,40692,2,0,L|160:276,1,90,8|0,0:0|0:0,0:0:0:0:
81,307,41292,6,0,P|86:231|178:186,1,180,6|8,0:0|0:0,0:0:0:0:
260,192,42192,1,0,0:0:0:0:
337,237,42492,2,0,P|379:247|434:235,1,90,2|0,0:0|0:0,0:0:0:0:
496,184,43092,2,0,L|491:77,1,90,8|0,0:0|0:0,0:0:0:0:
428,30,43692,6,0,B|340:0|339:55|239:35,2,180,6|8|2,0:0|0:0|0:0,0:0:0:0:
317,172,45492,2,0,L|218:175,1,90,8|0,0:0|0:0,0:0:0:0:
157,117,46092,6,0,B|136:165|136:165|146:209|146:209|127:250|134:301,1,180,6|8,0:0|0:0,0:0:0:0:
200,348,46992,1,0,0:0:0:0:
276,301,47292,2,0,P|318:293|380:304,1,90,2|8,0:0|0:0,0:0:0:0:
439,349,47892,2,0,P|454:289|441:249,1,90,2|8,0:0|0:0,0:0:0:0:
376,207,48492,5,2,0:0:0:0:
97,170,56892,6,0,B|216:157|216:157|251:173|251:173|376:164,1,270,8|2,0:0|0:0,0:0:0:0:
439,213,58092,6,0,B|454:261|454:261|443:319,1,90,6|8,0:3|0:0,0:0:0:0:
378,359,58692,2,0,P|336:367|283:355,1,90,2|8,0:0|0:0,0:0:0:0:
225,295,59292,1,2,0:0:0:0:
160,358,59592,2,0,P|116:366|72:358,1,90,8|2,0:0|0:0,0:0:0:0:
22,283,60192,1,8,0:0:0:0:
80,214,60492,6,0,B|92:173|71:119|71:119|80:76|129:41,1,180,2|2,0:0|0:0,0:0:0:0:
202,25,61392,1,8,0:0:0:0:
268,85,61692,2,0,B|316:106|354:81|354:81|402:105|455:78,1,180,6|2,0:0|0:0,0:0:0:0:
503,148,62592,1,12,0:0:0:0:
436,208,62892,6,0,L|442:303,1,90,6|8,0:0|0:0,0:0:0:0:
354,319,63492,2,0,L|348:224,1,90,2|8,0:0|0:0,0:0:0:0:
288,161,64092,2,0,B|195:131|195:190|95:155,1,180,2|2,0:0|0:0,0:0:0:0:
45,98,64992,1,8,0:0:0:0:
2,177,65292,6,0,P|-4:223|6:272,1,90,6|8,0:0|0:0,0:0:0:0:
73,323,65892,2,0,L|172:319,1,90,6|8,0:0|0:0,0:0:0:0:
234,264,66492,2,0,P|250:223|233:161,1,90,6|8,0:0|0:0,0:0:0:0:
159,213,67092,2,0,P|143:172|160:110,1,90,10|8,0:0|0:0,0:0:0:0:
212,62,67692,6,0,B|267:40|267:40|352:54,2,135,6|0|8,0:0|0:0|0:0,0:0:0:0:
149,127,68892,2,0,P|128:187|147:266,2,135,6|0|8,0:0|0:0|0:0,0:0:0:0:
212,62,70092,6,0,L|307:68,1,90,6|8,0:0|0:0,0:0:0:0:
339,149,70692,2,0,L|434:143,1,90,6|8,0:0|0:0,0:0:0:0:
502,91,71292,2,0,P|518:141|507:187,1,90,6|8,0:0|0:0,0:0:0:0:
442,234,71892,2,0,P|426:284|437:330,1,90,2|8,0:0|0:0,0:0:0:0:
356,368,72492,6,0,B|335:355|309:353|309:353|270:374|214:364,2,135,6|0|8,0:0|0:0|0:0,0:0:0:0:
432,319,73692,2,0,B|445:267|445:267|422:173,2,135,6|0|8,0:0|0:0|0:0,0:0:0:0:
356,368,74892,6,0,P|341:324|360:265,1,90,6|8,0:0|0:0,0:0:0:0:
280,224,75492,2,0,P|295:180|276:121,1,90,6|8,0:0|0:0,0:0:0:0:
219,77,76092,1,6,0:0:0:0:
132,50,76392,1,12,0:0:0:0:
72,117,76692,2,0,P|60:147|71:210,1,90,6|12,0:0|0:0,0:0:0:0:
256,192,77292,12,0,80892,0:0:0:0:
