osu file format v14

[General]
AudioFilename: audio.mp3
AudioLeadIn: 0
PreviewTime: 58017
Countdown: 0
SampleSet: Soft
StackLeniency: 0.5
Mode: 0
LetterboxInBreaks: 0
WidescreenStoryboard: 0

[Editor]
Bookmarks: 34377,48450,56850,58050,80850
DistanceSpacing: 1.2
BeatDivisor: 8
GridSize: 32
TimelineZoom: 3.900004

[Metadata]
Title:oyasumi
TitleUnicode:oyasumi
Artist:Shiggy Jr.
ArtistUnicode:Shiggy Jr.
Creator:bite you death
Version:hard
Source:
Tags:listen to the music jpop japanese pop おやすみ tomoko ikeda 池田 智子 shigeyuki harada 原田 茂幸 natsuhiko mori 森 夏彦 kazma moroishi 諸石 和馬 ohwow hazu- searasp hos hootowlstar walshy byd
BeatmapID:1407592
BeatmapSetID:665057

[Difficulty]
HPDrainRate:5
CircleSize:3.5
OverallDifficulty:6.5
ApproachRate:8
SliderMultiplier:1.3
SliderTickRate:1

[Events]
//Background and Video events
0,0,"starstorm.png",0,0
//Break Periods
2,10292,11442
2,12692,13842
2,15242,16542
2,39092,47742
//Storyboard Layer 0 (Background)
//Storyboard Layer 1 (Fail)
//Storyboard Layer 2 (Pass)
//Storyboard Layer 3 (Foreground)
//Storyboard Sound Samples

[TimingPoints]
492,300,4,2,1,60,1,0
492,-125,4,2,1,60,0,0
5292,-111.111111111111,4,2,1,60,0,0
18492,-100,4,2,1,50,0,0
19692,-83.3333333333333,4,2,1,80,0,1
38892,-111.111111111111,4,2,1,70,0,0
56892,-90.9090909090909,4,2,1,50,0,0
58092,-83.3333333333333,4,2,1,80,0,1
77292,-90.9090909090909,4,2,1,60,0,0

[Colours]
Combo1 : 131,131,131
Combo2 : 137,12,15
Combo3 : 192,192,192
Combo4 : 74,74,149

[HitObjects]
57,140,492,6,0,P|117:122|172:136,1,104,0|0,0:0|0:0,0:0:0:0:
226,205,1092,2,0,L|215:278,2,52,0|0|0,0:0|0:0|0:0,0:0:0:0:
259,164,1542,6,0,B|312:144|312:144|363:165,1,104,0|0,0:0|0:0,0:0:0:0:
401,186,1992,1,0,0:0:0:0:
449,94,2292,2,0,L|441:29,2,52,0|0|0,0:0|0:0|0:0,0:0:0:0:
401,186,2892,6,0,P|388:247|404:298,1,104,0|0,0:0|0:0,0:0:0:0:
298,315,3492,2,0,L|311:248,2,52,0|0|0,0:0|0:0|0:0,0:0:0:0:
327,358,3942,6,0,L|203:349,1,104,0|0,0:0|0:0,0:0:0:0:
171,343,4392,1,0,0:0:0:0:
115,254,4692,2,0,B|95:183|144:181|104:79,1,156,0|0,0:0|0:0,0:0:0:0:
77,53,5292,6,0,L|201:50,1,116.999996429443,2|8,0:0|0:0,0:0:0:0:
290,117,5892,2,0,P|292:153|285:179,2,58.4999982147217,2|2|8,0:0|0:0|0:0,0:0:0:0:
326,71,6342,6,0,P|377:51|449:70,1,116.999996429443,0|0,0:0|0:0,0:0:0:0:
480,101,6792,1,8,0:0:0:0:
387,172,7092,2,0,L|392:235,1,58.4999982147217,2|2,0:0|0:0,0:0:0:0:
426,277,7392,2,0,L|421:340,1,58.4999982147217,8|0,0:0|0:0,0:0:0:0:
379,376,7692,6,0,P|321:339|258:353,1,116.999996429443,2|8,0:0|0:0,0:0:0:0:
214,243,8292,2,0,L|287:257,2,58.4999982147217,2|2|8,0:0|0:0|0:0,0:0:0:0:
173,199,8742,6,0,P|162:134|194:84,1,116.999996429443,0|0,0:0|0:0,0:0:0:0:
233,57,9192,1,8,0:0:0:0:
289,159,9492,2,0,B|315:157|338:144|338:144|375:169|406:172|440:160|459:135|464:118,1,175.499994644165,2|0,0:0|0:0,0:0:0:0:
487,93,10092,5,2,0:0:0:0:
348,201,12192,6,0,P|340:235|342:269,2,58.4999982147217,10|2|2,0:0|0:0|0:0,0:0:0:0:
348,201,14592,6,0,L|425:187,1,58.4999982147217,10|2,0:0|0:0,0:0:0:0:
462,178,14892,1,2,0:0:0:0:
462,178,15042,1,2,0:0:0:0:
294,39,17292,6,0,P|290:68|297:103,1,58.4999982147217,2|2,0:0|0:0,0:0:0:0:
348,201,17742,1,2,0:0:0:0:
348,201,18492,6,0,P|350:235|345:261,3,32.5,8|8|8|8,0:0|0:0|0:0|0:0,0:0:0:0:
376,252,18792,6,0,P|374:286|379:312,3,32.5,2|0|8|8,0:0|0:0|0:0|0:0,0:0:0:0:
349,306,19092,6,0,P|351:340|346:366,3,32.5,2|0|8|8,0:0|0:0|0:0|0:0,0:0:0:0:
363,369,19392,5,2,0:0:0:0:
224,297,19692,6,0,L|142:302,1,77.999997619629,6|0,0:3|0:0,0:0:0:0:
65,254,19992,2,0,P|56:208|69:163,1,77.999997619629,8|0,0:0|0:0,0:0:0:0:
120,104,20292,2,0,B|146:80|177:71|177:71|221:92|283:75,1,155.999995239258,2|8,0:0|0:0,0:0:0:0:
346,32,20742,1,0,0:0:0:0:
412,97,20892,6,0,P|419:141|410:176,1,77.999997619629,2|0,0:0|0:0,0:0:0:0:
339,234,21192,2,0,P|332:278|346:314,1,77.999997619629,8|0,0:0|0:0,0:0:0:0:
420,360,21492,1,2,0:0:0:0:
427,267,21642,1,2,0:0:0:0:
342,308,21792,1,8,0:0:0:0:
266,363,21942,6,0,L|188:357,1,77.999997619629,0|2,0:0|0:0,0:0:0:0:
108,310,22242,2,0,P|92:241|138:171,1,155.999995239258,0|0,0:0|0:0,0:0:0:0:
222,139,22692,2,0,L|312:142,1,77.999997619629,2|0,0:0|0:0,0:0:0:0:
381,188,22992,1,8,0:0:0:0:
381,188,23142,1,0,0:0:0:0:
445,119,23292,6,0,P|452:78|444:39,1,77.999997619629,6|0,0:0|0:0,0:0:0:0:
337,63,23592,2,0,L|247:60,1,77.999997619629,12|0,0:0|0:0,0:0:0:0:
149,58,23892,1,2,0:0:0:0:
222,139,24042,1,2,0:0:0:0:
113,151,24192,1,12,0:0:0:0:
113,151,24492,6,0,B|83:198|83:198|99:313,1,155.999995239258,6|8,0:0|0:0,0:0:0:0:
171,355,24942,1,0,0:0:0:0:
233,285,25092,2,0,P|280:270|321:277,1,77.999997619629,2|0,0:0|0:0,0:0:0:0:
375,337,25392,2,0,P|422:352|463:345,1,77.999997619629,8|0,0:0|0:0,0:0:0:0:
499,270,25692,6,0,L|492:103,1,155.999995239258,2|8,0:0|0:0,0:0:0:0:
427,46,26142,1,0,0:0:0:0:
352,102,26292,2,0,P|310:106|270:93,1,77.999997619629,2|2,0:0|0:0,0:0:0:0:
210,32,26592,2,0,P|168:28|128:41,1,77.999997619629,8|0,0:0|0:0,0:0:0:0:
72,108,26892,6,0,B|45:181|45:181|75:273,1,155.999995239258,6|8,0:0|0:0,0:0:0:0:
126,329,27342,1,0,0:0:0:0:
193,263,27492,2,0,P|269:240|348:273,1,155.999995239258,6|8,0:0|0:0,0:0:0:0:
405,331,27942,1,0,0:0:0:0:
429,241,28092,5,6,0:0:0:0:
368,150,28242,2,0,L|375:94,2,38.9999988098145,8|8|8,0:0|0:0|0:0,0:0:0:0:
309,242,28542,1,8,0:0:0:0:
309,242,28692,1,8,0:0:0:0:
234,162,28842,1,2,0:0:0:0:
193,263,28992,2,0,L|97:254,1,77.999997619629,8|8,0:0|0:0,0:0:0:0:
47,320,29292,6,0,P|21:246|70:172,1,155.999995239258,6|8,0:0|0:0,0:0:0:0:
133,128,29742,2,0,P|175:118|220:128,1,77.999997619629,0|2,0:0|0:0,0:0:0:0:
281,182,30042,2,0,P|323:192|368:182,1,77.999997619629,2|8,0:0|0:0,0:0:0:0:
432,131,30342,1,0,0:0:0:0:
504,190,30492,6,0,B|516:235|516:235|485:342,1,155.999995239258,6|8,0:0|0:0,0:0:0:0:
401,381,30942,2,0,L|315:370,1,77.999997619629,0|2,0:0|0:0,0:0:0:0:
252,310,31242,2,0,L|174:319,1,77.999997619629,2|8,0:0|0:0,0:0:0:0:
89,358,31542,1,0,0:0:0:0:
27,287,31692,6,0,P|8:217|45:130,1,155.999995239258,6|8,0:0|0:0,0:0:0:0:
102,74,32142,1,0,0:0:0:0:
175,131,32292,2,0,P|252:150|333:120,1,155.999995239258,6|8,0:0|0:0,0:0:0:0:
398,71,32742,1,0,0:0:0:0:
467,134,32892,6,0,B|492:173|489:211|489:211|466:243|458:296,1,155.999995239258,6|8,0:0|0:0,0:0:0:0:
473,372,33342,1,0,0:0:0:0:
372,332,33492,2,0,L|281:338,1,77.999997619629,2|2,0:0|0:0,0:0:0:0:
247,237,33792,2,0,L|338:243,1,77.999997619629,8|8,0:0|0:0,0:0:0:0:
404,192,34092,6,0,P|425:113|383:37,1,155.999995239258,6|8,0:0|0:0,0:0:0:0:
313,1,34542,2,0,P|274:-3|229:8,1,77.999997619629,0|2,0:0|0:0,0:0:0:0:
177,78,34842,2,0,P|138:82|93:71,1,77.999997619629,2|8,0:0|0:0,0:0:0:0:
21,22,35142,1,0,0:0:0:0:
2,113,35292,6,0,P|5:188|12:281,1,155.999995239258,6|8,0:0|0:0,0:0:0:0:
76,335,35742,2,0,P|123:343|164:329,1,77.999997619629,0|2,0:0|0:0,0:0:0:0:
218,269,36042,2,0,P|265:261|306:275,1,77.999997619629,2|8,0:0|0:0,0:0:0:0:
368,326,36342,1,0,0:0:0:0:
441,268,36492,6,0,L|436:182,1,77.999997619629,6|0,0:0|0:0,0:0:0:0:
345,166,36792,2,0,L|350:80,1,77.999997619629,8|0,0:0|0:0,0:0:0:0:
293,13,37092,6,0,P|248:4|216:14,1,77.999997619629,6|0,0:0|0:0,0:0:0:0:
175,97,37392,2,0,P|130:106|98:96,1,77.999997619629,8|0,0:0|0:0,0:0:0:0:
19,22,37692,5,6,0:0:0:0:
74,233,37992,1,12,0:0:0:0:
286,184,38292,2,0,B|173:186|173:186|203:217,1,155.999995239258,6|12,0:0|0:0,0:0:0:0:
313,338,38892,5,6,0:0:0:0:
274,87,48492,6,0,L|272:149,1,58.4999982147217,2|0,0:0|0:0,0:0:0:0:
235,190,48792,2,0,L|237:252,1,58.4999982147217,8|0,0:0|0:0,0:0:0:0:
270,296,49092,2,0,P|305:302|336:296,1,58.4999982147217,2|0,0:0|0:0,0:0:0:0:
373,260,49392,2,0,P|408:254|439:260,1,58.4999982147217,8|0,0:0|0:0,0:0:0:0:
485,279,49692,6,0,L|472:152,1,116.999996429443,2|8,0:0|0:0,0:0:0:0:
443,112,50142,2,0,P|381:93|320:110,1,116.999996429443,0|0,0:0|0:0,0:0:0:0:
286,141,50592,2,0,L|209:137,1,58.4999982147217,8|2,0:0|0:0,0:0:0:0:
176,167,50892,6,0,P|167:208|172:240,1,58.4999982147217,2|0,0:0|0:0,0:0:0:0:
213,262,51192,2,0,P|222:303|217:335,1,58.4999982147217,8|0,0:0|0:0,0:0:0:0:
180,361,51492,2,0,P|119:331|50:347,1,116.999996429443,2|8,0:0|0:0,0:0:0:0:
17,358,51942,6,0,L|19:224,1,116.999996429443,0|0,0:0|0:0,0:0:0:0:
24,182,52392,1,8,0:0:0:0:
100,93,52692,1,2,0:0:0:0:
192,164,52992,2,0,L|270:158,1,58.4999982147217,10|2,0:0|0:0,0:0:0:0:
302,186,53292,6,0,P|308:218|303:257,1,58.4999982147217,2|0,0:0|0:0,0:0:0:0:
269,289,53592,2,0,P|263:321|268:360,1,58.4999982147217,8|0,0:0|0:0,0:0:0:0:
311,382,53892,2,0,L|381:379,1,58.4999982147217,2|0,0:0|0:0,0:0:0:0:
403,331,54192,2,0,L|473:334,1,58.4999982147217,8|0,0:0|0:0,0:0:0:0:
510,301,54492,6,0,B|526:263|526:263|511:170,1,116.999996429443,2|8,0:0|0:0,0:0:0:0:
491,134,54942,2,0,P|432:119|372:141,1,116.999996429443,0|0,0:0|0:0,0:0:0:0:
337,175,55392,2,0,P|305:183|259:171,1,58.4999982147217,8|0,0:0|0:0,0:0:0:0:
240,136,55692,6,0,P|208:128|162:140,1,58.4999982147217,2|0,0:0|0:0,0:0:0:0:
133,162,55992,1,8,0:0:0:0:
73,261,56292,2,0,P|130:279|199:259,1,116.999996429443,2|8,0:0|0:0,0:0:0:0:
234,235,56742,1,0,0:0:0:0:
302,286,56892,6,0,L|368:279,3,35.7500010910034,8|8|8|8,0:0|0:0|0:0|0:0,0:0:0:0:
368,312,57192,6,0,L|434:319,3,35.7500010910034,8|8|8|8,0:0|0:0|0:0|0:0,0:0:0:0:
429,281,57492,6,0,L|495:274,3,35.7500010910034,2|2|2|2,0:0|0:0|0:0|0:0,0:0:0:0:
504,293,57792,5,2,0:1:0:0:
362,170,58092,6,0,L|370:62,1,77.999997619629,6|0,0:3|0:0,0:0:0:0:
310,18,58392,2,0,P|270:6|224:12,1,77.999997619629,8|0,0:0|0:0,0:0:0:0:
158,64,58692,1,2,0:0:0:0:
70,31,58842,1,2,0:0:0:0:
85,123,58992,2,0,L|91:221,1,77.999997619629,8|0,0:0|0:0,0:0:0:0:
140,279,59292,6,0,P|184:290|227:278,1,77.999997619629,2|0,0:0|0:0,0:0:0:0:
292,229,59592,2,0,P|336:218|379:230,1,77.999997619629,8|0,0:0|0:0,0:0:0:0:
423,300,59892,2,0,L|414:134,1,155.999995239258,2|8,0:0|0:0,0:0:0:0:
358,69,60342,6,0,L|280:62,1,77.999997619629,0|2,0:0|0:0,0:0:0:0:
210,125,60642,2,0,L|132:131,1,77.999997619629,0|8,0:0|0:0,0:0:0:0:
71,60,60942,1,0,0:0:0:0:
1,121,61092,2,0,B|-18:164|-18:164|-2:276,1,155.999995239258,2|8,0:0|0:0,0:0:0:0:
69,332,61542,1,0,0:0:0:0:
153,262,61692,6,0,L|238:266,1,77.999997619629,6|0,0:0|0:0,0:0:0:0:
320,327,61992,2,0,L|405:323,1,77.999997619629,12|0,0:0|0:0,0:0:0:0:
478,249,62292,1,2,0:0:0:0:
373,215,62442,1,2,0:0:0:0:
454,141,62592,1,12,0:0:0:0:
454,141,62892,6,0,P|370:109|291:142,1,155.999995239258,6|8,0:0|0:0,0:0:0:0:
243,193,63342,1,0,0:0:0:0:
159,151,63492,2,0,L|63:156,1,77.999997619629,2|0,0:0|0:0,0:0:0:0:
59,246,63792,2,0,L|155:241,1,77.999997619629,8|0,0:0|0:0,0:0:0:0:
208,298,64092,6,0,P|285:278|361:305,1,155.999995239258,2|8,0:0|0:0,0:0:0:0:
429,358,64542,1,0,0:0:0:0:
483,281,64692,2,0,L|478:178,1,77.999997619629,2|2,0:0|0:0,0:0:0:0:
398,156,64992,2,0,L|403:53,1,77.999997619629,8|0,0:0|0:0,0:0:0:0:
341,6,65292,6,0,P|275:-6|190:29,1,155.999995239258,6|8,0:0|0:0,0:0:0:0:
135,98,65742,1,0,0:0:0:0:
85,177,65892,2,0,L|90:258,1,77.999997619629,6|0,0:0|0:0,0:0:0:0:
155,322,66192,2,0,P|199:330|245:317,1,77.999997619629,8|0,0:0|0:0,0:0:0:0:
306,268,66492,5,6,0:0:0:0:
291,159,66642,2,0,L|294:105,2,38.9999988098145,8|8|8,0:0|0:0|0:0,0:0:0:0:
192,206,66942,1,8,0:0:0:0:
192,206,67092,1,8,0:0:0:0:
138,110,67242,1,2,0:0:0:0:
217,35,67392,2,0,L|306:40,1,77.999997619629,8|8,0:0|0:0,0:0:0:0:
376,84,67692,6,0,P|407:131|384:257,1,155.999995239258,6|8,0:0|0:0,0:0:0:0:
339,297,68142,1,0,0:0:0:0:
259,346,68292,2,0,L|172:340,1,77.999997619629,2|2,0:0|0:0,0:0:0:0:
179,247,68592,2,0,L|266:253,1,77.999997619629,8|0,0:0|0:0,0:0:0:0:
339,297,68892,6,0,P|347:229|276:161,1,155.999995239258,6|8,0:0|0:0,0:0:0:0:
200,149,69342,1,0,0:0:0:0:
115,188,69492,2,0,P|95:236|100:288,1,77.999997619629,2|2,0:0|0:0,0:0:0:0:
154,334,69792,2,0,L|254:327,1,77.999997619629,8|0,0:0|0:0,0:0:0:0:
321,356,70092,6,0,P|390:319|467:340,1,155.999995239258,6|8,0:0|0:0,0:0:0:0:
506,253,70542,1,0,0:0:0:0:
454,174,70692,2,0,L|460:96,1,77.999997619629,6|0,0:0|0:0,0:0:0:0:
376,54,70992,2,0,L|369:131,1,77.999997619629,8|0,0:0|0:0,0:0:0:0:
324,232,71292,6,0,P|279:241|228:226,1,77.999997619629,6|0,0:0|0:0,0:0:0:0:
181,149,71592,2,0,P|136:140|85:155,1,77.999997619629,8|0,0:0|0:0,0:0:0:0:
31,227,71892,2,0,L|36:307,1,77.999997619629,2|2,0:0|0:0,0:0:0:0:
146,311,72192,2,0,L|141:231,1,77.999997619629,8|8,0:0|0:0,0:0:0:0:
181,149,72492,6,0,B|209:113|248:109|248:109|284:131|357:121,1,155.999995239258,6|8,0:0|0:0,0:0:0:0:
397,69,72942,1,0,0:0:0:0:
467,130,73092,2,0,L|460:216,1,77.999997619629,2|2,0:0|0:0,0:0:0:0:
395,275,73392,2,0,P|344:276|308:264,1,77.999997619629,8|0,0:0|0:0,0:0:0:0:
250,202,73692,6,0,B|191:189|191:189|81:210,1,155.999995239258,6|8,0:0|0:0,0:0:0:0:
29,273,74142,1,0,0:0:0:0:
5,182,74292,2,0,L|13:101,1,77.999997619629,2|2,0:0|0:0,0:0:0:0:
77,36,74592,2,0,P|119:26|164:34,1,77.999997619629,8|0,0:0|0:0,0:0:0:0:
231,82,74892,6,0,P|275:91|317:76,1,77.999997619629,6|0,0:0|0:0,0:0:0:0:
378,22,75192,2,0,P|422:13|464:28,1,77.999997619629,8|0,0:0|0:0,0:0:0:0:
499,103,75492,2,0,L|494:189,1,77.999997619629,6|0,0:0|0:0,0:0:0:0:
405,211,75792,2,0,L|410:297,1,77.999997619629,8|0,0:0|0:0,0:0:0:0:
336,370,76092,6,0,P|296:358|249:357,1,77.999997619629,6|0,0:0|0:0,0:0:0:0:
176,286,76392,2,0,P|136:298|89:299,1,77.999997619629,12|0,0:0|0:0,0:0:0:0:
21,223,76692,2,0,L|29:133,1,77.999997619629,6|0,0:0|0:0,0:0:0:0:
94,58,76992,2,0,P|143:46|198:67,1,77.999997619629,12|0,0:0|0:0,0:0:0:0:
232,109,77292,6,0,B|292:87|292:87|378:112,1,143.000004364014,6|2,0:0|0:0,0:0:0:0:
445,149,77742,1,2,0:0:0:0:
502,212,77892,2,0,P|424:231|369:187,1,143.000004364014,8|0,0:0|0:0,0:0:0:0:
297,167,78342,1,0,0:0:0:0:
232,226,78492,6,0,L|226:308,1,71.5000021820069,2|8,0:0|0:0,0:0:0:0:
144,322,78792,2,0,L|150:240,1,71.5000021820069,2|2,0:0|0:0,0:0:0:0:
167,166,79092,2,0,P|232:141|315:190,1,143.000004364014,8|0,0:0|0:0,0:0:0:0:
346,238,79542,1,0,0:0:0:0:
402,173,79692,6,0,L|398:68,1,71.5000021820069,2|8,0:0|0:0,0:0:0:0:
344,34,79992,2,0,P|302:29|266:43,1,71.5000021820069,2|2,0:0|0:0,0:0:0:0:
214,99,80292,2,0,B|169:121|169:121|51:103,1,143.000004364014,8|0,0:0|0:0,0:0:0:0:
21,40,80742,1,0,0:0:0:0:
105,22,80892,5,2,0:0:0:0:
