osu file format v14

[General]
AudioFilename: audio.mp3
AudioLeadIn: 0
PreviewTime: -1
Countdown: 0
SampleSet: None
StackLeniency: 0.2
Mode: 0
LetterboxInBreaks: 0
WidescreenStoryboard: 1

[Editor]
Bookmarks: 10092,18492,19692,48492,56892,58092,77292
DistanceSpacing: 0.8
BeatDivisor: 4
GridSize: 32
TimelineZoom: 2.799999

[Metadata]
Title:oyasumi
TitleUnicode:oyasumi
Artist:Shiggy Jr.
ArtistUnicode:Shiggy Jr.
Creator:Zaslvaski
Version:sandvich's extra.
Source:
Tags:
BeatmapID:1817985
BeatmapSetID:867089

[Difficulty]
HPDrainRate:4
CircleSize:3.7
OverallDifficulty:8
ApproachRate:9.3
SliderMultiplier:2.4
SliderTickRate:1

[Events]
//Background and Video events
0,0,"71252854_p0.jpg",0,0
//Break Periods
//Storyboard Layer 0 (Background)
//Storyboard Layer 1 (Fail)
//Storyboard Layer 2 (Pass)
//Storyboard Layer 3 (Foreground)
//Storyboard Sound Samples

[TimingPoints]
492,300,4,2,0,60,1,0
4692,-133.333333333333,4,2,0,60,0,0
5292,-100,4,2,0,60,0,0
9492,-133.333333333333,4,2,0,60,0,0
19692,-66.6666666666667,4,2,0,60,0,0
38892,-100,4,2,0,60,0,0
48492,-200,4,2,0,60,0,0
48792,-66.6666666666667,4,2,0,60,0,0
49092,-200,4,2,0,60,0,0
49392,-66.6666666666667,4,2,0,60,0,0
49692,-200,4,2,0,60,0,0
49992,-66.6666666666667,4,2,0,60,0,0
50292,-200,4,2,0,60,0,0
50592,-66.6666666666667,4,2,0,60,0,0
50892,-200,4,2,0,60,0,0
51192,-66.6666666666667,4,2,0,60,0,0
51492,-200,4,2,0,60,0,0
51792,-66.6666666666667,4,2,0,60,0,0
52092,-200,4,2,0,60,0,0
52392,-66.6666666666667,4,2,0,60,0,0
52692,-200,4,2,0,60,0,0
52992,-66.6666666666667,4,2,0,60,0,0
53292,-200,4,2,0,60,0,0
53592,-66.6666666666667,4,2,0,60,0,0
53892,-200,4,2,0,60,0,0
54192,-66.6666666666667,4,2,0,60,0,0
54492,-200,4,2,0,60,0,0
54792,-66.6666666666667,4,2,0,60,0,0
55092,-200,4,2,0,60,0,0
55392,-66.6666666666667,4,2,0,60,0,0
55692,-200,4,2,0,60,0,0
55992,-66.6666666666667,4,2,0,60,0,0
56292,-200,4,2,0,60,0,0
56592,-66.6666666666667,4,2,0,60,0,0
56892,-66.6666666666667,4,2,0,60,0,0
77292,-200,4,2,0,60,0,0

[Colours]
Combo1 : 131,131,131
Combo2 : 137,12,15
Combo3 : 0,255,64
Combo4 : 74,74,149

[HitObjects]
330,52,492,6,0,L|185:26,1,120
143,120,792,2,0,L|261:141,1,120
370,158,1092,1,0,0:0:0:0:
370,158,1242,1,0,0:0:0:0:
464,257,1542,6,0,P|420:216|359:230,1,120
276,297,1842,1,0,0:0:0:0:
276,297,1992,2,0,P|218:305|176:265,1,120
60,156,2292,2,0,L|30:230,1,60
98,134,2442,2,0,L|68:208,1,60
136,112,2592,1,0,0:0:0:0:
394,146,2892,6,0,L|539:172,1,120
318,221,3192,2,0,L|199:199,1,120
97,183,3492,1,0,0:0:0:0:
97,183,3642,1,0,0:0:0:0:
266,279,3942,6,0,P|319:307|378:310,1,120
479,216,4242,1,0,0:0:0:0:
479,216,4392,2,0,P|426:188|366:185,1,120
266,279,4692,2,0,L|286:100,1,180.000006866455
80,28,5292,6,0,L|54:173,1,120
148,215,5592,2,0,L|169:96,1,120
237,283,5892,1,0,0:0:0:0:
237,283,6042,1,0,0:0:0:0:
168,96,6192,1,0,0:0:0:0:
297,40,6342,6,0,P|354:31|408:64,1,120
476,192,6642,1,0,0:0:0:0:
476,192,6792,2,0,P|418:200|365:168,1,120
228,132,7092,2,0,L|302:102,1,60
206,170,7242,2,0,L|280:140,1,60
184,208,7392,1,0,0:0:0:0:
245,360,7692,6,0,L|100:386,1,120
286,240,7992,2,0,L|404:218,1,120
512,199,8292,1,0,0:0:0:0:
512,199,8442,1,0,0:0:0:0:
491,96,8592,1,0,0:0:0:0:
377,43,8742,6,0,P|306:43|245:91,1,120
241,176,9042,1,0,0:0:0:0:
241,176,9192,2,0,P|312:176|372:127,1,120
468,104,9492,2,0,L|438:302,1,180.000006866455
425,383,10092,5,0,0:0:0:0:
61,279,12192,5,0,0:0:0:0:
99,290,12342,1,0,0:0:0:0:
137,301,12492,1,0,0:0:0:0:
271,180,14592,5,0,0:0:0:0:
233,191,14742,1,0,0:0:0:0:
195,202,14892,1,0,0:0:0:0:
157,213,15042,1,0,0:0:0:0:
7,92,17292,5,0,0:0:0:0:
45,103,17442,1,0,0:0:0:0:
201,35,17742,1,0,0:0:0:0:
201,35,18492,5,0,0:0:0:0:
215,38,18567,1,0,0:0:0:0:
229,40,18642,1,0,0:0:0:0:
243,43,18717,1,0,0:0:0:0:
257,46,18792,5,0,0:0:0:0:
251,77,18867,1,0,0:0:0:0:
246,109,18942,1,0,0:0:0:0:
239,140,19017,1,0,0:0:0:0:
232,171,19092,5,0,0:0:0:0:
302,155,19167,1,0,0:0:0:0:
373,145,19242,1,0,0:0:0:0:
444,130,19317,1,0,0:0:0:0:
512,199,19392,5,0,0:0:0:0:
512,199,19692,6,0,P|482:301|375:340,1,180.000006866455
301,77,19992,2,0,P|372:128|390:215,1,180.000006866455
106,232,20292,2,0,L|281:190,1,180.000006866455
386,157,20592,1,0,0:0:0:0:
57,83,20742,1,0,0:0:0:0:
0,199,20892,6,0,P|30:301|137:340,1,180.000006866455
210,77,21192,2,0,P|139:128|122:215,1,180.000006866455
440,384,21492,1,0,0:0:0:0:
133,325,21642,1,0,0:0:0:0:
512,301,21792,1,0,0:0:0:0:
182,242,21942,2,0,L|-19:272,1,180.000006866455
238,148,22242,2,0,L|439:178,1,180.000006866455
512,90,22542,1,0,0:0:0:0:
293,61,22692,2,0,P|205:55|136:111,1,180.000006866455
93,215,22992,5,0,0:0:0:0:
93,215,23142,1,0,0:0:0:0:
344,23,23292,2,0,P|409:81|419:169,1,180.000006866455
168,361,23592,2,0,P|102:302|92:214,1,180.000006866455
511,59,23892,2,0,L|492:268,1,180.000006866455
1,325,24192,2,0,L|20:116,1,180.000006866455
444,315,24492,6,0,P|369:358|284:309,1,180.000006866455
68,69,24792,2,0,P|143:26|228:75,1,180.000006866455
179,282,25092,2,0,L|0:265,1,180.000006866455
333,102,25392,2,0,L|512:119,1,180.000006866455
409,223,25692,6,0,B|336:234|336:234|233:183,1,180.000006866455
147,127,25992,1,0,0:0:0:0:
147,127,26142,1,0,0:0:0:0:
36,7,26442,5,0,0:0:0:0:
64,129,26592,1,0,0:0:0:0:
92,251,26742,1,0,0:0:0:0:
120,373,26892,2,0,L|338:343,1,180.000006866455
392,11,27192,2,0,L|174:41,1,180.000006866455
437,328,27492,2,0,L|407:110,1,180.000006866455
75,56,27792,2,0,L|105:274,1,180.000006866455
120,373,28092,5,0,0:0:0:0:
256,192,28242,1,0,0:0:0:0:
256,192,28317,1,0,0:0:0:0:
256,192,28392,1,0,0:0:0:0:
146,101,28542,5,0,0:0:0:0:
291,330,28692,1,0,0:0:0:0:
308,59,28842,1,0,0:0:0:0:
135,268,28992,1,0,0:0:0:0:
398,200,29142,1,0,0:0:0:0:
146,101,29292,6,0,B|105:129|86:176|86:176|153:128|237:150|202:176|288:200|346:149,1,360.000013732911
413,97,29742,1,0,0:0:0:0:
0,313,30042,5,0,0:0:0:0:
123,303,30192,1,0,0:0:0:0:
246,293,30342,1,0,0:0:0:0:
366,283,30492,2,0,B|407:255|426:208|426:208|359:256|275:234|310:208|224:184|166:235,1,360.000013732911
75,276,30942,1,0,0:0:0:0:
172,11,31242,5,0,0:0:0:0:
280,43,31392,1,0,0:0:0:0:
388,75,31542,1,0,0:0:0:0:
496,107,31692,2,0,L|466:325,1,180.000006866455
16,277,31992,2,0,L|46:59,1,180.000006866455
291,351,32292,6,0,P|206:325|140:265,1,180.000006866455
221,33,32592,2,0,P|306:59|372:119,1,180.000006866455
127,167,32892,2,0,B|88:109|88:109|103:-12,1,180.000006866455
385,217,33192,2,0,B|424:275|424:275|409:396,1,180.000006866455
281,63,33492,2,0,B|339:24|339:24|460:39,1,180.000006866455
231,321,33792,2,0,B|173:360|173:360|52:345,1,180.000006866455
99,68,34092,6,0,B|174:8|174:8|145:309,1,360.000013732911
137,367,34542,1,0,0:0:0:0:
389,19,34842,5,0,0:0:0:0:
397,118,34992,1,0,0:0:0:0:
405,217,35142,1,0,0:0:0:0:
413,316,35292,2,0,B|338:376|338:376|367:75,1,360.000013732911
371,6,35742,1,0,0:0:0:0:
413,316,36042,5,0,0:0:0:0:
292,276,36192,1,0,0:0:0:0:
171,236,36342,1,0,0:0:0:0:
50,196,36492,2,0,P|141:205|268:166,1,180.000006866455
216,9,36792,2,0,P|207:100|246:227,1,180.000006866455
462,188,37092,2,0,P|371:179|244:218,1,180.000006866455
295,374,37392,2,0,P|304:283|265:156,1,180.000006866455
126,107,37692,6,0,B|115:159|115:159|156:325,1,180.000006866455
386,277,37992,2,0,B|397:225|397:225|356:59,1,180.000006866455
34,101,38292,2,0,B|23:153|23:153|64:319,1,180.000006866455
478,283,38592,2,0,B|489:231|489:231|448:65,1,180.000006866455
256,192,38892,5,0,0:0:0:0:
256,192,39042,2,0,L|250:334,1,120
350,135,39342,1,0,0:0:0:0:
350,135,39492,2,0,L|344:277,1,120
447,82,39792,1,0,0:0:0:0:
447,82,39942,2,0,L|433:321,2,240
451,0,40692,1,0,0:0:0:0:
258,28,40842,2,0,P|362:73|450:1,1,240
190,112,41292,6,0,L|210:281,1,120
95,94,41592,1,0,0:0:0:0:
95,94,41742,2,0,L|115:263,1,120
0,76,42042,1,0,0:0:0:0:
0,76,42192,1,0,0:0:0:0:
0,76,42342,2,0,L|13:315,1,240
224,241,42792,6,0,L|55:221,1,120
311,172,43092,1,0,0:0:0:0:
311,172,43242,2,0,L|137:152,1,120
396,99,43542,1,0,0:0:0:0:
396,99,43692,2,0,L|251:82,1,120
164,78,43992,5,0,0:0:0:0:
52,71,44142,1,0,0:0:0:0:
16,177,44292,2,0,P|48:230|48:303,1,120
32,384,44592,1,0,0:0:0:0:
163,328,44742,2,0,B|274:319|274:319|298:341|298:341|413:331,1,240
402,136,45192,2,0,P|377:200|380:253,1,120
490,331,45492,2,0,P|515:267|512:214,1,120
495,38,45792,2,0,L|288:57,1,180
315,54,46092,6,0,P|321:116|293:171,1,120
234,345,46392,1,0,0:0:0:0:
252,232,46542,2,0,P|227:286|234:345,1,120
290,158,46992,5,0,0:0:0:0:
207,162,47142,1,0,0:0:0:0:
252,232,47292,1,0,0:0:0:0:
244,88,47442,5,0,0:0:0:0:
244,88,47517,1,0,0:0:0:0:
244,88,47592,1,0,0:0:0:0:
170,237,47742,1,0,0:0:0:0:
336,227,47892,1,0,0:0:0:0:
77,99,48042,1,0,0:0:0:0:
263,377,48192,1,0,0:0:0:0:
410,76,48342,1,0,0:0:0:0:
241,197,48492,6,0,L|152:205,1,90
129,279,48792,2,0,B|176:330|176:330|160:112,1,270.000010299683
217,69,49092,6,0,L|306:76,1,90
329,150,49392,2,0,B|282:201|282:201|297:-16,1,270.000010299683
217,19,49692,6,0,L|127:26,1,90
0,82,49992,2,0,P|128:62|215:157,1,270.000010299683
281,210,50292,6,0,L|370:217,1,90
498,273,50592,2,0,P|369:253|282:348,1,270.000010299683
205,379,50892,6,0,L|196:281,1,90
4,311,51192,2,0,B|129:290|129:290|143:309|143:309|273:286,1,270.000010299683
311,222,51492,6,0,L|319:124,1,90
512,154,51792,2,0,B|387:133|387:133|373:152|373:152|243:129,1,270.000010299683
83,81,52092,6,0,L|172:73,1,90
260,119,52392,2,0,B|224:33|224:33|240:253,1,270.000010299683
141,217,52692,6,0,L|51:209,1,90
0,292,52992,1,0,0:0:0:0:
83,79,53142,1,0,0:0:0:0:
141,217,53292,6,0,L|148:306,1,90
367,291,53592,2,0,P|238:271|151:366,1,270.000010299683
277,384,53892,6,0,L|284:294,1,90
503,310,54192,2,0,P|374:329|287:234,1,270.000010299683
273,137,54492,6,0,L|265:47,1,90
362,55,54792,2,0,B|422:77|426:132|426:132|331:201|203:88,1,270.000010299683
175,120,55092,6,0,L|85:112,1,90
4,203,55392,2,0,B|26:263|81:267|81:267|150:172|37:44,1,270.000010299683
8,102,55692,6,0,L|0:12,1,90
232,73,55992,2,0,P|103:53|16:148,1,270.000010299683
8,282,56292,6,0,L|0:371,1,90
232,311,56592,2,0,P|103:330|16:235,1,270.000010299683
16,148,56892,5,0,0:0:0:0:
41,99,56967,1,0,0:0:0:0:
93,82,57042,1,0,0:0:0:0:
142,107,57117,1,0,0:0:0:0:
159,159,57192,5,0,0:0:0:0:
179,222,57267,1,0,0:0:0:0:
238,252,57342,1,0,0:0:0:0:
301,231,57417,1,0,0:0:0:0:
331,173,57492,5,0,0:0:0:0:
272,120,57567,1,0,0:0:0:0:
205,163,57642,1,0,0:0:0:0:
229,238,57717,1,0,0:0:0:0:
307,234,57792,5,0,0:0:0:0:
307,234,58092,6,0,P|337:336|444:375,1,180.000006866455
280,132,58392,2,0,P|206:208|226:321,1,180.000006866455
214,373,58692,1,0,0:0:0:0:
412,187,58842,1,0,0:0:0:0:
289,343,58992,2,0,L|114:301,1,180.000006866455
35,144,59292,6,0,P|65:42|172:3,1,180.000006866455
245,266,59592,2,0,P|179:207|169:119,1,180.000006866455
455,145,59892,2,0,P|371:172|291:136,1,180.000006866455
374,62,60192,1,0,0:0:0:0:
401,360,60342,2,0,B|484:376|484:376|426:286|426:286|351:314,1,270.000010299683
353,314,60642,2,0,P|267:351|152:344,1,180.000006866455
47,219,60942,1,0,0:0:0:0:
159,70,61092,2,0,P|245:33|360:40,1,180.000006866455
439,43,61392,5,0,0:0:0:0:
439,43,61542,1,0,0:0:0:0:
425,280,61692,2,0,P|367:345|279:355,1,180.000006866455
87,104,61992,2,0,P|146:38|234:28,1,180.000006866455
339,76,62292,2,0,L|322:255,1,180.000006866455
173,308,62592,2,0,L|189:128,1,180.000006866455
464,61,62892,6,0,B|460:137|460:137|392:250,1,180.000006866455
48,323,63192,2,0,B|52:247|52:247|120:134,1,180.000006866455
184,57,63492,2,0,L|363:74,1,180.000006866455
328,327,63792,2,0,L|149:310,1,180.000006866455
98,61,64092,6,0,B|109:134|109:134|58:237,1,180.000006866455
12,312,64392,1,0,0:0:0:0:
12,312,64542,1,0,0:0:0:0:
98,61,64842,5,0,0:0:0:0:
220,89,64992,1,0,0:0:0:0:
342,117,65142,1,0,0:0:0:0:
464,145,65292,2,0,P|485:247|434:363,1,180.000006866455
48,239,65592,2,0,P|27:137|78:21,1,180.000006866455
315,325,65892,2,0,L|97:295,1,180.000006866455
197,59,66192,2,0,L|415:89,1,180.000006866455
486,99,66492,5,0,0:0:0:0:
315,325,66642,1,0,0:0:0:0:
315,325,66717,1,0,0:0:0:0:
315,325,66792,1,0,0:0:0:0:
197,59,66942,5,0,0:0:0:0:
315,325,67092,1,0,0:0:0:0:
375,83,67242,1,0,0:0:0:0:
136,300,67392,1,0,0:0:0:0:
197,59,67542,1,0,0:0:0:0:
315,325,67692,6,0,B|457:340|496:192|496:192|465:273|363:295,1,360.000013732911
371,157,68142,1,0,0:0:0:0:
173,359,68442,5,0,0:0:0:0:
181,259,68592,1,0,0:0:0:0:
189,159,68742,1,0,0:0:0:0:
197,59,68892,6,0,B|55:44|16:192|16:192|47:111|149:89,1,360.000013732911
141,227,69342,1,0,0:0:0:0:
237,31,69642,5,0,0:0:0:0:
269,139,69792,1,0,0:0:0:0:
301,247,69942,1,0,0:0:0:0:
333,355,70092,2,0,L|551:325,1,180.000006866455
179,29,70392,2,0,L|-39:59,1,180.000006866455
352,180,70692,6,0,P|412:114|438:28,1,180.000006866455
160,204,70992,2,0,P|99:269|73:355,1,180.000006866455
247,155,71292,2,0,B|189:116|189:116|68:131,1,180.000006866455
265,229,71592,2,0,B|323:268|323:268|444:253,1,180.000006866455
270,72,71892,2,0,B|212:33|212:33|91:48,1,180.000006866455
242,312,72192,2,0,B|300:351|300:351|421:336,1,180.000006866455
428,243,72492,6,0,B|480:255|503:303|503:303|512:108|512:108|467:107|439:68,1,360.000013732911
512,27,72942,1,0,0:0:0:0:
381,165,73242,5,0,0:0:0:0:
282,157,73392,1,0,0:0:0:0:
183,149,73542,1,0,0:0:0:0:
84,141,73692,6,0,B|32:129|9:81|9:81|0:276|0:276|45:277|73:316,1,360.000013732911
0,357,74142,1,0,0:0:0:0:
292,0,74442,5,0,0:0:0:0:
252,121,74592,1,0,0:0:0:0:
212,242,74742,1,0,0:0:0:0:
172,363,74892,2,0,P|181:272|142:145,1,180.000006866455
340,21,75192,2,0,P|331:112|370:239,1,180.000006866455
61,376,75492,2,0,P|70:285|31:158,1,180.000006866455
451,8,75792,2,0,P|442:99|481:226,1,180.000006866455
496,292,76092,6,0,B|444:281|444:281|278:322,1,180.000006866455
16,92,76392,2,0,B|68:103|68:103|191:72,1,180.000006866455
104,351,76692,2,0,B|119:281|119:281|158:261|158:261|178:198,1,180.000006866455
408,33,76992,2,0,B|392:102|392:102|354:123|354:123|333:185,1,180.000006866455
310,292,77292,5,0,0:0:0:0:
310,292,77367,1,0,0:0:0:0:
310,292,77442,1,0,0:0:0:0:
214,304,77592,1,0,0:0:0:0:
118,316,77742,1,0,0:0:0:0:
22,328,77892,2,0,P|115:292|131:193,1,210
131,193,78492,5,0,0:0:0:0:
131,193,78567,1,0,0:0:0:0:
131,193,78642,1,0,0:0:0:0:
226,182,78792,1,0,0:0:0:0:
321,171,78942,1,0,0:0:0:0:
416,160,79092,2,0,P|344:160|285:37,1,210
281,50,79692,5,0,0:0:0:0:
281,50,79767,1,0,0:0:0:0:
281,50,79842,1,0,0:0:0:0:
188,88,79992,1,0,0:0:0:0:
96,126,80142,1,0,0:0:0:0:
4,164,80292,2,0,B|-9:216|-9:216|58:319|58:319|46:361,1,210
48,351,80892,5,0,0:0:0:0:
121,241,81117,2,0,L|124:216,2,15
202,305,81304,2,0,L|251:297,1,45
246,297,81492,1,0,0:0:0:0:
340,278,81642,1,0,0:0:0:0:
512,384,81792,5,0,0:0:0:0:
