osu file format v14

[General]
AudioFilename: audio.mp3
AudioLeadIn: 0
PreviewTime: -1
Countdown: 0
SampleSet: Soft
StackLeniency: 0.2
Mode: 0
LetterboxInBreaks: 0
WidescreenStoryboard: 0

[Editor]
DistanceSpacing: 0.8
BeatDivisor: 4
GridSize: 32
TimelineZoom: 2.999999

[Metadata]
Title:oyasumi
TitleUnicode:oyasumi
Artist:Shiggy Jr.
ArtistUnicode:Shiggy Jr.
Creator:Zaslvaski
Version:good night and have a nice sleep.
Source:
Tags:
BeatmapID:1812707
BeatmapSetID:867089

[Difficulty]
HPDrainRate:6
CircleSize:4
OverallDifficulty:8
ApproachRate:9.3
SliderMultiplier:2
SliderTickRate:1

[Events]
//Background and Video events
0,0,"71252854_p0.jpg",0,0
//Break Periods
2,10292,10992
2,12692,13392
2,15242,16092
2,39092,47292
//Storyboard Layer 0 (Background)
//Storyboard Layer 1 (Fail)
//Storyboard Layer 2 (Pass)
//Storyboard Layer 3 (Foreground)
//Storyboard Sound Samples

[TimingPoints]
492,300,4,2,0,60,1,0
492,-100,4,2,0,60,0,0
2292,-125,4,2,0,60,0,0
4692,-200,4,2,0,60,0,0
5292,-100,4,2,0,60,0,0
6342,-125,4,2,0,60,0,0
7092,-125,4,2,0,60,0,0
9492,-200,4,2,0,60,0,0
18492,-100,4,2,0,60,0,0
19392,-200,4,2,0,60,0,0
19692,-83.3333333333333,4,2,0,60,0,1
20292,-83.3333333333333,4,2,0,60,0,1
21642,-83.3333333333333,4,2,0,60,0,1
21942,-83.3333333333333,4,2,0,60,0,1
25692,-83.3333333333333,4,2,0,60,0,1
26367,-83.3333333333333,4,2,0,60,0,1
26442,-83.3333333333333,4,2,0,60,0,1
26892,-83.3333333333333,4,2,0,60,0,1
27192,-83.3333333333333,4,2,0,60,0,1
27492,-83.3333333333333,4,2,0,60,0,1
27792,-83.3333333333333,4,2,0,60,0,1
29292,-83.3333333333333,4,2,0,60,0,1
30492,-83.3333333333333,4,2,0,60,0,1
31692,-83.3333333333333,4,2,0,60,0,1
31992,-83.3333333333333,4,2,0,60,0,1
32292,-83.3333333333333,4,2,0,60,0,1
32592,-83.3333333333333,4,2,0,60,0,1
34092,-83.3333333333333,4,2,0,60,0,1
35292,-83.3333333333333,4,2,0,60,0,1
36492,-83.3333333333333,4,2,0,60,0,1
36792,-83.3333333333333,4,2,0,60,0,1
37092,-83.3333333333333,4,2,0,60,0,1
37392,-83.3333333333333,4,2,0,60,0,1
37692,-76.9230769230769,4,2,0,60,0,1
37992,-71.4285714285714,4,2,0,60,0,1
38292,-66.6666666666667,4,2,0,60,0,1
38592,-58.8235294117647,4,2,0,60,0,1
38892,-58.8235294117647,4,2,0,60,0,0
48492,-125,4,2,0,60,0,0
52092,-200,4,2,0,60,0,0
53142,-125,4,2,0,60,0,0
54717,-125,4,2,0,60,0,0
54792,-125,4,2,0,60,0,0
56892,-100,4,2,0,60,0,0
58092,-83.3333333333333,4,2,0,60,0,1
58992,-83.3333333333333,4,2,0,60,0,1
64092,-83.3333333333333,4,2,0,60,0,1
64542,-83.3333333333333,4,2,0,60,0,1
65292,-83.3333333333333,4,2,0,60,0,1
65592,-83.3333333333333,4,2,0,60,0,1
65892,-83.3333333333333,4,2,0,60,0,1
66192,-83.3333333333333,4,2,0,60,0,1
67692,-83.3333333333333,4,2,0,60,0,1
68892,-83.3333333333333,4,2,0,60,0,1
70092,-83.3333333333333,4,2,0,60,0,1
70392,-83.3333333333333,4,2,0,60,0,1
70692,-83.3333333333333,4,2,0,60,0,1
70992,-83.3333333333333,4,2,0,60,0,1
72492,-83.3333333333333,4,2,0,60,0,1
73692,-83.3333333333333,4,2,0,60,0,1
74892,-83.3333333333333,4,2,0,60,0,1
75192,-83.3333333333333,4,2,0,60,0,1
75492,-83.3333333333333,4,2,0,60,0,1
75792,-83.3333333333333,4,2,0,60,0,1
76092,-76.9230769230769,4,2,0,60,0,1
76392,-71.4285714285714,4,2,0,60,0,1
76692,-66.6666666666667,4,2,0,60,0,1
76992,-58.8235294117647,4,2,0,60,0,1
77217,-58.8235294117647,4,2,0,60,0,1
77292,-125,4,2,0,60,0,0
81117,-125,4,2,0,60,0,0
81792,-125,4,2,0,60,0,0

[Colours]
Combo1 : 131,131,131
Combo2 : 137,12,15
Combo3 : 192,192,192
Combo4 : 74,74,149

[HitObjects]
285,322,492,5,0,0:0:0:0:
416,269,792,2,0,P|455:195|386:106,1,200
298,186,1242,2,0,L|191:173,1,100
174,337,1542,6,0,P|224:338|269:307,1,100
310,212,1842,1,0,0:0:0:0:
176,96,1992,1,0,0:0:0:0:
100,212,2292,2,0,P|152:243|197:244,2,80
198,96,2892,5,0,0:0:0:0:
320,216,3192,2,0,P|248:230|158:183,1,160
33,267,3642,2,0,P|46:310|41:355,1,80
123,251,3942,6,0,P|112:172|188:112,1,160
284,221,4392,2,0,L|179:210,1,80,0|0,0:0|0:0,0:0:0:0:
107,337,4692,2,0,B|151:323|151:323|203:341|203:341|266:326,1,150
412,285,5292,5,0,0:0:0:0:
209,186,5592,2,0,P|310:144|329:62,1,200
231,101,6042,2,0,P|191:64|146:46,1,100
128,199,6342,6,0,P|127:249|161:297,1,80
237,264,6642,1,0,0:0:0:0:
245,63,6792,1,0,0:0:0:0:
349,232,7092,2,0,P|387:226|432:172,2,80
364,90,7692,5,0,0:0:0:0:
226,109,7992,2,0,P|150:121|94:199,1,160
205,194,8442,2,0,P|218:237|213:282,1,80
271,333,8742,6,0,P|192:344|132:268,1,160
284,221,9192,2,0,L|179:210,1,80,0|0,0:0|0:0,0:0:0:0:
108,172,9492,2,0,B|113:129|113:129|140:79|140:79|142:28,1,150
256,192,10092,1,0,0:0:0:0:
224,192,12192,5,0,0:0:0:0:
256,224,12342,1,0,0:0:0:0:
288,192,12492,1,0,0:0:0:0:
288,192,14592,5,0,0:0:0:0:
256,160,14742,1,0,0:0:0:0:
224,192,14892,1,0,0:0:0:0:
256,224,15042,1,0,0:0:0:0:
192,192,17292,5,0,0:0:0:0:
320,192,17442,1,0,0:0:0:0:
256,320,17742,5,0,0:0:0:0:
113,240,18492,5,0,0:0:0:0:
87,191,18567,1,0,0:0:0:0:
83,142,18642,1,0,0:0:0:0:
102,101,18717,1,0,0:0:0:0:
140,74,18792,1,0,0:0:0:0:
187,79,18867,1,0,0:0:0:0:
235,99,18942,5,0,0:0:0:0:
274,78,19017,1,0,0:0:0:0:
321,74,19092,1,0,0:0:0:0:
354,105,19167,1,0,0:0:0:0:
367,142,19242,1,0,0:0:0:0:
361,185,19317,1,0,0:0:0:0:
352,235,19392,6,0,P|335:268|296:301,1,75,0|0,0:0|0:0,0:0:0:0:
226,255,19692,6,0,P|169:226|107:233,1,119.999996337891,0|0,0:3|0:0,0:0:0:0:
151,325,19992,1,0,0:0:0:0:
291,107,20142,1,0,0:0:0:0:
228,307,20292,2,0,B|334:273|267:207|379:198,1,179.999994506836
358,181,20592,2,0,P|309:136|222:137,1,119.999996337891,0|0,0:0|0:0,0:0:0:0:
297,66,20892,5,0,0:0:0:0:
166,335,21042,1,0,0:0:0:0:
233,18,21192,1,0,0:0:0:0:
275,354,21342,1,0,0:0:0:0:
124,96,21492,5,0,0:0:0:0:
131,228,21642,2,0,P|204:251|248:237,1,119.999996337891
296,98,21942,1,0,0:0:0:0:
323,300,22092,1,0,0:0:0:0:
393,22,22242,1,0,0:0:0:0:
423,263,22392,1,0,0:0:0:0:
210,131,22542,1,0,0:0:0:0:
327,207,22692,2,0,B|381:160|349:90,1,119.999996337891
248,38,22992,1,0,0:0:0:0:
89,282,23142,1,0,0:0:0:0:
410,288,23292,5,0,0:0:0:0:
93,40,23442,1,0,0:0:0:0:
447,85,23592,5,0,0:0:0:0:
183,312,23742,1,0,0:0:0:0:
373,24,23892,5,0,0:0:0:0:
316,335,24042,1,0,0:0:0:0:
386,221,24192,1,0,0:0:0:0:
390,245,24342,1,0,0:0:0:0:
272,40,24492,1,0,0:0:0:0:
238,182,24642,1,0,0:0:0:0:
154,6,24792,5,0,0:0:0:0:
132,200,24942,1,0,0:0:0:0:
200,39,25092,5,0,0:0:0:0:
205,270,25242,1,0,0:0:0:0:
125,64,25392,5,0,0:0:0:0:
293,277,25542,1,0,0:0:0:0:
178,218,25692,6,0,L|29:221,1,119.999996337891
227,113,25992,1,0,0:0:0:0:
188,307,26142,2,0,L|371:300,1,179.999994506836,0|0,0:0|0:0,0:0:0:0:
457,296,26442,1,0,0:0:0:0:
367,94,26592,2,0,B|337:148|337:148|348:210,1,119.999996337891,0|0,0:0|0:0,0:0:0:0:
452,103,26892,6,0,P|430:36|291:51,1,179.999994506836,0|0,0:0|0:0,0:0:0:0:
263,72,27192,2,0,B|246:159|357:138|334:242,1,179.999994506836,0|0,0:0|0:0,0:0:0:0:
385,284,27492,2,0,B|372:362|299:371|299:371|341:367|386:401,1,179.999994506836
483,314,27792,2,0,B|404:329|401:212|305:222,1,179.999994506836
271,299,28092,5,0,0:0:0:0:
307,68,28242,1,0,0:0:0:0:
324,52,28317,1,0,0:0:0:0:
296,51,28392,1,0,0:0:0:0:
114,176,28542,1,0,0:0:0:0:
292,362,28692,5,0,0:0:0:0:
244,98,28842,1,0,0:0:0:0:
168,346,28992,5,0,0:0:0:0:
356,56,29142,1,0,0:0:0:0:
461,297,29292,6,0,B|377:318|371:252|272:287,1,179.999994506836
208,334,29592,1,0,0:0:0:0:
228,123,29742,2,0,L|212:259,1,119.999996337891,0|0,0:0|0:0,0:0:0:0:
127,68,30042,5,0,0:0:0:0:
390,158,30192,1,0,0:0:0:0:
258,299,30342,1,0,0:0:0:0:
306,104,30492,6,0,L|281:317,1,179.999994506836,0|0,0:0|0:0,0:0:0:0:
274,373,30792,1,0,0:0:0:0:
209,174,30942,1,0,0:0:0:0:
351,330,31092,1,0,0:0:0:0:
139,317,31242,5,0,0:0:0:0:
434,249,31392,1,0,0:0:0:0:
176,106,31542,1,0,0:0:0:0:
306,151,31692,6,0,B|372:141|372:141|310:239,1,179.999994506836
263,233,31992,2,0,B|197:243|197:243|259:145,1,179.999994506836
384,315,32292,2,0,B|251:335|251:335|202:303,1,179.999994506836
152,251,32592,2,0,B|138:210|138:210|169:120|169:120|154:62,1,179.999994506836
213,38,32892,5,0,0:0:0:0:
308,339,33042,1,0,0:0:0:0:
341,14,33192,5,0,0:0:0:0:
246,346,33342,1,0,0:0:0:0:
146,26,33492,5,0,0:0:0:0:
465,153,33642,1,0,0:0:0:0:
173,322,33792,5,0,0:0:0:0:
460,127,33942,1,0,0:0:0:0:
174,248,34092,6,0,B|138:154|197:166|158:60,1,179.999994506836,0|0,0:0|0:0,0:0:0:0:
112,4,34392,1,0,0:0:0:0:
250,195,34542,2,0,L|383:187,1,119.999996337891,0|0,0:0|0:0,0:0:0:0:
509,263,34842,5,0,0:0:0:0:
357,93,34992,1,0,0:0:0:0:
339,269,35142,1,0,0:0:0:0:
447,64,35292,6,0,P|391:6|281:40,1,179.999994506836,0|0,0:0|0:0,0:0:0:0:
242,90,35592,1,0,0:0:0:0:
447,166,35742,1,0,0:0:0:0:
299,20,35892,1,0,0:0:0:0:
251,279,36042,5,0,0:0:0:0:
357,93,36192,1,0,0:0:0:0:
190,162,36342,1,0,0:0:0:0:
424,339,36492,6,0,B|373:296|373:296|350:300|350:300|350:276|350:276|295:230,1,179.999994506836
50,37,36792,2,0,B|102:80|102:80|100:104|100:104|123:98|123:98|193:156,1,179.999994506836
407,21,37092,2,0,B|363:73|363:73|339:71|339:71|345:94|345:94|287:164,1,179.999994506836
115,350,37392,2,0,B|159:298|159:298|183:300|183:300|177:277|177:277|235:207,1,179.999994506836
332,192,37692,6,0,B|331:89|331:89|212:119,1,194.999991073609
175,153,37992,6,0,B|118:82|118:82|225:14,1,209.999993591309
259,101,38292,6,0,B|331:74|325:4|325:4|336:51|395:78,1,225.000008583069
345,133,38592,6,0,B|365:213|306:320|223:305|214:267|203:222|238:185|293:201|300:231|281:277,1,340.000006484985
138,46,48492,5,0,0:0:0:0:
223,185,48642,2,0,P|287:207|376:152,1,160,0|0,0:0|0:0,0:0:0:0:
275,51,49092,2,0,L|291:132,1,80
374,87,49392,2,0,P|409:96|440:152,1,80
469,272,49692,6,0,P|432:289|372:284,1,80
361,118,49992,1,0,0:0:0:0:
299,241,50142,2,0,B|238:296|143:261,1,160
151,169,50592,1,0,0:0:0:0:
273,346,50742,1,0,0:0:0:0:
172,344,50892,6,0,P|125:336|85:306,1,80
58,164,51192,2,0,L|65:256,1,80
117,43,51492,1,0,0:0:0:0:
209,141,51642,2,0,B|279:108|367:147,1,160
466,199,52092,6,0,B|500:146|468:95,3,100
344,201,53142,1,0,0:0:0:0:
368,317,53292,6,0,P|324:324|285:308,1,80
287,130,53592,1,0,0:0:0:0:
445,177,53742,1,0,0:0:0:0:
363,47,53892,2,0,P|417:44|451:24,1,80
312,122,54192,2,0,L|222:113,1,80
166,51,54492,6,0,P|136:93|150:147,1,80
247,199,54792,1,0,0:0:0:0:
351,314,54942,2,0,P|283:295|188:331,1,160
148,191,55392,2,0,L|234:209,1,80,0|0,0:0|0:0,0:0:0:0:
52,270,55692,6,0,P|32:240|27:177,1,80,0|0,0:0|0:0,0:0:0:0:
154,66,55992,1,0,0:0:0:0:
223,299,56292,5,0,0:0:0:0:
77,115,56592,2,0,P|63:67|86:7,1,80,0|0,0:0|0:0,0:0:0:0:
181,66,56892,1,0,0:0:0:0:
206,119,56967,1,0,0:0:0:0:
210,175,57042,1,0,0:0:0:0:
230,226,57117,1,0,0:0:0:0:
282,226,57192,5,0,0:0:0:0:
320,194,57267,1,0,0:0:0:0:
335,148,57342,1,0,0:0:0:0:
324,100,57417,1,0,0:0:0:0:
286,73,57492,5,0,0:0:0:0:
239,87,57567,1,0,0:0:0:0:
188,111,57642,1,0,0:0:0:0:
150,92,57717,1,0,0:0:0:0:
97,93,57792,1,0,0:0:0:0:
47,169,58092,6,0,P|78:224|133:253,1,119.999996337891,0|0,0:3|0:0,0:0:0:0:
237,108,58392,1,0,0:0:0:0:
187,338,58542,1,0,0:0:0:0:
162,27,58692,5,0,0:0:0:0:
275,327,58842,1,0,0:0:0:0:
31,266,58992,2,0,B|137:232|70:166|182:157,1,179.999994506836
170,240,59292,2,0,P|111:209|87:143,1,119.999996337891
95,25,59592,1,0,0:0:0:0:
352,310,59742,1,0,0:0:0:0:
218,21,59892,1,0,0:0:0:0:
37,280,60042,1,0,0:0:0:0:
266,152,60192,1,0,0:0:0:0:
378,122,60342,6,0,P|411:186|481:203,1,119.999996337891
305,236,60642,1,0,0:0:0:0:
327,340,60792,1,0,0:0:0:0:
257,109,60942,1,0,0:0:0:0:
112,291,61092,2,0,B|166:244|134:174,1,119.999996337891
329,198,61392,1,0,0:0:0:0:
46,236,61542,1,0,0:0:0:0:
410,288,61692,5,0,0:0:0:0:
93,40,61842,1,0,0:0:0:0:
431,100,61992,5,0,0:0:0:0:
54,164,62142,1,0,0:0:0:0:
384,5,62292,5,0,0:0:0:0:
304,350,62442,1,0,0:0:0:0:
156,91,62592,1,0,0:0:0:0:
156,122,62742,1,0,0:0:0:0:
465,360,62892,1,0,0:0:0:0:
250,23,63042,1,0,0:0:0:0:
461,37,63192,5,0,0:0:0:0:
166,340,63342,1,0,0:0:0:0:
200,39,63492,5,0,0:0:0:0:
205,270,63642,1,0,0:0:0:0:
38,10,63792,5,0,0:0:0:0:
381,293,63942,1,0,0:0:0:0:
118,112,64092,6,0,L|123:251,1,119.999996337891
0,122,64392,1,0,0:0:0:0:
222,99,64542,2,0,L|229:282,1,179.999994506836
310,320,64842,1,0,0:0:0:0:
422,280,64992,2,0,B|386:229|386:229|326:212,1,119.999996337891
230,193,65292,6,0,P|308:170|309:52,1,179.999994506836
291,0,65592,2,0,B|274:87|385:66|362:170,1,179.999994506836
409,194,65892,2,0,B|422:272|495:281|495:281|453:277|408:311,1,179.999994506836
415,251,66192,2,0,B|322:250|327:191|225:194,1,179.999994506836
180,309,66492,5,0,0:0:0:0:
331,149,66642,1,0,0:0:0:0:
303,95,66717,1,0,0:0:0:0:
355,97,66792,1,0,0:0:0:0:
6,211,66942,1,0,0:0:0:0:
341,378,67092,5,0,0:0:0:0:
228,39,67242,1,0,0:0:0:0:
168,384,67392,5,0,0:0:0:0:
367,13,67542,1,0,0:0:0:0:
461,297,67692,6,0,B|377:318|371:252|272:287,1,179.999994506836
219,225,67992,1,0,0:0:0:0:
436,119,68142,2,0,L|300:103,1,119.999996337891
293,213,68442,5,0,0:0:0:0:
397,43,68592,1,0,0:0:0:0:
474,249,68742,1,0,0:0:0:0:
306,104,68892,6,0,L|281:317,1,179.999994506836,0|0,0:0|0:0,0:0:0:0:
274,373,69192,1,0,0:0:0:0:
209,174,69342,1,0,0:0:0:0:
351,330,69492,1,0,0:0:0:0:
139,317,69642,5,0,0:0:0:0:
434,249,69792,1,0,0:0:0:0:
176,106,69942,1,0,0:0:0:0:
306,233,70092,6,0,B|372:243|372:243|310:145,1,179.999994506836
371,53,70392,2,0,B|310:148|310:148|376:138,1,179.999994506836
349,83,70692,2,0,B|256:77|256:77|313:149,1,179.999994506836
197,137,70992,2,0,B|232:172|232:172|316:194|316:194|356:238,1,179.999994506836
190,348,71292,5,0,0:0:0:0:
453,97,71442,1,0,0:0:0:0:
77,282,71592,5,0,0:0:0:0:
359,109,71742,1,0,0:0:0:0:
120,36,71892,5,0,0:0:0:0:
430,271,72042,1,0,0:0:0:0:
166,360,72192,5,0,0:0:0:0:
279,32,72342,1,0,0:0:0:0:
174,248,72492,6,0,B|138:154|197:166|158:60,1,179.999994506836,0|0,0:0|0:0,0:0:0:0:
94,16,72792,1,0,0:0:0:0:
103,162,72942,2,0,L|236:154,1,119.999996337891
317,43,73242,5,0,0:0:0:0:
302,266,73392,1,0,0:0:0:0:
482,163,73542,1,0,0:0:0:0:
190,330,73692,6,0,P|133:272|171:163,1,179.999994506836
188,118,73992,1,0,0:0:0:0:
425,285,74142,1,0,0:0:0:0:
278,18,74292,1,0,0:0:0:0:
251,279,74442,5,0,0:0:0:0:
357,93,74592,1,0,0:0:0:0:
190,162,74742,1,0,0:0:0:0:
158,227,74892,6,0,B|107:184|107:184|84:188|84:188|84:164|84:164|29:118,1,179.999994506836
36,125,75192,2,0,B|88:168|88:168|86:192|86:192|109:186|109:186|179:244,1,179.999994506836
288,221,75492,2,0,B|332:169|332:169|356:171|356:171|350:148|350:148|408:78,1,179.999994506836
391,99,75792,2,0,B|347:151|347:151|323:149|323:149|329:172|329:172|271:242,1,179.999994506836
299,295,76092,6,0,B|196:304|196:304|224:180,1,194.999991073609
130,184,76392,6,0,B|68:163|68:163|170:54,1,209.999993591309
222,125,76692,6,0,B|294:152|288:222|288:222|299:175|358:148,1,225.000008583069
429,167,76992,6,0,P|427:258|295:348,1,255.000004863739
512,92,77292,5,0,0:0:0:0:
296,229,77442,1,0,0:0:0:0:
330,239,77517,1,0,0:0:0:0:
320,211,77592,2,0,P|338:169|328:110,1,80,0|0,0:0|0:0,0:0:0:0:
256,156,77892,6,0,B|170:179|190:126|87:147,1,160
265,297,78342,1,0,0:0:0:0:
145,252,78492,5,0,0:0:0:0:
33,327,78642,1,0,0:0:0:0:
77,322,78717,1,0,0:0:0:0:
55,294,78792,2,0,L|47:203,1,80
229,34,79092,6,0,B|252:120|199:100|220:203,1,160
37,85,79542,1,0,0:0:0:0:
183,301,79692,5,0,0:0:0:0:
282,104,79842,1,0,0:0:0:0:
277,63,79917,1,0,0:0:0:0:
254,82,79992,2,0,L|166:92,1,80,0|0,0:0|0:0,0:0:0:0:
331,220,80292,6,0,B|416:197|390:265|493:247,1,160
365,60,80742,1,0,0:0:0:0:
418,64,80817,1,0,0:0:0:0:
391,86,80892,2,0,L|387:179,1,80
301,213,81117,1,0,0:0:0:0:
306,234,81192,1,0,0:0:0:0:
183,183,81292,5,0,0:0:0:0:
153,224,81392,1,0,0:0:0:0:
204,226,81492,1,0,0:0:0:0:
166,317,81642,5,0,0:0:0:0:
339,348,81792,1,0,0:0:0:0:
