osu file format v14

[General]
AudioFilename: audio.mp3
AudioLeadIn: 0
PreviewTime: 57949
Countdown: 0
SampleSet: Soft
StackLeniency: 0.3
Mode: 0
LetterboxInBreaks: 0
WidescreenStoryboard: 1

[Editor]
Bookmarks: 19708,38892,48508,58092,77308,91708,110908,130108
DistanceSpacing: 1
BeatDivisor: 4
GridSize: 32
TimelineZoom: 0.9

[Metadata]
Title:oyasumi
TitleUnicode:oyasumi
Artist:Shiggy Jr.
ArtistUnicode:Shiggy Jr.
Creator:Yumerios
Version:Xahlt x hakashii's Normal
Source:
Tags:pop rock jpop jrock j-rock j-pop japanese おやすみ tomoko ikeda 池田 智子 shigeyuki harada 原田 茂幸 natsuhiko mori 森 夏彦 kazma moroishi 諸石 和馬 listen to the music Xahlt Gweon Sua Hakashii Gabdu09 kuon-
BeatmapID:2909085
BeatmapSetID:1408011

[Difficulty]
HPDrainRate:4
CircleSize:3.3
OverallDifficulty:5
ApproachRate:6
SliderMultiplier:1
SliderTickRate:1

[Events]
//Background and Video events
0,0,"bgoya.jpg",0,0
//Break Periods
//Storyboard Layer 0 (Background)
//Storyboard Layer 1 (Fail)
//Storyboard Layer 2 (Pass)
//Storyboard Layer 3 (Foreground)
//Storyboard Layer 4 (Overlay)
//Storyboard Sound Samples

[TimingPoints]
424,300,4,2,1,50,1,0
424,-111.111111111111,4,2,1,50,0,0
5149,-111.111111111111,4,2,2,60,0,0
10024,-111.111111111111,4,2,2,50,0,0
18424,-111.111111111111,4,2,1,70,0,0
19624,-99.9999999999999,4,2,1,80,0,0
25774,-99.9999999999999,4,2,1,80,0,0
25924,-99.9999999999999,4,2,1,80,0,0
38824,-111.111111111111,4,2,1,70,0,0
39123,-111.111111111111,4,2,1,70,0,0
39424,-111.111111111111,4,2,1,70,0,0
41523,-111.111111111111,4,2,1,70,0,0
41824,-111.111111111111,4,2,1,70,0,0
43923,-111.111111111111,4,2,1,70,0,0
44224,-111.111111111111,4,2,1,70,0,0
48424,-111.111111111111,4,2,2,50,0,0
56824,-111.111111111111,4,2,1,70,0,0
58024,-99.9999999999999,4,2,1,80,0,0
64174,-99.9999999999999,4,2,1,80,0,0
64324,-99.9999999999999,4,2,1,80,0,0
77224,-111.111111111111,4,2,1,60,0,0
82024,-111.111111111111,4,2,1,50,0,0
86824,-111.111111111111,4,2,2,60,0,0
89224,-111.111111111111,4,2,2,70,0,0
91474,-111.111111111111,4,2,2,70,0,0
91624,-99.9999999999999,4,2,1,80,0,0
97774,-99.9999999999999,4,2,1,80,0,0
97924,-99.9999999999999,4,2,1,80,0,0
116974,-99.9999999999999,4,2,1,80,0,0
117124,-99.9999999999999,4,2,1,80,0,0
130024,-111.111111111111,4,2,1,70,0,0
134823,-111.111111111111,4,2,1,70,0,0

[Colours]
Combo1 : 255,128,128
Combo2 : 255,117,215
Combo3 : 169,117,215
Combo4 : 137,161,247
Combo5 : 169,255,215
Combo6 : 225,164,247
Combo7 : 238,184,145

[HitObjects]
16,56,424,6,0,P|54:35|98:42,1,89.9999972534181,2|2,3:2|3:2,0:2:0:0:
182,88,1024,1,2,3:2:0:0:
182,88,1174,1,2,0:2:0:0:
252,32,1474,2,0,L|353:27,1,89.9999972534181,2|2,0:2|0:2,0:2:0:0:
386,25,1924,1,2,3:2:0:0:
446,91,2224,2,0,L|504:84,2,44.999998626709,2|0|10,3:2|3:2|3:2,0:0:0:0:
372,143,2824,6,0,B|348:177|348:177|359:224,1,89.9999972534181,2|2,3:2|3:2,0:2:0:0:
424,294,3424,1,2,3:2:0:0:
424,294,3574,1,2,0:2:0:0:
364,361,3874,2,0,P|317:346|260:344,1,89.9999972534181,2|2,0:2|0:2,0:2:0:0:
231,344,4324,1,2,3:2:0:0:
169,278,4624,1,2,3:2:0:0:
221,205,4924,2,0,L|268:192,1,44.999998626709,8|0,0:2|3:2,0:0:0:0:
305,173,5224,6,0,P|312:129|293:89,1,89.9999972534181,2|10,3:2|0:2,0:2:0:0:
238,25,5824,1,2,3:2:0:0:
238,25,5974,1,2,0:2:0:0:
165,77,6274,2,0,L|60:65,1,89.9999972534181,2|2,0:2|0:2,0:2:0:0:
30,61,6724,1,10,0:2:0:0:
5,147,7024,2,0,L|21:202,1,44.999998626709,2|0,3:2|3:2,0:0:0:0:
31,233,7324,1,10,3:2:0:0:
4,319,7624,6,0,P|48:324|92:332,1,89.9999972534181,2|10,3:2|0:2,0:2:0:0:
178,374,8224,1,2,3:2:0:0:
178,374,8374,1,2,0:2:0:0:
249,318,8674,2,0,L|231:218,1,89.9999972534181,2|2,0:2|0:2,0:2:0:0:
222,185,9124,1,10,0:2:0:0:
153,126,9424,1,2,3:2:0:0:
193,45,9724,2,0,L|248:52,1,44.999998626709,8|0,0:2|3:2,0:0:0:0:
282,57,10024,5,0,3:2:0:0:
467,41,12124,6,0,L|460:102,1,44.999998626709,8|0,0:2|3:2,0:0:0:0:
454,130,12424,1,0,3:2:0:0:
476,341,14524,6,0,L|415:328,1,44.999998626709,8|0,0:2|3:2,0:0:0:0:
390,346,14824,2,0,L|329:333,1,44.999998626709,0|0,3:2|3:2,0:0:0:0:
241,261,17224,6,0,L|188:270,1,44.999998626709,0|0,3:2|3:2,0:0:0:0:
109,289,17674,1,0,3:2:0:0:
18,83,18424,6,0,L|117:93,1,89.9999972534181,8|8,0:2|0:2,0:2:0:0:
183,44,19024,1,0,3:2:0:0:
244,109,19324,1,8,0:2:0:0:
315,39,19624,6,0,L|369:46,1,50,6|2,3:2|0:2,0:0:0:0:
400,80,19924,2,0,L|452:73,1,50,10|2,0:2|0:2,0:0:0:0:
495,52,20224,1,2,3:2:0:0:
490,151,20524,2,0,L|507:208,1,50,10|0,0:2|0:2,0:2:0:0:
496,248,20824,1,2,3:2:0:0:
399,221,21124,1,10,0:2:0:0:
334,297,21424,1,2,3:2:0:0:
247,257,21724,1,10,0:2:0:0:
247,257,21874,6,0,B|242:188|223:230|219:151,1,100,2|2,0:2|0:2,0:2:0:0:
229,66,22474,1,2,0:2:0:0:
229,66,22624,1,2,3:2:0:0:
137,26,22924,1,10,0:2:0:0:
74,103,23224,2,0,L|87:158,1,50,6|2,3:2|0:2,0:0:0:0:
122,192,23524,1,12,0:2:0:0:
122,192,23674,2,0,P|116:231|107:297,1,100,2|0,0:2|0:2,0:2:0:0:
114,340,24124,1,12,0:2:0:0:
209,310,24424,5,6,3:2:0:0:
288,370,24724,1,10,0:2:0:0:
360,300,25024,1,2,3:2:0:0:
447,347,25324,1,10,0:2:0:0:
505,265,25624,2,2,B|492:225|492:225|474:217|474:217|461:169,1,100,2|10,3:2|0:2,0:2:0:0:
419,157,26074,2,0,P|426:118|436:49,1,100,2|2,0:2|0:2,0:2:0:0:
458,14,26524,1,8,0:2:0:0:
358,8,26824,6,0,B|307:15|307:15|304:18|304:18|250:28,2,100,2|10|2,3:2|0:2|3:2,0:0:0:0:
334,105,27724,1,10,0:2:0:0:
250,160,28024,1,10,0:2:0:0:
183,85,28324,1,10,0:2:0:0:
83,78,28624,1,10,0:2:0:0:
33,164,28924,1,10,0:2:0:0:
74,254,29224,6,0,B|135:265|87:279|162:300,1,100,6|8,3:2|0:2,0:2:0:0:
209,308,29674,2,0,P|236:264|281:258,1,100,2|2,0:2|0:2,0:2:0:0:
322,229,30124,1,10,0:2:0:0:
381,309,30424,2,0,P|439:312|461:262,1,100,2|8,3:2|0:2,0:2:0:0:
494,244,30874,2,0,P|477:180|478:132,1,100,2|2,0:2|0:2,0:2:0:0:
458,101,31324,1,10,0:2:0:0:
369,146,31624,5,2,3:2:0:0:
289,85,31924,1,10,0:2:0:0:
213,150,32224,1,2,3:2:0:0:
269,232,32524,1,10,0:2:0:0:
213,315,32824,2,0,P|186:311|146:308,1,50,2|0,3:2|0:2,0:0:0:0:
116,290,33124,2,0,P|76:307|55:312,1,50,10|0,0:2|0:2,0:2:0:0:
26,333,33424,1,6,3:2:0:0:
0,236,33724,1,10,0:2:0:0:
65,160,34024,6,2,B|128:169|96:191|166:200,1,100,4|8,3:2|0:2,0:2:0:0:
200,219,34474,2,0,P|221:175|279:177,1,100,2|2,0:2|0:2,0:2:0:0:
311,146,34924,1,10,0:2:0:0:
399,192,35224,2,0,P|412:126|421:75,1,100,2|8,3:2|0:2,0:2:0:0:
457,62,35674,1,2,0:2:0:0:
494,160,35974,1,2,0:2:0:0:
494,160,36124,1,10,0:2:0:0:
399,192,36424,6,0,B|355:182|355:182|343:171|343:171|300:162,2,100,2|10|2,3:2|0:2|3:2,0:2:0:0:
394,292,37324,1,10,0:2:0:0:
296,270,37624,1,6,3:2:0:0:
227,342,37924,1,14,0:2:0:0:
135,300,38224,1,10,0:2:0:0:
167,205,38524,1,10,0:2:0:0:
260,169,38824,6,0,P|251:124|244:80,1,89.9999972534181,6|2,3:2|0:0,0:0:0:0:
173,24,39424,1,10,0:0:0:0:
102,77,39724,1,2,3:0:0:0:
102,77,39874,2,0,B|67:89|68:115|19:130,1,89.9999972534181,2|10,3:0|0:0,0:0:0:0:
5,165,40324,2,0,P|37:183|36:243,1,89.9999972534181,2|10,0:0|0:0,0:0:0:0:
8,316,40924,1,2,0:0:0:0:
80,369,41224,6,0,P|123:359|168:350,1,89.9999972534181,2|2,3:2|0:0,0:0:0:0:
243,300,41824,1,10,0:0:0:0:
313,355,42124,1,2,3:0:0:0:
313,355,42274,2,0,B|348:343|347:317|396:302,1,89.9999972534181,2|10,3:0|0:0,0:0:0:0:
431,310,42724,1,2,0:0:0:0:
494,245,43024,2,0,L|480:195,1,44.999998626709,10|2,0:0|0:0,0:0:0:0:
445,174,43324,2,0,L|451:127,1,44.999998626709,2|10,0:0|0:0,0:0:0:0:
464,86,43624,6,0,P|447:54|385:57,1,89.9999972534181,6|2,3:2|0:0,0:0:0:0:
311,76,44224,1,10,0:0:0:0:
319,165,44524,1,2,3:0:0:0:
319,165,44674,2,0,P|327:209|334:253,1,89.9999972534181,2|10,3:0|0:0,0:0:0:0:
341,298,45124,2,0,P|318:272|255:294,1,89.9999972534181,2|10,0:0|0:0,0:0:0:0:
196,334,45724,1,2,0:0:0:0:
124,278,46024,6,0,B|96:280|96:280|88:287|88:287|41:294,2,67.4999979400635,2|2|2,3:2|0:0|3:2,0:0:0:0:
140,236,46624,2,0,B|166:227|166:227|176:231|176:231|223:221,2,67.4999979400635,10|2|2,0:0|0:0|3:0,0:0:0:0:
103,209,47224,2,0,B|122:133|82:76|82:76|84:30|137:-2|181:41,1,269.999991760254,2|0,3:0|3:0,0:0:0:0:
233,107,48424,6,0,P|277:98|325:89,1,89.9999972534181,0|8,3:2|0:2,0:2:0:0:
388,29,49024,1,2,3:2:0:0:
460,81,49324,1,10,0:2:0:0:
425,164,49624,2,0,L|446:264,2,89.9999972534181,2|10|0,3:2|0:2|3:0,0:2:0:0:
460,81,50524,2,0,P|454:55|449:25,1,44.999998626709,10|2,0:2|3:2,0:0:0:0:
412,13,50824,6,0,P|359:6|324:27,1,89.9999972534181,2|10,3:2|0:2,0:2:0:0:
261,83,51424,1,2,3:2:0:0:
181,40,51724,1,8,0:2:0:0:
110,96,52024,2,0,P|64:93|2:89,2,89.9999972534181,0|8|0,3:0|0:2|3:2,0:0:0:0:
181,40,52924,2,0,P|203:42|230:45,1,44.999998626709,8|0,0:2|3:2,0:0:0:0:
265,24,53224,6,0,P|304:14|361:43,1,89.9999972534181,0|10,3:2|0:2,0:2:0:0:
420,86,53824,1,2,3:2:0:0:
371,162,54124,1,10,0:2:0:0:
447,210,54424,2,0,P|457:255|470:308,2,89.9999972534181,2|10|0,3:2|0:2|3:0,0:2:0:0:
371,162,55324,2,0,P|343:166|315:173,1,44.999998626709,8|2,0:2|3:2,0:0:0:0:
282,177,55624,5,2,3:2:0:0:
258,263,55924,1,10,0:2:0:0:
179,307,56224,2,0,P|132:300|86:296,1,89.9999972534181,2|10,3:2|0:2,0:2:0:0:
16,243,56824,6,0,B|-37:198|4:130|77:137|92:205,1,179.999994506836,8|0,0:2|3:2,0:2:0:0:
138,260,57724,1,8,0:2:0:0:
232,292,58024,6,0,B|285:305,1,50,6|2,3:2|0:2,0:0:0:0:
323,330,58324,2,0,B|376:317,1,50,10|2,0:2|0:2,0:0:0:0:
416,304,58624,2,0,L|432:363,2,50,2|2|10,3:2|0:2|0:2,0:2:0:0:
472,221,59224,1,2,3:2:0:0:
401,149,59524,1,10,0:2:0:0:
473,80,59824,1,2,3:2:0:0:
398,13,60124,1,10,0:2:0:0:
398,13,60274,6,0,B|348:32|362:53|310:66,1,100,2|2,0:2|0:2,0:2:0:0:
225,30,60874,1,2,0:2:0:0:
225,30,61024,1,2,3:2:0:0:
155,101,61324,1,10,0:2:0:0:
235,160,61624,2,0,L|247:214,1,50,6|2,3:2|0:2,0:0:0:0:
224,256,61924,1,12,0:2:0:0:
224,256,62074,2,0,P|182:272|118:243,1,100,2|0,0:2|0:2,0:2:0:0:
90,227,62524,2,0,L|97:170,1,50,12|0,0:2|3:2,0:0:0:0:
67,136,62824,5,6,3:2:0:0:
123,53,63124,1,10,0:2:0:0:
209,102,63424,1,2,3:2:0:0:
295,51,63724,1,10,0:2:0:0:
369,117,64024,2,2,B|419:136|405:157|457:170,1,100,2|10,3:2|0:2,0:2:0:0:
501,157,64474,2,0,P|474:167|463:240,1,100,2|2,0:2|0:2,0:2:0:0:
479,275,64924,1,10,0:2:0:0:
418,354,65224,6,0,B|449:355|449:355|482:376|482:376|525:376,2,100,2|10|2,3:2|0:2|3:2,0:0:0:0:
333,301,66124,1,10,0:2:0:0:
259,368,66424,1,10,0:2:0:0:
171,319,66724,1,10,0:2:0:0:
207,225,67024,1,10,0:2:0:0:
139,151,67324,1,10,0:2:0:0:
212,82,67624,6,0,B|162:63|176:42|124:29,1,100,6|8,3:2|0:2,0:2:0:0:
78,39,68074,2,0,P|49:28|-1:77,1,100,2|2,0:2|0:2,0:2:0:0:
13,115,68524,1,10,0:2:0:0:
4,214,68824,2,0,P|54:214|102:228,1,100,2|8,3:2|0:2,0:2:0:0:
134,267,69274,2,0,P|169:298|213:282,1,100,2|2,0:2|0:2,0:2:0:0:
243,241,69724,1,10,0:2:0:0:
319,176,70024,5,2,3:2:0:0:
415,201,70324,1,10,0:2:0:0:
439,297,70624,1,2,3:2:0:0:
368,368,70924,1,10,0:2:0:0:
274,332,71224,2,0,L|207:343,1,50,2|0,3:2|0:2,0:0:0:0:
182,366,71524,2,0,L|115:355,1,50,10|0,0:2|0:2,0:2:0:0:
84,344,71824,1,6,3:2:0:0:
26,262,72124,1,10,0:2:0:0:
100,195,72424,6,2,B|102:141|126:148|123:94,1,100,4|8,3:2|0:2,0:2:0:0:
115,49,72874,2,0,P|152:20|207:52,1,100,2|2,0:2|0:2,0:2:0:0:
236,67,73324,1,10,0:2:0:0:
301,142,73624,2,0,P|283:185|272:247,1,100,2|8,3:2|0:2,0:2:0:0:
264,287,74074,2,0,P|309:266|354:284,1,100,2|2,0:2|0:2,0:2:0:0:
397,309,74524,1,10,0:2:0:0:
474,246,74824,6,0,P|492:289|503:351,2,100,2|10|2,3:2|0:2|3:2,0:2:0:0:
400,177,75724,1,10,0:2:0:0:
470,106,76024,1,6,3:2:0:0:
416,21,76324,1,14,0:2:0:0:
321,52,76624,1,10,0:2:0:0:
232,5,76924,1,14,0:2:0:0:
151,64,77224,6,0,B|116:68|91:37|91:37|84:76|48:93,1,134.999995880127,4|0,3:2|3:0,0:0:0:0:
22,120,77824,1,8,0:0:0:0:
91,177,78124,1,0,3:0:0:0:
49,256,78424,2,0,B|82:262|82:262|117:295|117:295|176:307,1,134.999995880127,0|0,3:2|3:0,0:0:0:0:
205,331,79024,2,0,P|231:297|285:298,1,89.9999972534181,8|0,0:0|3:0,0:0:0:0:
364,281,79624,6,0,P|359:257|357:226,1,44.999998626709,0|8,3:2|0:0,0:0:0:0:
335,197,79924,2,0,P|343:167|344:135,1,44.999998626709,0|0,3:0|3:0,0:0:0:0:
361,111,80224,1,8,0:0:0:0:
292,52,80524,2,0,L|238:60,1,44.999998626709,0|0,3:0|0:0,0:0:0:0:
210,84,80824,1,8,0:0:0:0:
255,161,82024,5,0,3:2:0:0:
189,222,82324,1,2,0:2:0:0:
110,177,82624,1,2,0:2:0:0:
56,249,82924,2,0,P|62:282|65:302,1,44.999998626709,0|2,0:0|3:2,0:0:0:0:
78,335,83224,2,0,P|71:361|65:400,2,44.999998626709,2|2|2,0:2|3:2|0:2,0:0:0:0:
164,310,83824,1,2,3:2:0:0:
237,371,84124,1,2,3:2:0:0:
237,371,84274,1,2,0:2:0:0:
321,335,84574,5,2,3:2:0:0:
321,335,84724,2,0,L|376:344,1,44.999998626709,2|2,0:2|3:2,0:0:0:0:
407,358,85024,1,2,0:2:0:0:
454,281,85324,1,2,0:2:0:0:
388,219,85624,2,0,B|361:192|361:192|374:122,1,89.9999972534181,2|2,0:2|0:2,0:0:0:0:
411,60,86224,6,0,B|447:52|447:52|461:38|461:38|510:25,2,89.9999972534181,2|2|0,3:2|3:2|3:2,0:2:0:0:
372,49,86974,1,2,3:2:0:0:
372,49,87124,2,0,L|316:38,1,44.999998626709,10|2,0:2|3:2,0:0:0:0:
288,61,87424,1,2,0:2:0:0:
200,38,87724,1,10,0:2:0:0:
160,119,88024,1,2,0:2:0:0:
222,184,88324,1,10,0:2:0:0:
174,260,88624,2,0,B|149:273|149:273|83:257,1,89.9999972534181,2|10,3:2|0:2,0:2:0:0:
30,190,89224,5,10,3:2:0:0:
71,110,89524,1,10,3:2:0:0:
160,119,89824,1,10,3:2:0:0:
221,53,90124,1,10,3:2:0:0:
146,3,90424,1,10,3:2:0:0:
512,25,91624,6,0,L|508:86,1,50,6|2,3:2|0:2,0:0:0:0:
472,109,91924,2,0,L|468:170,1,50,10|2,0:2|0:2,0:0:0:0:
467,209,92224,1,2,3:2:0:0:
386,267,92524,2,0,L|370:210,1,50,10|0,0:2|0:2,0:2:0:0:
356,171,92824,1,2,3:2:0:0:
272,116,93124,1,10,0:2:0:0:
192,176,93424,1,2,3:2:0:0:
103,129,93724,1,10,0:2:0:0:
103,129,93874,6,0,B|85:174|107:175|81:229,1,100,2|2,0:2|0:2,0:2:0:0:
39,318,94474,1,2,0:2:0:0:
39,318,94624,1,2,3:2:0:0:
123,371,94924,1,10,0:2:0:0:
205,314,95224,2,0,L|273:328,1,50,6|2,3:2|0:2,0:0:0:0:
302,350,95524,1,12,0:2:0:0:
302,350,95674,2,0,B|368:337|328:313|402:302,1,100,2|0,0:2|0:2,0:2:0:0:
435,320,96124,1,12,0:2:0:0:
497,241,96424,5,6,3:2:0:0:
437,160,96724,1,10,0:2:0:0:
501,83,97024,1,2,3:2:0:0:
426,15,97324,1,10,0:2:0:0:
335,56,97624,2,2,B|294:64|294:64|283:77|283:77|236:85,1,100,2|10,3:2|0:2,0:2:0:0:
195,64,98074,2,0,P|158:32|109:37,1,100,2|2,0:2|0:2,0:2:0:0:
66,63,98524,1,8,0:2:0:0:
13,148,98824,6,0,B|39:187|1:206|31:255,2,100,2|10|2,3:2|0:2|3:2,0:0:0:0:
104,188,99724,1,10,0:2:0:0:
192,141,100024,1,10,0:2:0:0:
266,207,100324,1,10,0:2:0:0:
346,147,100624,1,10,0:2:0:0:
436,189,100924,1,10,0:2:0:0:
460,285,101224,6,0,B|421:305|421:305|414:319|414:319|358:344,1,100,6|8,3:2|0:2,0:2:0:0:
338,367,101674,2,0,P|295:343|246:338,1,100,2|2,0:2|0:2,0:2:0:0:
196,346,102124,1,10,0:2:0:0:
102,380,102424,2,0,B|84:341|112:325|89:283,1,100,2|8,3:2|0:2,0:2:0:0:
61,240,102874,2,0,P|85:222|67:149,1,100,2|2,0:2|0:2,0:2:0:0:
45,121,103324,1,10,0:2:0:0:
109,44,103624,5,2,3:2:0:0:
197,90,103924,1,10,0:2:0:0:
182,188,104224,1,2,3:2:0:0:
269,236,104524,1,10,0:2:0:0:
347,174,104824,2,0,B|336:137|336:137|342:115|342:115|324:65,1,100,2|10,3:2|0:2,0:0:0:0:
348,32,105274,1,0,0:2:0:0:
348,31,105424,2,0,P|392:15|430:45,1,100,6|10,3:2|0:2,0:0:0:0:
501,115,106024,6,2,P|495:164|490:214,1,100,4|8,3:2|0:2,0:2:0:0:
488,264,106474,2,0,P|447:238|403:270,1,100,2|2,0:2|0:2,0:2:0:0:
384,306,106924,1,10,0:2:0:0:
310,374,107224,2,0,P|276:362|261:298,1,100,2|8,3:2|0:2,0:2:0:0:
277,258,107674,1,2,0:2:0:0:
206,194,107974,1,2,0:2:0:0:
206,194,108124,1,10,0:2:0:0:
141,270,108424,6,0,B|103:277|103:277|88:291|88:291|41:299,2,100,2|10|2,3:2|0:2|3:2,0:2:0:0:
206,194,109324,1,10,0:2:0:0:
113,155,109624,2,0,L|99:101,1,50,8|8,0:2|0:2,0:2:0:0:
59,77,109924,2,0,L|76:24,1,50,8|8,0:2|0:2,0:2:0:0:
120,9,110224,1,0,3:2:0:0:
200,68,110524,1,8,0:0:0:0:
281,10,110824,6,0,B|346:22|304:39|373:53,1,100,2|14,0:0|0:0,0:0:0:0:
468,35,111424,2,0,B|447:80|443:136,1,100,2|14,0:0|0:0,0:0:0:0:
349,166,112024,2,0,B|390:191|414:259,1,100,2|14,0:0|0:0,0:0:0:0:
448,335,112624,1,10,3:2:0:0:
362,383,112924,1,14,0:0:0:0:
362,383,113074,6,0,B|327:372|327:372|316:359|316:359|260:346,1,100,2|2,3:2|0:2,0:2:0:0:
174,322,113674,1,2,0:2:0:0:
174,322,113824,1,2,3:2:0:0:
82,361,114124,2,0,P|76:334|65:308,1,50,10|2,0:2|0:2,0:0:0:0:
36,273,114424,2,0,P|41:250|45:221,1,50,6|2,3:2|0:2,0:0:0:0:
79,187,114724,1,12,0:2:0:0:
79,187,114874,2,0,L|60:84,1,100,2|0,0:2|0:2,0:2:0:0:
93,50,115324,1,12,0:2:0:0:
190,71,115624,6,0,B|229:78|229:78|248:98|248:98|296:106,2,100,6|10|2,3:2|0:2|3:2,0:2:0:0:
160,166,116524,1,10,0:2:0:0:
233,233,116824,2,2,L|346:213,1,100,2|10,3:2|0:2,0:2:0:0:
374,189,117274,1,2,0:2:0:0:
454,257,117574,1,2,0:2:0:0:
454,257,117724,2,0,L|466:311,1,50,10|2,0:2|0:2,0:0:0:0:
445,351,118024,5,2,3:2:0:0:
353,309,118324,1,10,0:2:0:0:
269,363,118624,1,2,3:2:0:0:
193,297,118924,1,10,0:2:0:0:
249,214,119224,1,10,0:2:0:0:
206,123,119524,1,10,0:2:0:0:
115,165,119824,2,0,B|77:155|77:155|64:139|64:139|24:127,1,100,10|10,0:2|0:2,0:0:0:0:
57,32,120424,6,0,B|107:28|107:28|111:23|111:23|166:19,1,100,6|8,3:2|0:2,0:2:0:0:
199,41,120874,1,2,0:2:0:0:
299,18,121174,1,2,0:2:0:0:
299,18,121324,2,0,P|328:18|350:29,1,50,10|2,0:2|0:2,0:0:0:0:
383,60,121624,2,0,B|371:97|371:97|360:106|360:106|349:167,1,100,2|8,3:2|0:2,0:2:0:0:
321,191,122074,1,2,0:2:0:0:
233,155,122374,1,2,0:2:0:0:
233,155,122524,2,0,L|168:150,1,50,10|2,0:2|0:2,0:0:0:0:
145,184,122824,5,2,3:2:0:0:
47,160,123124,1,10,0:2:0:0:
1,249,123424,1,2,3:2:0:0:
67,324,123724,1,10,0:2:0:0:
156,278,124024,1,2,3:2:0:0:
244,325,124324,1,10,0:2:0:0:
321,261,124624,2,0,B|316:222|316:222|295:201|295:201|287:157,1,100,6|10,3:2|0:2,0:0:0:0:
254,76,125224,6,2,P|310:47|347:75,1,100,4|8,3:2|0:2,0:2:0:0:
379,90,125674,1,2,0:2:0:0:
479,68,125974,1,2,3:2:0:0:
479,68,126124,2,0,L|488:125,1,50,10|2,0:2|3:2,0:0:0:0:
480,167,126424,2,0,B|475:222|475:222|478:226|478:226|477:285,1,100,2|8,3:2|0:2,0:2:0:0:
503,308,126874,1,2,0:2:0:0:
418,361,127174,1,2,3:2:0:0:
418,361,127324,2,0,L|365:344,1,50,10|2,0:2|0:2,0:0:0:0:
334,311,127624,5,2,3:2:0:0:
245,358,127924,1,10,0:2:0:0:
170,291,128224,1,2,3:2:0:0:
77,329,128524,1,10,0:2:0:0:
13,251,128824,1,6,3:2:0:0:
74,171,129124,1,14,0:2:0:0:
170,198,129424,1,10,0:2:0:0:
229,117,129724,1,14,0:2:0:0:
172,34,130024,6,0,P|260:20|350:11,2,179.999994506836,6|6|6,3:2|3:2|3:2,0:2:0:0:
49,84,131674,1,2,3:2:0:0:
49,84,131824,1,2,3:2:0:0:
104,154,132124,1,2,3:2:0:0:
45,222,132424,5,6,3:2:0:0:
256,192,132574,12,0,134674,0:2:0:0:
