osu file format v14

[General]
AudioFilename: audio.mp3
AudioLeadIn: 0
PreviewTime: 110888
Countdown: 0
SampleSet: Soft
StackLeniency: 0.5
Mode: 0
LetterboxInBreaks: 0
WidescreenStoryboard: 0

[Editor]
Bookmarks: 107663,108263,134963
DistanceSpacing: 0.3
BeatDivisor: 4
GridSize: 32
TimelineZoom: 2.1

[Metadata]
Title:oyasumi
TitleUnicode:oyasumi
Artist:Shiggy Jr.
ArtistUnicode:Shiggy Jr.
Creator:Yogurtt
Version:extra
Source:
Tags:listen to the music jpop japanese pop おやすみ tomoko ikeda 池田 智子 shigeyuki harada 原田 茂幸 natsuhiko mori 森 夏彦 kazma moroishi 諸石 和馬
BeatmapID:1487817
BeatmapSetID:703207

[Difficulty]
HPDrainRate:4.6
CircleSize:4.3
OverallDifficulty:9
ApproachRate:9.5
SliderMultiplier:1.88
SliderTickRate:1

[Events]
//Background and Video events
0,0,"sefdsfdsfs.jpg",0,0
//Break Periods
2,10363,11738
2,12763,14138
2,15313,16838
2,48763,50138
2,51163,52538
2,53563,54938
2,77637,81338
//Storyboard Layer 0 (Background)
//Storyboard Layer 1 (Fail)
//Storyboard Layer 2 (Pass)
//Storyboard Layer 3 (Foreground)
//Storyboard Sound Samples

[TimingPoints]
563,300,4,2,1,50,1,0
18563,-100,4,2,1,30,0,0
18863,-100,4,2,1,50,0,0
19163,-100,4,2,1,70,0,0
19463,-166.666666666667,4,2,1,50,0,0
19763,-90.9090909090909,4,2,1,80,0,1
21638,-90.9090909090909,4,2,1,5,0,1
21713,-76.9230769230769,4,2,1,80,0,1
21788,-76.9230769230769,4,2,1,5,0,1
21863,-66.6666666666667,4,2,1,80,0,1
21938,-66.6666666666667,4,2,1,5,0,1
22013,-66.6666666666667,4,2,1,80,0,1
22163,-90.9090909090909,4,2,1,80,0,1
38663,-166.666666666667,4,2,1,80,0,1
38963,-90.9090909090909,4,2,2,80,0,0
50663,-90.9090909090909,4,2,1,80,0,0
56963,-66.6666666666667,4,2,1,30,0,0
57263,-66.6666666666667,4,2,1,50,0,0
57563,-66.6666666666667,4,2,1,70,0,0
57863,-166.666666666667,4,2,1,80,0,0
58163,-83.3333333333333,4,2,1,80,0,1
60113,-71.4285714285714,4,2,1,80,0,1
60263,-62.5,4,2,1,80,0,1
60413,-83.3333333333333,4,2,1,80,0,1
77363,-100,4,2,1,40,0,0
81863,-200,4,2,1,40,0,0
86963,-153.846153846153,4,2,1,40,0,0
89363,-117.647058823529,4,2,1,40,0,0
89588,-117.647058823529,4,2,1,5,0,0
89663,-90.9090909090909,4,2,1,50,0,0
89888,-90.9090909090909,4,2,1,5,0,0
89963,-71.4285714285714,4,2,1,60,0,0
90188,-71.4285714285714,4,2,1,5,0,0
90263,-58.8235294117647,4,2,1,70,0,0
90488,-58.8235294117647,4,2,1,5,0,0
90563,-50,4,2,1,80,0,0
90863,-50,4,2,1,5,0,0
91763,-83.3333333333333,4,2,1,80,0,1
93713,-71.4285714285714,4,2,1,80,0,1
93863,-62.5,4,2,1,80,0,1
94013,-83.3333333333333,4,2,1,80,0,1
110963,-200,4,2,1,80,0,0
111263,-66.6666666666667,4,2,1,80,0,1
111338,-66.6666666666667,4,2,1,80,0,0
111563,-200,4,2,1,80,0,0
111863,-66.6666666666667,4,2,1,80,0,1
111938,-66.6666666666667,4,2,1,80,0,0
112163,-200,4,2,1,80,0,0
112463,-66.6666666666667,4,2,1,80,0,1
113063,-76.9230769230769,4,2,1,80,0,1
129863,-166.666666666667,4,2,1,80,0,1
130088,-100,4,2,1,80,0,0
130163,-66.6666666666667,4,2,1,80,0,1
130238,-100,4,2,1,80,0,0
130763,-66.6666666666667,4,2,1,80,0,1
130838,-100,4,2,1,80,0,0
131363,-66.6666666666667,4,2,1,80,0,1
131438,-100,4,2,1,80,0,0
132563,-200,4,2,1,80,0,0

[HitObjects]
311,137,563,5,0,0:0:0:0:
311,137,863,2,0,B|327:207|327:207|315:251|315:251|338:329,1,188
210,10,1313,2,0,B|194:80|194:80|206:124|206:124|183:202,1,188
154,303,1763,6,0,L|38:293,1,94
279,183,2063,2,0,L|185:191,1,94
334,318,2363,2,0,P|377:295|438:321,1,94
386,23,2663,2,0,B|360:69|360:69|374:178,1,141
380,228,2963,5,0,0:0:0:0:
380,228,3263,2,0,L|171:238,1,188
110,74,3713,2,0,P|175:51|199:149,1,188
55,240,4163,6,0,P|63:294|68:355,1,94
203,143,4463,2,0,P|195:197|190:258,1,94
327,317,4763,2,0,B|404:379|486:319|486:319|482:239|387:249,1,282
316,327,5363,5,0,0:0:0:0:
316,327,5663,2,0,P|324:227|329:109,1,188
321,16,6113,1,0,0:0:0:0:
194,237,6263,2,0,P|188:186|178:105,1,94
61,23,6563,6,0,P|55:69|50:116,1,94
117,291,6863,2,0,P|159:325|265:304,1,141
310,284,7163,1,0,0:0:0:0:
194,237,7313,1,0,0:0:0:0:
332,194,7463,1,0,0:0:0:0:
332,194,7613,1,0,0:0:0:0:
121,137,7763,5,0,0:0:0:0:
121,137,8063,2,0,B|151:100|212:91|212:91|271:113|248:189,1,188
194,237,8513,1,0,0:0:0:0:
349,22,8663,2,0,L|339:117,1,94
423,358,8963,6,0,P|379:345|318:363,1,94
89,296,9263,2,0,P|135:302|172:330,1,94
404,193,9563,2,0,P|318:204|278:289,1,188
277,288,10013,1,0,0:0:0:0:
210,97,10163,5,0,0:0:0:0:
86,96,12263,5,2,0:0:0:0:
335,185,12413,1,2,0:0:0:0:
188,57,12563,1,2,0:0:0:0:
188,57,14663,5,2,0:0:0:0:
106,293,14813,1,2,0:0:0:0:
311,105,14963,1,2,0:0:0:0:
314,354,15113,1,2,0:0:0:0:
66,204,17363,5,2,0:0:0:0:
365,153,17513,2,0,P|307:150|256:142,1,94,2|0,0:0|0:0,0:0:0:0:
59,72,17813,2,0,P|117:69|168:61,2,94,2|0|0,0:0|0:0|0:0,0:0:0:0:
230,235,18263,2,0,P|277:242|324:244,1,94,2|0,0:0|0:0,0:0:0:0:
512,85,18563,5,8,0:0:0:0:
470,64,18638,1,8,0:0:0:0:
424,72,18713,1,8,0:0:0:0:
391,104,18788,1,8,0:0:0:0:
352,150,18863,5,8,0:0:0:0:
294,171,18938,1,8,0:0:0:0:
232,163,19013,1,8,0:0:0:0:
183,125,19088,1,8,0:0:0:0:
171,47,19163,5,8,0:0:0:0:
248,52,19238,1,8,0:0:0:0:
296,112,19313,1,8,0:0:0:0:
287,188,19388,1,8,0:0:0:0:
226,235,19463,6,0,L|129:222,1,84.599997418213,8|0,0:0|0:0,0:0:0:0:
25,259,19763,6,0,L|170:248,1,103.400003155518,4|0,0:1|0:0,0:0:0:0:
390,195,20063,2,0,L|287:188,1,103.400003155518,8|0,0:0|0:0,0:0:0:0:
121,343,20363,1,2,0:0:0:0:
325,300,20513,1,0,0:0:0:0:
142,223,20663,1,8,0:0:0:0:
239,31,20813,1,0,0:0:0:0:
239,31,20888,1,0,0:0:0:0:
239,31,20963,6,0,P|229:100|211:155,1,103.400003155518,2|0,0:0|0:0,0:0:0:0:
325,300,21263,2,0,P|311:250|305:198,1,103.400003155518,8|0,0:0|0:0,0:0:0:0:
462,59,21563,6,0,L|384:46,1,51.7000015777588,8|0,0:0|0:0,0:0:0:0:
305,198,21713,6,0,L|226:212,1,61.0999972030641,8|0,0:0|0:0,0:0:0:0:
159,30,21863,6,0,L|53:9,1,70.5000026893617,8|0,0:0|0:0,0:0:0:0:
3,256,22013,5,2,0:0:0:0:
132,170,22163,1,0,0:0:0:0:
36,369,22313,1,0,0:0:0:0:
80,87,22463,1,10,0:0:0:0:
184,253,22613,1,0,0:0:0:0:
187,257,22688,1,0,0:0:0:0:
190,261,22763,2,0,P|246:253|301:249,1,103.400003155518,2|0,0:0|0:0,0:0:0:0:
474,125,23063,2,0,P|434:94|357:132,1,103.400003155518,10|0,0:0|0:0,0:0:0:0:
308,376,23363,5,2,0:0:0:0:
255,171,23513,2,0,L|271:53,1,103.400003155518,0|8,0:0|0:0,0:0:0:0:
106,320,23813,1,0,0:0:0:0:
106,320,23888,1,0,0:0:0:0:
106,320,23963,2,0,L|178:309,1,51.7000015777588,2|0,0:0|0:0,0:0:0:0:
306,178,24113,1,0,0:0:0:0:
306,178,24188,1,0,0:0:0:0:
306,178,24263,2,0,L|234:167,1,51.7000015777588,8|0,0:0|0:0,0:0:0:0:
308,376,24413,2,0,L|380:365,1,51.7000015777588
478,142,24563,5,6,0:0:0:0:
431,302,24713,1,0,0:0:0:0:
478,142,24863,1,8,0:0:0:0:
507,368,25013,1,0,0:0:0:0:
357,178,25163,2,0,L|226:168,1,103.400003155518,2|0,0:0|0:0,0:0:0:0:
39,78,25463,2,0,P|102:54|143:92,1,103.400003155518,8|0,0:0|0:0,0:0:0:0:
240,267,25763,6,0,L|87:292,1,155.100004733277,2|0,0:0|0:0,0:0:0:0:
6,307,26063,1,8,0:0:0:0:
167,193,26213,2,0,L|152:80,1,103.400003155518,0|2,0:0|0:0,0:0:0:0:
421,150,26513,2,0,L|433:220,1,51.7000015777588,8|0,0:0|0:0,0:0:0:0:
271,96,26663,2,0,L|259:166,1,51.7000015777588,8|0,0:0|0:0,0:0:0:0:
436,19,26813,2,0,L|448:89,1,51.7000015777588,8|0,0:0|0:0,0:0:0:0:
366,379,26963,6,0,B|351:298|351:298|367:258|367:258|345:176,1,206.800006311035,6|8,0:0|0:0,0:0:0:0:
289,18,27413,1,0,0:0:0:0:
169,169,27563,2,0,P|189:261|298:215,1,206.800006311035,6|8,0:0|0:0,0:0:0:0:
417,97,28013,1,0,0:0:0:0:
417,107,28088,1,0,0:0:0:0:
418,117,28163,6,0,L|423:169,1,51.7000015777588,6|0,0:0|0:0,0:0:0:0:
366,379,28313,2,0,L|371:327,1,51.7000015777588
275,130,28463,1,14,0:0:0:0:
188,363,28613,1,0,0:0:0:0:
102,122,28763,1,6,0:0:0:0:
350,238,28913,1,0,0:0:0:0:
66,330,29063,1,14,0:0:0:0:
350,238,29213,1,0,0:0:0:0:
116,34,29363,6,0,B|184:11|184:11|196:165,1,206.800006311035,6|8,0:0|0:0,0:0:0:0:
207,348,29813,2,0,L|321:337,1,103.400003155518,0|2,0:0|0:0,0:0:0:0:
462,135,30113,1,0,0:0:0:0:
321,218,30263,1,8,2:0:0:0:
378,82,30413,1,0,0:0:0:0:
512,242,30563,6,0,L|400:259,1,103.400003155518,6|0,0:0|0:0,0:0:0:0:
255,288,30863,1,8,0:0:0:0:
462,135,31013,2,0,L|288:96,1,155.100004733277,2|0,0:0|0:0,0:0:0:0:
200,68,31313,2,0,L|223:144,1,51.7000015777588,8|0,0:0|0:0,0:0:0:0:
385,200,31463,2,0,L|307:181,1,51.7000015777588,8|0,0:0|0:0,0:0:0:0:
178,294,31613,2,0,L|232:236,1,51.7000015777588,8|0,0:0|0:0,0:0:0:0:
209,43,31763,5,6,0:0:0:0:
339,280,31913,1,0,0:0:0:0:
116,202,32063,1,10,0:0:0:0:
385,66,32213,1,0,0:0:0:0:
214,255,32363,1,6,0:0:0:0:
316,22,32513,1,0,0:0:0:0:
498,104,32663,1,10,0:0:0:0:
196,171,32813,1,0,0:0:0:0:
196,171,32888,1,0,0:0:0:0:
196,171,32963,6,0,L|207:96,1,51.7000015777588,6|0,0:0|0:0,0:0:0:0:
68,4,33113,2,0,L|75:55,1,51.7000015777588
164,267,33263,1,14,0:0:0:0:
31,172,33413,1,0,0:0:0:0:
118,371,33563,1,6,0:0:0:0:
203,119,33713,1,0,0:0:0:0:
6,285,33863,1,14,0:0:0:0:
203,119,34013,1,0,0:0:0:0:
341,339,34163,6,0,B|401:301|474:313|474:313|509:335|514:389,1,206.800006311035,6|8,0:0|0:0,0:0:0:0:
210,362,34613,2,0,P|181:309|213:248,1,103.400003155518,0|2,0:0|0:0,0:0:0:0:
366,167,34913,1,0,0:0:0:0:
203,119,35063,1,8,0:0:0:0:
323,265,35213,1,0,0:0:0:0:
123,100,35363,6,0,L|108:228,1,103.400003155518,6|0,0:0|0:0,0:0:0:0:
97,307,35663,1,8,0:0:0:0:
271,24,35813,2,0,L|290:185,1,155.100004733277,2|0,0:0|0:0,0:0:0:0:
303,274,36113,2,0,L|383:254,1,51.7000015777588,8|0,0:0|0:0,0:0:0:0:
218,143,36263,2,0,L|268:155,1,51.7000015777588,8|0,0:0|0:0,0:0:0:0:
116,291,36413,2,0,L|196:271,1,51.7000015777588,8|0,0:0|0:0,0:0:0:0:
366,107,36563,5,6,0:0:0:0:
222,337,36713,1,0,0:0:0:0:
101,162,36863,1,10,0:0:0:0:
353,261,37013,1,0,0:0:0:0:
199,13,37163,1,6,0:0:0:0:
204,64,37238,1,0,0:0:0:0:
209,115,37313,1,0,0:0:0:0:
234,351,37463,1,10,0:0:0:0:
361,152,37613,1,0,0:0:0:0:
108,318,37763,5,6,0:0:0:0:
371,375,37913,1,0,0:0:0:0:
74,247,38063,5,14,0:0:0:0:
426,257,38213,1,0,0:0:0:0:
39,179,38363,5,6,0:0:0:0:
442,134,38513,1,0,0:0:0:0:
159,25,38663,6,0,P|184:68|175:125,1,84.599997418213,14|0,0:0|0:0,0:0:0:0:
168,144,38963,6,0,P|192:94|180:42,1,103.400003155518,4|0,0:0|0:0,0:0:0:0:
74,247,39263,1,8,0:0:0:0:
88,249,39413,1,0,0:0:0:0:
281,127,39563,2,0,L|268:240,1,103.400003155518,2|0,0:0|0:0,0:0:0:0:
102,251,39863,1,8,0:0:0:0:
269,229,40013,6,0,L|282:342,1,103.400003155518,0|2,0:0|0:0,0:0:0:0:
398,165,40313,2,0,L|385:278,1,103.400003155518,0|8,0:0|0:0,0:0:0:0:
116,253,40613,1,0,0:0:0:0:
130,255,40763,1,2,0:0:0:0:
289,61,40913,2,0,B|243:78|179:49|179:49|227:80|227:146,1,206.800006311035,8|0,0:0|0:0,0:0:0:0:
208,323,41363,6,0,L|335:308,1,103.400003155518,2|0,0:0|0:0,0:0:0:0:
465,178,41663,1,8,0:0:0:0:
454,180,41813,1,0,0:0:0:0:
165,186,41963,2,0,L|267:198,1,103.400003155518,2|0,0:0|0:0,0:0:0:0:
443,182,42263,1,8,0:0:0:0:
208,91,42413,6,0,L|105:103,1,103.400003155518,0|2,0:0|0:0,0:0:0:0:
10,243,42713,2,0,P|68:273|123:242,1,103.400003155518,0|8,0:0|0:0,0:0:0:0:
432,184,43013,1,0,0:0:0:0:
421,186,43163,1,2,0:0:0:0:
249,162,43313,1,0,0:0:0:0:
410,188,43463,1,8,0:0:0:0:
225,291,43613,1,0,0:0:0:0:
309,42,43763,6,0,B|336:90|336:90|320:153,1,103.400003155518,2|0,0:0|0:0,0:0:0:0:
324,136,43988,1,0,0:0:0:0:
324,136,44063,1,8,0:0:0:0:
178,220,44213,1,0,0:0:0:0:
73,194,44363,2,0,P|125:201|191:216,1,103.400003155518,2|0,0:0|0:0,0:0:0:0:
237,79,44663,1,8,0:0:0:0:
237,79,44813,6,0,P|185:86|119:101,1,103.400003155518,0|2,0:0|0:0,0:0:0:0:
251,261,45113,2,0,P|314:273|349:239,1,103.400003155518,0|8,0:0|0:0,0:0:0:0:
430,72,45413,1,0,0:0:0:0:
428,78,45563,1,2,0:0:0:0:
496,238,45713,1,0,0:0:0:0:
426,84,45863,2,0,L|259:68,1,155.100004733277,8|0,0:0|0:0,0:0:0:0:
185,60,46163,5,6,0:0:0:0:
291,140,46313,1,0,0:0:0:0:
116,210,46463,1,10,0:0:0:0:
116,210,46538,1,0,0:0:0:0:
116,210,46613,1,0,0:0:0:0:
174,35,46763,1,2,0:0:0:0:
259,279,46913,1,0,0:0:0:0:
62,136,47063,1,10,0:0:0:0:
62,136,47138,1,0,0:0:0:0:
62,136,47213,1,0,0:0:0:0:
308,16,47363,5,2,0:0:0:0:
128,288,47513,2,0,L|117:218,1,51.7000015777588,8|0,0:0|0:0,0:0:0:0:
224,128,47663,2,0,L|232:76,1,51.7000015777588,8|0,0:0|0:0,0:0:0:0:
282,186,47813,2,0,L|322:218,1,51.7000015777588,8|0,0:0|0:0,0:0:0:0:
121,127,47963,2,0,L|72:145,1,51.7000015777588,8|0,0:0|0:0,0:0:0:0:
396,12,48113,2,0,L|385:114,2,103.400003155518,2|0|0,0:0|0:0|0:0,0:0:0:0:
186,260,48563,5,2,0:0:0:0:
146,328,50663,5,2,0:0:0:0:
345,240,50813,1,2,0:0:0:0:
108,146,50963,1,2,0:0:0:0:
284,71,53063,5,2,0:0:0:0:
146,328,53213,1,2,0:0:0:0:
321,211,53363,1,2,0:0:0:0:
336,261,55463,5,2,0:0:0:0:
111,175,55613,2,0,P|184:157|242:131,1,103.400003155518,2|0,0:0|0:0,0:0:0:0:
341,59,55913,2,0,P|414:77|472:103,2,103.400003155518,2|0|0,0:0|0:0|0:0,0:0:0:0:
467,250,56363,2,0,P|414:304|363:341,1,103.400003155518,2|0,0:0|0:0,0:0:0:0:
238,263,56663,2,0,P|217:190|210:127,1,103.400003155518,2|0,0:0|0:0,0:0:0:0:
420,337,56963,6,8,L|325:327,1,70.5000026893617,8|8,0:0|0:0,0:0:0:0:
77,294,57113,2,8,L|172:284,1,70.5000026893617,8|8,0:0|0:0,0:0:0:0:
448,256,57263,6,8,L|355:249,1,70.5000026893617,8|8,0:0|0:0,0:0:0:0:
32,190,57413,2,8,L|127:180,1,70.5000026893617,8|8,0:0|0:0,0:0:0:0:
478,181,57563,6,8,L|383:171,1,70.5000026893617,8|8,0:0|0:0,0:0:0:0:
0,92,57713,2,8,L|95:82,1,70.5000026893617,8|8,0:0|0:0,0:0:0:0:
282,4,57863,6,0,L|271:113,1,84.599997418213,8|0,0:0|0:0,0:0:0:0:
282,4,58163,6,0,L|292:148,1,112.799996557617,4|0,0:1|0:0,0:0:0:0:
264,319,58463,2,0,P|202:343|144:321,1,112.799996557617,8|0,0:0|0:0,0:0:0:0:
56,128,58763,1,2,0:0:0:0:
8,267,58913,1,0,0:0:0:0:
0,48,59063,1,8,0:0:0:0:
201,160,59213,1,0,0:0:0:0:
201,160,59288,1,0,0:0:0:0:
201,160,59363,6,0,P|264:137|325:125,1,112.799996557617,2|0,0:0|0:0,0:0:0:0:
512,286,59663,2,0,P|449:263|388:251,1,112.799996557617,8|0,0:0|0:0,0:0:0:0:
112,355,59963,2,0,L|101:274,1,56.3999982788086,10|0,0:0|0:0,0:0:0:0:
201,160,60113,6,0,P|219:199|212:241,1,65.7999979919434,8|0,0:0|0:0,0:0:0:0:
2,193,60263,6,0,L|15:103,1,75.2,8|0,0:0|0:0,0:0:0:0:
146,4,60413,5,2,0:0:0:0:
92,222,60563,1,0,0:0:0:0:
294,119,60713,1,0,0:0:0:0:
89,139,60863,1,10,0:0:0:0:
387,28,61013,1,0,0:0:0:0:
387,28,61088,1,0,0:0:0:0:
387,28,61163,2,0,P|380:107|378:171,1,112.799996557617,2|0,0:0|0:0,0:0:0:0:
177,248,61463,2,0,P|256:255|320:257,1,112.799996557617,10|0,0:0|0:0,0:0:0:0:
509,175,61763,5,2,0:0:0:0:
333,341,61913,2,0,P|276:343|220:349,1,112.799996557617,0|8,0:0|0:0,0:0:0:0:
8,198,62213,1,0,0:0:0:0:
48,159,62288,1,0,0:0:0:0:
102,146,62363,1,2,0:0:0:0:
155,163,62438,1,0,0:0:0:0:
197,194,62513,1,0,0:0:0:0:
240,227,62588,1,0,0:0:0:0:
295,234,62663,1,8,0:0:0:0:
346,212,62738,1,0,0:0:0:0:
376,167,62813,1,0,0:0:0:0:
363,83,62888,1,0,0:0:0:0:
350,0,62963,5,6,0:0:0:0:
264,147,63113,1,0,0:0:0:0:
461,83,63263,1,8,0:0:0:0:
241,0,63413,1,0,0:0:0:0:
503,180,63563,2,0,L|377:196,1,112.799996557617,2|0,0:0|0:0,0:0:0:0:
182,94,63863,2,0,L|293:108,1,112.799996557617,8|0,0:0|0:0,0:0:0:0:
439,278,64163,6,0,B|385:291|385:291|333:285|333:285|273:304,1,169.199994836426,2|0,0:0|0:0,0:0:0:0:
201,328,64463,1,8,0:0:0:0:
309,186,64613,2,0,L|197:167,1,112.799996557617,0|2,0:0|0:0,0:0:0:0:
69,14,64913,2,0,L|80:78,1,56.3999982788086,8|0,0:0|0:0,0:0:0:0:
250,187,65063,2,0,L|189:164,1,56.3999982788086,8|0,0:0|0:0,0:0:0:0:
9,257,65213,2,0,L|58:215,1,56.3999982788086,8|0,0:0|0:0,0:0:0:0:
222,84,65363,6,0,B|292:55|361:53|361:53|427:112|424:152,1,225.599993115235,4|8,0:0|0:0,0:0:0:0:
478,289,65813,1,0,0:0:0:0:
299,354,65963,2,0,B|233:344|195:293|195:293|156:334|92:337,1,225.599993115235,6|8,0:0|0:0,0:0:0:0:
3,134,66413,1,0,0:0:0:0:
44,96,66488,1,0,0:0:0:0:
99,88,66563,1,6,0:0:0:0:
150,110,66638,1,0,0:0:0:0:
181,156,66713,1,0,0:0:0:0:
105,335,66863,5,14,0:0:0:0:
295,156,67013,1,0,0:0:0:0:
118,44,67163,1,6,0:0:0:0:
196,293,67313,1,0,0:0:0:0:
384,128,67463,1,14,0:0:0:0:
119,241,67613,1,0,0:0:0:0:
424,30,67763,6,0,P|417:133|418:255,1,225.599993115235,6|8,0:0|0:0,0:0:0:0:
322,384,68213,2,0,P|289:322|265:263,1,112.799996557617,0|2,0:0|0:0,0:0:0:0:
245,57,68513,1,0,0:0:0:0:
148,214,68663,1,8,0:0:0:0:
296,154,68813,1,0,0:0:0:0:
144,0,68963,6,0,L|168:125,1,112.799996557617,6|0,0:0|0:0,0:0:0:0:
194,303,69263,1,8,0:0:0:0:
34,64,69413,2,0,L|0:229,1,169.199994836426,2|0,0:0|0:0,0:0:0:0:
5,327,69713,2,0,P|56:329|82:308,1,56.3999982788086,8|0,0:0|0:0,0:0:0:0:
165,110,69863,2,0,P|137:153|142:186,1,56.3999982788086,8|0,0:0|0:0,0:0:0:0:
272,357,70013,2,0,P|248:311|217:299,1,56.3999982788086,8|0,0:0|0:0,0:0:0:0:
52,156,70163,5,6,0:0:0:0:
311,96,70313,1,0,0:0:0:0:
132,271,70463,1,10,0:0:0:0:
258,30,70613,1,0,0:0:0:0:
393,220,70763,1,6,0:0:0:0:
165,110,70913,1,0,0:0:0:0:
379,24,71063,1,10,0:0:0:0:
253,169,71213,1,0,0:0:0:0:
253,169,71288,1,0,0:0:0:0:
253,169,71363,6,0,L|268:249,1,56.3999982788086,6|0,0:0|0:0,0:0:0:0:
146,367,71513,2,0,L|156:311,1,56.3999982788086
46,124,71663,1,14,0:0:0:0:
237,302,71813,1,0,0:0:0:0:
350,87,71963,1,6,0:0:0:0:
159,206,72113,1,0,0:0:0:0:
278,14,72263,1,14,0:0:0:0:
335,329,72413,1,0,0:0:0:0:
487,158,72563,6,0,P|400:162|260:178,1,225.599993115235,6|8,0:0|0:0,0:0:0:0:
63,37,73013,2,0,P|127:41|175:97,1,112.799996557617,0|2,0:0|0:0,0:0:0:0:
236,302,73313,1,0,0:0:0:0:
108,203,73463,1,8,0:0:0:0:
142,376,73613,1,0,0:0:0:0:
262,177,73763,6,0,L|385:171,1,112.799996557617,6|0,0:0|0:0,0:0:0:0:
511,167,74063,1,0,0:0:0:0:
188,65,74213,2,0,L|357:74,1,169.199994836426,2|0,0:0|0:0,0:0:0:0:
435,73,74513,2,0,L|425:-1,1,56.3999982788086,8|0,0:0|0:0,0:0:0:0:
339,206,74663,2,0,L|349:132,1,56.3999982788086,8|0,0:0|0:0,0:0:0:0:
512,302,74813,2,0,L|502:228,1,56.3999982788086,8|0,0:0|0:0,0:0:0:0:
275,362,74963,5,6,0:0:0:0:
431,273,75113,1,0,0:0:0:0:
257,182,75263,1,10,0:0:0:0:
151,373,75413,1,0,0:0:0:0:
350,220,75563,1,6,0:0:0:0:
350,220,75638,1,0,0:0:0:0:
350,220,75713,1,0,0:0:0:0:
111,143,75863,1,10,0:0:0:0:
348,342,76013,1,0,0:0:0:0:
151,6,76163,5,6,0:0:0:0:
27,238,76313,1,0,0:0:0:0:
223,59,76463,5,14,0:0:0:0:
163,315,76613,1,0,0:0:0:0:
306,91,76763,5,6,0:0:0:0:
314,354,76913,1,0,0:0:0:0:
394,100,77063,5,14,0:0:0:0:
470,352,77213,1,0,0:0:0:0:
239,262,77363,6,0,L|231:223,2,23.5,2|0|0,0:0|0:0|0:0,0:0:0:0:
420,161,81863,6,0,L|346:172,1,70.5,2|0,0:0|0:0,0:0:0:0:
297,219,82163,5,2,0:0:0:0:
364,240,82313,1,0,0:0:0:0:
364,311,82463,1,8,0:0:0:0:
296,333,82613,1,0,0:0:0:0:
255,276,82763,1,0,0:0:0:0:
215,219,82913,1,0,0:0:0:0:
148,240,83063,1,8,0:0:0:0:
148,311,83213,1,0,0:0:0:0:
96,189,83363,6,0,L|39:195,1,47
216,333,83663,2,0,L|273:339,1,47,8|0,0:0|0:0,0:0:0:0:
60,271,83963,2,0,L|3:277,1,47
203,156,84263,2,0,L|208:212,1,47,8|0,0:0|0:0,0:0:0:0:
397,97,84563,5,0,0:0:0:0:
336,62,84713,1,0,0:0:0:0:
336,133,84863,1,8,0:0:0:0:
328,295,85013,1,0,0:0:0:0:
389,331,85163,1,0,0:0:0:0:
389,260,85313,1,0,0:0:0:0:
178,339,85463,1,8,0:0:0:0:
117,375,85613,1,0,0:0:0:0:
117,304,85763,6,0,L|123:241,1,47
189,128,86063,2,0,L|193:174,1,47,8|0,0:0|0:0,0:0:0:0:
285,348,86363,2,0,L|291:285,1,47
327,159,86663,2,0,L|331:205,1,47,8|0,0:0|0:0,0:0:0:0:
468,295,86963,6,0,P|436:284|389:280,1,61.0999972030641,2|0,0:0|0:0,0:0:0:0:
200,247,87263,2,0,P|232:236|279:232,1,61.0999972030641,8|0,0:0|0:0,0:0:0:0:
464,149,87563,2,0,P|430:152|386:168,1,61.0999972030641,2|0,0:0|0:0,0:0:0:0:
192,94,87863,2,0,P|223:106|262:133,1,61.0999972030641,8|0,0:0|0:0,0:0:0:0:
402,352,88163,6,0,L|478:344,1,61.0999972030641,2|0,0:0|0:0,0:0:0:0:
292,235,88463,2,0,L|352:241,1,61.0999972030641,8|0,0:0|0:0,0:0:0:0:
266,378,88763,2,0,L|205:384,1,61.0999972030641,2|0,0:0|0:0,0:0:0:0:
118,164,89063,2,0,L|178:170,1,61.0999972030641,8|0,0:0|0:0,0:0:0:0:
456,45,89363,6,0,B|410:63|410:63|425:151,1,119.850002285957,8|0,0:3|0:0,0:0:0:0:
367,299,89663,6,0,B|352:240|352:240|359:207|359:207|347:148,1,155.100004733277,8|0,0:0|0:0,0:0:0:0:
263,31,89963,6,0,P|190:13|134:127,1,197.39999397583,4|0,0:3|0:0,0:0:0:0:
213,308,90263,6,0,B|212:273|189:238|189:238|196:216|205:197|205:197|191:182|182:158|182:158|204:131|208:86,1,239.700004571915,8|0,0:0|0:0,0:0:0:0:
111,306,90563,6,0,B|189:364|286:355|286:355|407:284|304:173,1,376,4|0,0:0|0:0,0:0:0:0:
395,87,91763,6,0,P|336:79|260:68,1,112.799996557617,4|0,0:1|0:0,0:0:0:0:
17,165,92063,2,0,P|88:197|139:172,1,112.799996557617,8|0,0:0|0:0,0:0:0:0:
195,58,92363,1,2,0:0:0:0:
72,270,92513,1,0,0:0:0:0:
227,159,92663,1,8,0:0:0:0:
175,380,92813,1,0,0:0:0:0:
175,380,92888,1,0,0:0:0:0:
175,380,92963,6,0,P|253:369|313:368,1,112.799996557617,2|0,0:0|0:0,0:0:0:0:
301,84,93263,2,0,P|317:161|336:217,1,112.799996557617,8|0,0:0|0:0,0:0:0:0:
506,307,93563,6,0,P|469:293|438:293,1,56.3999982788086,8|0,0:0|0:0,0:0:0:0:
444,113,93713,6,0,P|408:128|372:175,1,65.7999979919434,8|0,0:0|0:0,0:0:0:0:
227,159,93863,6,0,P|213:193|214:231,1,75.2,8|0,0:0|0:0,0:0:0:0:
303,355,94013,5,2,0:0:0:0:
501,163,94163,1,0,0:0:0:0:
301,84,94313,1,0,0:0:0:0:
388,332,94463,1,10,0:0:0:0:
512,148,94613,1,0,0:0:0:0:
512,148,94688,1,0,0:0:0:0:
512,148,94763,2,0,P|456:145|383:136,1,112.799996557617,2|0,0:0|0:0,0:0:0:0:
153,14,95063,2,0,P|150:70|141:143,1,112.799996557617,10|0,0:0|0:0,0:0:0:0:
101,353,95363,5,2,0:0:0:0:
143,126,95513,2,0,P|199:119|255:116,1,112.799996557617,0|8,0:0|0:0,0:0:0:0:
485,293,95813,1,0,0:0:0:0:
485,293,95888,1,0,0:0:0:0:
485,293,95963,2,0,L|419:279,1,56.3999982788086,2|0,0:0|0:0,0:0:0:0:
333,175,96113,1,0,0:0:0:0:
333,175,96188,1,0,0:0:0:0:
333,175,96263,2,0,L|399:161,1,56.3999982788086,8|0,0:0|0:0,0:0:0:0:
288,331,96413,2,0,L|222:317,1,56.3999982788086
148,132,96563,5,6,0:0:0:0:
38,310,96713,1,0,0:0:0:0:
72,64,96863,1,8,0:0:0:0:
254,224,97013,1,0,0:0:0:0:
0,223,97163,2,0,P|68:213|123:203,1,112.799996557617,2|0,0:0|0:0,0:0:0:0:
353,95,97463,2,0,P|297:85|241:77,1,112.799996557617,8|0,0:0|0:0,0:0:0:0:
86,318,97763,6,0,P|151:349|225:296,1,169.199994836426,2|0,0:0|0:0,0:0:0:0:
254,224,98063,1,8,0:0:0:0:
97,93,98213,2,0,L|113:218,1,112.799996557617,0|2,0:0|0:0,0:0:0:0:
282,6,98513,6,0,L|295:76,1,56.3999982788086,8|0,0:0|0:0,0:0:0:0:
480,80,98663,2,0,L|467:150,1,56.3999982788086,8|0,0:0|0:0,0:0:0:0:
243,168,98813,2,0,L|256:238,1,56.3999982788086,8|0,0:0|0:0,0:0:0:0:
471,354,98963,6,0,B|340:286|381:393|245:322,1,225.599993115235,6|10,0:0|0:0,0:0:0:0:
126,191,99413,1,0,0:0:0:0:
309,75,99563,2,0,B|381:60|381:60|373:245,1,225.599993115235,6|10,0:0|0:0,0:0:0:0:
344,348,100013,1,0,0:0:0:0:
336,347,100088,1,0,0:0:0:0:
328,346,100163,6,0,L|261:339,1,56.3999982788086,6|0,0:0|0:0,0:0:0:0:
64,256,100313,2,0,L|131:249,1,56.3999982788086
316,147,100463,1,14,0:0:0:0:
128,253,100613,1,0,0:0:0:0:
218,43,100763,1,6,0:0:0:0:
342,261,100913,1,0,0:0:0:0:
64,172,101063,1,14,0:0:0:0:
342,261,101213,1,0,0:0:0:0:
210,53,101363,6,0,P|214:137|213:289,1,225.599993115235,6|8,0:0|0:0,0:0:0:0:
334,384,101813,2,0,P|348:329|365:275,1,112.799996557617,0|2,0:0|0:0,0:0:0:0:
251,161,102113,1,0,0:0:0:0:
433,91,102263,1,8,0:0:0:0:
308,13,102413,1,0,0:0:0:0:
432,190,102563,6,0,P|448:243|462:298,1,112.799996557617,6|0,0:0|0:0,0:0:0:0:
334,384,102863,1,8,0:0:0:0:
331,129,103013,2,0,P|331:199|252:243,1,169.199994836426,2|0,0:0|0:0,0:0:0:0:
169,167,103313,2,0,L|241:178,1,56.3999982788086,8|0,0:0|0:0,0:0:0:0:
80,240,103463,2,0,L|34:296,1,56.3999982788086,8|0,0:0|0:0,0:0:0:0:
61,126,103613,2,0,L|34:58,1,56.3999982788086,8|0,0:0|0:0,0:0:0:0:
140,300,103763,5,6,0:0:0:0:
192,64,103913,1,0,0:0:0:0:
0,192,104063,1,10,0:0:0:0:
96,21,104213,1,0,0:0:0:0:
251,242,104363,1,6,0:0:0:0:
76,141,104513,1,0,0:0:0:0:
294,12,104663,1,10,0:0:0:0:
165,367,104813,1,0,0:0:0:0:
165,367,104888,1,0,0:0:0:0:
165,367,104963,6,0,L|157:307,1,56.3999982788086,6|0,0:0|0:0,0:0:0:0:
352,145,105113,2,0,L|344:200,1,56.3999982788086
127,72,105263,1,14,0:0:0:0:
292,303,105413,1,0,0:0:0:0:
235,15,105563,1,6,0:0:0:0:
14,210,105713,1,0,0:0:0:0:
336,131,105863,1,14,0:0:0:0:
14,210,106013,1,0,0:0:0:0:
292,303,106163,6,0,B|348:279|436:300|436:300|416:264|421:206,1,225.599993115235,6|8,0:0|0:0,0:0:0:0:
187,161,106613,2,2,P|131:199|142:261,1,112.799996557617
303,323,106913,1,0,0:0:0:0:
93,368,107063,1,8,0:0:0:0:
303,323,107213,1,0,0:0:0:0:
115,127,107363,6,0,L|129:241,1,112.799996557617,6|0,0:0|0:0,0:0:0:0:
171,45,107663,1,8,0:0:0:0:
303,323,107813,2,0,L|315:154,1,169.199994836426,2|0,0:0|0:0,0:0:0:0:
381,66,108113,2,0,L|388:150,1,56.3999982788086,8|0,0:0|0:0,0:0:0:0:
236,154,108263,2,0,L|229:238,1,56.3999982788086,8|0,0:0|0:0,0:0:0:0:
427,247,108413,2,0,L|431:303,1,56.3999982788086,8|0,0:0|0:0,0:0:0:0:
180,381,108563,5,6,0:0:0:0:
345,243,108713,1,0,0:0:0:0:
94,105,108863,1,10,0:0:0:0:
206,283,109013,1,0,0:0:0:0:
230,3,109163,1,6,0:0:0:0:
73,233,109313,1,0,0:0:0:0:
356,133,109463,1,10,0:0:0:0:
73,233,109613,1,0,0:0:0:0:
236,15,109763,5,14,0:0:0:0:
234,34,109838,1,8,0:0:0:0:
233,54,109913,1,8,0:0:0:0:
232,74,109988,1,8,0:0:0:0:
231,93,110063,1,8,0:0:0:0:
230,113,110138,1,8,0:0:0:0:
229,133,110213,1,8,0:0:0:0:
228,152,110288,1,8,0:0:0:0:
227,173,110363,6,8,L|293:164,1,56.3999982788086
363,290,110513,2,8,L|307:282,1,56.3999982788086
362,198,110663,2,8,L|428:189,1,56.3999982788086
242,345,110813,2,8,L|186:337,1,56.3999982788086
73,85,110963,6,0,P|92:122|91:169,1,70.5,2|0,0:0|0:0,0:0:0:0:
37,214,111263,6,0,P|82:167|67:92,1,141.000005378723,6|0,0:0|0:0,0:0:0:0:
14,352,111563,6,0,L|99:339,1,70.5,2|0,0:0|0:0,0:0:0:0:
160,320,111863,6,0,L|20:342,1,141.000005378723,6|0,0:0|0:0,0:0:0:0:
289,163,112163,6,0,P|270:200|272:244,1,70.5,2|0,0:0|0:0,0:0:0:0:
325,292,112463,6,0,P|280:245|295:170,1,141.000005378723,6|0,0:0|0:0,0:0:0:0:
463,73,112763,5,8,0:0:0:0:
392,67,112838,1,8,0:0:0:0:
322,62,112913,1,8,0:0:0:0:
252,56,112988,1,8,0:0:0:0:
169,79,113063,5,8,0:0:0:0:
108,140,113138,1,8,0:0:0:0:
104,226,113213,1,8,0:0:0:0:
300,375,113363,5,6,0:0:0:0:
188,175,113513,1,0,0:0:0:0:
0,291,113663,1,8,0:0:0:0:
293,234,113813,1,0,0:0:0:0:
293,234,113888,1,0,0:0:0:0:
293,234,113963,2,0,P|362:227|440:224,1,122.199994406128,2|0,0:0|0:0,0:0:0:0:
103,51,114263,2,0,P|164:54|224:60,1,122.199994406128,8|0,0:0|0:0,0:0:0:0:
316,353,114563,5,2,0:0:0:0:
168,185,114713,2,0,P|99:178|21:175,1,122.199994406128,0|8,0:0|0:0,0:0:0:0:
139,338,115013,1,0,0:0:0:0:
181,294,115088,1,0,0:0:0:0:
237,272,115163,1,2,0:0:0:0:
298,273,115238,1,0,0:0:0:0:
357,286,115313,1,0,0:0:0:0:
417,285,115388,1,0,0:0:0:0:
466,250,115463,1,8,0:0:0:0:
486,193,115538,1,0,0:0:0:0:
476,132,115613,1,0,0:0:0:0:
412,78,115688,1,0,0:0:0:0:
335,112,115763,5,6,0:0:0:0:
372,1,115913,1,0,0:0:0:0:
389,183,116063,1,8,0:0:0:0:
488,47,116213,1,0,0:0:0:0:
258,146,116363,2,0,P|178:139|125:139,1,122.199994406128,2|0,0:0|0:0,0:0:0:0:
0,308,116663,2,0,P|80:301|133:301,1,122.199994406128,8|0,0:0|0:0,0:0:0:0:
356,122,116963,6,0,B|420:132|420:132|406:270,1,183.299991609192,2|0,0:0|0:0,0:0:0:0:
396,342,117263,1,8,0:0:0:0:
245,166,117413,2,0,P|250:226|256:287,1,122.199994406128,0|2,0:0|0:0,0:0:0:0:
11,70,117713,2,0,L|99:55,1,61.0999972030641,8|0,0:0|0:0,0:0:0:0:
324,94,117863,2,0,L|236:79,1,61.0999972030641,8|0,0:0|0:0,0:0:0:0:
19,169,118013,2,0,L|107:154,1,61.0999972030641,8|0,0:0|0:0,0:0:0:0:
367,226,118163,6,0,B|305:280|226:254|226:254|223:308|168:347,1,244.399988812256,6|10,0:0|0:0,0:0:0:0:
31,359,118613,1,0,0:0:0:0:
102,141,118763,2,0,B|117:64|178:35|178:35|247:58|276:105,1,244.399988812256,6|10,0:0|0:0,0:0:0:0:
432,355,119213,1,0,0:0:0:0:
435,309,119288,1,0,0:0:0:0:
438,264,119363,1,6,0:0:0:0:
442,219,119438,1,0,0:0:0:0:
445,174,119513,1,0,0:0:0:0:
290,299,119663,5,14,0:0:0:0:
445,83,119813,1,0,0:0:0:0:
275,192,119963,1,6,0:0:0:0:
348,3,120113,1,0,0:0:0:0:
290,299,120263,1,14,0:0:0:0:
511,187,120413,1,0,0:0:0:0:
273,102,120563,6,0,B|209:121|187:182|187:182|123:138|56:153,1,244.399988812256,6|10,0:0|0:0,0:0:0:0:
172,305,121013,2,0,P|232:340|295:287,1,122.199994406128,0|2,0:0|0:0,0:0:0:0:
400,112,121313,1,0,0:0:0:0:
463,286,121463,1,8,0:0:0:0:
308,204,121613,1,0,0:0:0:0:
512,208,121763,6,0,P|452:194|392:189,1,122.199994406128,6|0,0:0|0:0,0:0:0:0:
227,230,122063,1,10,0:0:0:0:
400,112,122213,2,0,P|345:83|218:49,1,183.299991609192,2|0,0:0|0:0,0:0:0:0:
111,14,122513,6,0,L|200:0,1,61.0999972030641,8|0,0:0|0:0,0:0:0:0:
208,149,122663,2,0,L|268:158,1,61.0999972030641,8|0,0:0|0:0,0:0:0:0:
383,10,122813,2,0,L|472:-4,1,61.0999972030641,8|0,0:0|0:0,0:0:0:0:
511,241,122963,5,6,0:0:0:0:
400,112,123113,1,0,0:0:0:0:
423,342,123263,1,10,0:0:0:0:
498,75,123413,1,0,0:0:0:0:
336,267,123563,1,6,0:0:0:0:
261,73,123713,1,0,0:0:0:0:
512,180,123863,1,10,0:0:0:0:
261,338,124013,1,0,0:0:0:0:
261,338,124088,1,0,0:0:0:0:
261,338,124163,6,0,L|194:333,1,61.0999972030641,6|0,0:0|0:0,0:0:0:0:
0,224,124313,2,0,L|60:220,1,61.0999972030641
250,87,124463,1,14,0:0:0:0:
61,341,124613,1,0,0:0:0:0:
134,37,124763,1,6,0:0:0:0:
323,196,124913,1,0,0:0:0:0:
16,233,125063,1,14,0:0:0:0:
267,96,125213,1,0,0:0:0:0:
227,347,125363,6,0,B|152:374|152:374|134:190,1,244.399988812256,6|10,0:0|0:0,0:0:0:0:
293,8,125813,2,0,P|347:52|354:121,1,122.199994406128,0|2,0:0|0:0,0:0:0:0:
281,267,126113,1,0,0:0:0:0:
267,96,126263,1,10,0:0:0:0:
436,152,126413,1,0,0:0:0:0:
273,283,126563,6,0,L|135:285,1,122.199994406128,6|0,0:0|0:0,0:0:0:0:
32,292,126863,1,8,0:0:0:0:
241,172,127013,2,0,L|434:177,1,183.299991609192,2|0,0:0|0:0,0:0:0:0:
493,76,127313,2,0,P|434:101|415:124,1,61.0999972030641,8|0,0:0|0:0,0:0:0:0:
354,268,127463,2,0,L|342:351,1,61.0999972030641,10|0,0:0|0:0,0:0:0:0:
512,273,127613,2,0,L|503:212,1,61.0999972030641,8|0,0:0|0:0,0:0:0:0:
361,31,127763,5,6,0:0:0:0:
431,310,127913,1,0,0:0:0:0:
255,160,128063,1,10,0:0:0:0:
497,25,128213,1,0,0:0:0:0:
345,328,128363,1,6,0:0:0:0:
156,71,128513,1,0,0:0:0:0:
433,181,128663,1,10,0:0:0:0:
48,300,128813,1,0,0:0:0:0:
48,300,128888,1,0,0:0:0:0:
48,300,128963,5,14,0:0:0:0:
447,324,129113,1,0,0:0:0:0:
25,205,129263,5,14,0:0:0:0:
448,162,129413,1,0,0:0:0:0:
1,118,129563,5,14,0:0:0:0:
430,0,129713,1,0,0:0:0:0:
177,7,129863,6,0,P|184:59|190:108,1,84.599997418213,14|0,0:0|0:0,0:0:0:0:
203,167,130163,6,0,L|301:156,1,70.5000026893617,4|0,0:1|0:0,0:0:0:0:
463,281,130763,6,0,L|392:273,1,70.5000026893617,4|0,0:1|0:0,0:0:0:0:
129,372,131363,6,0,L|227:361,1,70.5000026893617,4|0,0:3|0:0,0:0:0:0:
298,243,131513,5,8,0:3:0:0:
296,259,131588,1,8,0:3:0:0:
294,275,131663,1,8,0:3:0:0:
137,159,131813,1,8,0:3:0:0:
139,175,131888,1,8,0:3:0:0:
141,191,131963,1,8,0:3:0:0:
216,233,132113,1,8,0:3:0:0:
324,167,132263,1,8,0:3:0:0:
421,273,132413,1,8,0:3:0:0:
269,44,132563,5,4,0:0:0:0:
256,192,132638,12,0,134963,0:0:0:0:
