osu file format v14

[General]
AudioFilename: audio.mp3
AudioLeadIn: 0
PreviewTime: 1497
Countdown: 1
SampleSet: Soft
StackLeniency: 0.7
Mode: 0
LetterboxInBreaks: 0
WidescreenStoryboard: 1

[Editor]
DistanceSpacing: 0.2
BeatDivisor: 4
GridSize: 32
TimelineZoom: 1.6

[Metadata]
Title:oyasumi (Speed Up Ver.)
TitleUnicode:oyasumi (Speed Up Ver.)
Artist:Shiggy Jr.
ArtistUnicode:Shiggy Jr.
Creator:Nao Tomori
Version:Advanced
Source:
Tags:naotoshi bite you death byd emu1337 schoolboy komore dakini dakinibrave xayah silent silento thearchist lasse log off now lon listen to the music jpop japanese vocal pop junior おやすみ tomoko ikeda 池田 智子 shigeyuki harada 原田 茂幸 natsuhiko mori 森 夏彦 kazuma moroishi 諸石 和馬 cut sped nightcore short version criin universal sigma
BeatmapID:2138831
BeatmapSetID:1019207

[Difficulty]
HPDrainRate:4
CircleSize:3.1
OverallDifficulty:5
ApproachRate:7
SliderMultiplier:0.9
SliderTickRate:1

[Events]
//Background and Video events
0,0,"POG background mode..jpg",0,0
//Break Periods
//Storyboard Layer 0 (Background)
//Storyboard Layer 1 (Fail)
//Storyboard Layer 2 (Pass)
//Storyboard Layer 3 (Foreground)
//Storyboard Layer 4 (Overlay)
//Storyboard Sound Samples

[TimingPoints]
1553,240,4,2,3,80,1,0
4553,-100,4,2,3,80,0,0
4793,-100,4,2,3,80,0,0
10193,-100,4,2,3,80,0,0
10553,-100,4,2,3,80,0,0
14033,-100,4,2,3,80,0,0
14993,-100,4,2,3,80,0,0
16433,-100,4,2,3,80,0,0
17153,-100,4,2,3,80,0,1
17213,-100,4,2,3,80,0,0
17633,-100,4,2,3,80,0,1
17693,-100,4,2,3,80,0,0
18113,-100,4,2,3,80,0,1
18173,-100,4,2,3,80,0,0
18353,-100,4,2,3,40,0,0
18593,-100,4,2,3,80,0,1
18653,-100,4,2,3,80,0,0
18713,-100,4,2,3,80,0,0
19913,-100,4,2,3,80,0,0
20273,-100,4,2,3,80,0,0
23633,-100,4,2,3,80,0,0
24593,-100,4,2,3,80,0,0
25553,-100,4,2,3,80,0,0
25913,-100,4,2,3,80,0,0
29393,-100,4,2,3,80,0,0
29753,-100,4,2,3,80,0,0
32273,-100,4,2,3,80,0,1
32333,-100,4,2,3,80,0,0
32753,-100,4,2,3,80,0,1
32813,-100,4,2,3,80,0,0
33233,-100,4,2,3,80,0,1
33293,-100,4,2,3,80,0,0
33353,-100,4,2,3,60,0,0
33593,-100,4,2,3,72,0,0
34193,-100,4,2,3,80,0,1
34253,-100,4,2,3,80,0,0

[Colours]
Combo1 : 233,152,250
Combo2 : 244,173,142
Combo3 : 156,141,243
Combo4 : 250,131,22

[HitObjects]
124,182,1553,6,0,P|118:143|124:120,1,45,6|0,3:2|0:2,0:0:0:0:
174,73,1793,2,0,L|224:82,1,45,10|2,0:2|0:2,0:0:0:0:
293,39,2033,2,0,P|325:63|389:53,1,90,2|10,3:2|0:2,0:0:0:0:
502,146,2513,5,2,3:2:0:0:
502,146,2633,1,0,3:2:0:0:
502,146,2753,2,0,L|491:205,1,45,10|2,0:2|0:2,0:0:0:0:
422,240,2993,2,0,L|437:302,2,45,2|2|10,3:2|3:2|0:2,0:0:0:0:
342,192,3353,6,0,P|308:183|244:205,2,90,2|2|2,0:2|0:2|0:2,0:0:0:0:
403,130,3953,1,2,3:2:0:0:
264,21,4193,2,0,L|211:28,1,45,10|2,0:2|0:2,0:0:0:0:
134,5,4433,1,2,3:2:0:0:
134,5,4553,2,0,P|100:25|82:37,1,45,2|8,0:2|0:2,0:0:0:0:
11,63,4793,2,0,P|-6:99|2:162,1,90,2|0,3:2|3:2,0:0:0:0:
61,214,5153,1,12,0:2:0:0:
213,157,5393,6,0,L|269:150,1,45,6|0,3:2|0:2,0:0:0:0:
342,188,5633,2,0,P|369:210|376:268,2,90,10|2|10,0:2|3:2|0:2,0:0:0:0:
278,252,6233,1,8,0:2:0:0:
278,252,6353,2,0,L|289:348,1,90,2|10,3:2|0:2,0:0:0:0:
195,325,6713,2,0,L|184:235,1,90,2|2,2:2|3:2,0:0:0:0:
196,150,7073,1,8,0:2:0:0:
47,227,7313,6,0,P|12:243|-8:249,1,45,6|0,3:2|0:2,0:0:0:0:
30,339,7553,2,0,P|65:323|85:317,1,45,10|0,0:2|0:2,0:0:0:0:
166,345,7793,2,0,P|198:349|222:349,1,45,6|0,3:2|3:2,0:0:0:0:
300,315,8033,1,10,0:2:0:0:
467,361,8273,6,0,P|478:330|487:307,1,45,6|8,3:2|0:2,0:0:0:0:
449,234,8513,1,10,0:2:0:0:
449,234,8633,1,8,0:2:0:0:
449,234,8753,2,0,L|436:141,1,90,6|8,3:2|0:3,0:0:0:0:
297,34,9233,6,0,P|273:64|289:124,1,90,6|8,3:2|0:2,0:0:0:0:
229,197,9593,2,0,P|196:207|134:176,1,90,2|2,0:2|0:2,0:0:0:0:
116,101,9953,1,10,0:2:0:0:
116,101,10073,1,2,0:2:0:0:
184,28,10193,6,0,L|287:37,1,90,6|8,3:2|0:2,0:0:0:0:
349,101,10553,2,0,P|384:90|447:110,1,90,2|2,0:2|0:2,0:0:0:0:
494,172,10913,1,10,0:2:0:0:
494,172,11033,1,2,0:2:0:0:
426,236,11153,6,0,P|417:271|411:295,1,45,6|0,3:2|0:2,0:0:0:0:
340,339,11393,2,0,P|331:296|318:236,2,90,10|2|10,0:2|3:2|0:2,0:0:0:0:
169,359,12113,6,0,P|135:348|111:344,1,45,6|0,3:2|0:2,0:0:0:0:
39,350,12353,1,10,0:2:0:0:
39,350,12473,1,2,0:2:0:0:
39,350,12593,2,0,P|20:307|27:254,1,90,2|10,3:2|0:2,0:0:0:0:
127,114,13073,6,0,L|224:104,1,90,6|8,3:2|0:2,0:0:0:0:
298,156,13433,2,0,P|322:190|317:249,1,90,2|2,0:2|0:2,0:0:0:0:
263,304,13793,1,10,0:2:0:0:
263,304,13913,1,2,0:2:0:0:
340,357,14033,6,0,L|438:337,1,90,6|8,3:2|0:2,0:0:0:0:
491,265,14393,2,0,L|469:176,1,90,2|2,0:2|0:2,0:0:0:0:
485,87,14753,1,10,0:2:0:0:
485,87,14873,1,2,3:2:0:0:
418,25,14993,6,0,L|373:19,1,45,6|0,3:2|0:2,0:0:0:0:
304,76,15233,2,0,P|278:92|211:90,2,90,10|2|10,0:2|3:2|0:2,0:0:0:0:
139,39,15953,6,0,P|133:70|129:101,1,45,10|8,0:2|0:2,0:0:0:0:
50,123,16193,2,0,P|58:157|61:176,1,45,10|8,0:2|0:2,0:0:0:0:
17,247,16433,1,6,3:2:0:0:
17,247,16553,1,8,0:3:0:0:
17,247,16673,1,4,0:3:0:0:
213,345,17153,6,0,P|252:335|399:314,2,180,6|6|6,3:2|3:2|3:2,0:0:0:0:
112,211,18353,2,0,P|102:186|143:134,1,90,8|4,0:3|2:3,0:0:0:0:
224,146,18713,6,0,L|284:149,1,45,6|0,3:2|3:2,0:0:0:0:
338,90,18953,2,0,P|373:77|424:91,1,90,2|2,0:2|0:2,0:0:0:0:
492,149,19313,1,2,3:2:0:0:
422,291,19553,1,10,0:2:0:0:
422,291,19673,2,0,L|367:302,1,45,2|2,0:2|3:2,0:0:0:0:
298,253,19913,2,0,L|236:246,1,45,2|8,0:2|0:2,0:0:0:0:
176,294,20153,2,0,P|117:321|78:318,1,90,2|0,3:2|3:2,0:0:0:0:
13,279,20513,1,12,0:2:0:0:
102,129,20753,6,0,L|92:78,1,45,6|0,3:2|0:2,0:0:0:0:
175,36,20993,2,0,L|183:80,1,45,10|0,0:2|0:2,0:0:0:0:
263,126,21233,2,0,P|317:142|356:134,1,90,2|10,3:2|0:2,0:0:0:0:
431,96,21593,1,8,0:2:0:0:
431,96,21713,6,0,L|444:197,1,90,2|10,3:2|0:2,0:0:0:0:
373,241,22073,2,0,L|387:342,1,90,2|2,0:2|0:2,0:0:0:0:
313,380,22433,1,10,0:2:0:0:
313,380,22553,1,2,0:2:0:0:
233,330,22673,6,0,P|199:322|174:323,1,45,6|0,3:2|0:2,0:0:0:0:
116,275,22913,2,0,P|110:241|110:223,1,45,10|0,0:2|0:2,0:0:0:0:
171,157,23153,2,0,P|184:94|171:52,1,90,2|10,3:2|0:2,0:0:0:0:
7,36,23633,6,0,B|-3:66|-3:66|13:136,1,90,6|8,3:2|0:2,0:0:0:0:
50,201,23993,1,8,0:2:0:0:
50,201,24113,2,0,P|56:230|57:252,1,45,8|8,0:3|0:3,0:0:0:0:
36,332,24353,1,4,0:3:0:0:
215,321,24593,6,0,P|249:315|315:336,1,90,6|10,3:2|0:2,0:0:0:0:
369,260,24953,2,0,P|351:207|353:166,1,90,2|2,0:2|0:2,0:0:0:0:
393,94,25313,1,10,0:2:0:0:
393,94,25433,1,2,0:2:0:0:
476,128,25553,6,0,L|475:220,1,90,6|8,3:2|0:2,0:0:0:0:
508,301,25913,2,0,P|482:331|426:340,1,90,2|2,0:2|0:2,0:0:0:0:
362,296,26273,1,10,0:2:0:0:
362,296,26393,1,2,0:2:0:0:
291,349,26513,6,0,L|231:351,1,45,6|0,3:2|0:2,0:0:0:0:
180,292,26753,2,0,B|131:310|131:310|85:299,2,90,10|2|10,0:2|3:2|2:2,0:0:0:0:
215,138,27473,6,0,P|217:110|220:74,1,45,6|0,3:2|0:2,0:0:0:0:
298,53,27713,2,0,P|310:91|328:154,2,90,10|2|2,0:2|3:2|3:2,0:0:0:0:
440,16,28433,6,0,P|487:50|487:97,1,90,6|8,3:2|0:2,0:0:0:0:
454,159,28793,2,0,L|442:262,1,90,2|2,0:2|0:2,0:0:0:0:
427,334,29153,1,10,0:2:0:0:
427,334,29273,1,2,0:2:0:0:
341,305,29393,6,0,P|287:294|244:317,1,90,6|8,3:2|0:2,0:0:0:0:
170,290,29753,2,0,P|137:297|80:272,1,90,2|2,0:2|0:2,0:0:0:0:
51,196,30113,1,10,0:2:0:0:
51,196,30233,1,2,0:2:0:0:
118,128,30353,6,0,L|123:72,1,45,6|0,3:2|0:2,0:0:0:0:
213,108,30593,2,0,L|218:153,1,45,10|0,0:2|0:2,0:0:0:0:
290,209,30833,2,0,P|318:214|345:210,1,45,2|8,3:2|0:2,0:0:0:0:
419,179,31073,2,0,P|447:172|469:174,1,45,8|4,0:3|0:3,0:0:0:0:
504,89,31313,6,0,P|498:55|438:17,1,90,6|10,3:2|0:2,0:0:0:0:
316,90,31793,1,2,3:2:0:0:
316,90,31913,1,0,3:2:0:0:
316,90,32033,2,0,L|258:83,1,45,10|0,0:2|0:2,0:0:0:0:
191,47,32273,6,0,P|172:72|209:215,2,180,6|6|6,3:2|3:2|3:2,0:0:0:0:
427,117,33593,5,8,0:3:0:0:
427,117,33713,2,0,L|336:130,1,90,8|4,0:3|0:3,0:0:0:0:
436,275,34193,5,2,3:3:0:0:
256,192,34313,12,0,35993,0:0:0:0:
