osu file format v14

[General]
AudioFilename: audio.mp3
AudioLeadIn: 0
PreviewTime: 58040
Countdown: 1
SampleSet: Normal
StackLeniency: 0.7
Mode: 0
LetterboxInBreaks: 0
WidescreenStoryboard: 0

[Editor]
DistanceSpacing: 2
BeatDivisor: 4
GridSize: 4
TimelineZoom: 1.8

[Metadata]
Title:oyasumi
TitleUnicode:oyasumi
Artist:Shiggy Jr.
ArtistUnicode:Shiggy Jr.
Creator:JumpTwiice
Version:Half of the original map
Source:LISTEN TO THE MUSIC
Tags:
BeatmapID:1531571
BeatmapSetID:657954

[Difficulty]
HPDrainRate:6
CircleSize:3.5
OverallDifficulty:6
ApproachRate:9.5
SliderMultiplier:1
SliderTickRate:1

[Events]
//Background and Video events
0,0,"rain.jpg",0,0
//Break Periods
2,48640,52686
2,53440,56286
2,77140,81486
//Storyboard Layer 0 (Background)
//Storyboard Layer 1 (Fail)
//Storyboard Layer 2 (Pass)
//Storyboard Layer 3 (Foreground)
//Storyboard Sound Samples

[TimingPoints]
440.498134328358,300,4,1,0,50,1,0
4640,-66.6666666666667,4,1,0,50,0,0
19640,-50,4,1,0,50,0,1
38840,-66.6666666666667,4,1,0,50,0,0
58040,-50,4,1,0,50,0,1
77240,-66.6666666666667,4,1,0,50,0,0
91640,-50,4,1,0,50,0,1
110840,-50,4,1,0,50,0,0
113240,-50,4,1,0,50,0,1
130040,-66.6666666666667,4,1,0,50,0,0

[HitObjects]
208,320,440,5,0,0:0:0:0:
194,162,740,1,0,0:0:0:0:
112,297,1040,1,0,0:0:0:0:
112,297,1190,1,0,0:0:0:0:
257,236,1490,1,0,0:0:0:0:
104,200,1790,1,0,0:0:0:0:
104,200,1940,1,0,0:0:0:0:
304,320,2240,5,0,0:0:0:0:
194,162,2390,1,0,0:0:0:0:
24,256,2540,1,0,0:0:0:0:
304,320,2840,5,0,0:0:0:0:
324,162,3140,1,0,0:0:0:0:
399,301,3440,1,0,0:0:0:0:
399,301,3590,1,0,0:0:0:0:
258,234,3890,1,0,0:0:0:0:
411,205,4190,1,0,0:0:0:0:
411,205,4340,1,0,0:0:0:0:
208,320,4640,6,0,B|156:284|157:228|157:228|141:256|117:269,1,150.000005722046,0|0,0:3|0:3,0:3:0:0:
131,258,5090,1,0,0:3:0:0:
67,99,5240,5,0,0:0:0:0:
179,131,5540,1,0,0:0:0:0:
67,99,5840,1,0,0:0:0:0:
179,131,6140,1,0,0:0:0:0:
67,99,6440,1,0,0:0:0:0:
179,131,6740,1,0,0:0:0:0:
67,99,7040,1,0,0:0:0:0:
179,131,7340,1,0,0:0:0:0:
445,99,7640,5,0,0:0:0:0:
333,131,7940,1,0,0:0:0:0:
445,99,8240,1,0,0:0:0:0:
333,131,8540,1,0,0:0:0:0:
445,99,8840,1,0,0:0:0:0:
333,131,9140,1,0,0:0:0:0:
445,99,9440,1,0,0:0:0:0:
333,131,9740,1,0,0:0:0:0:
161,325,10040,5,0,0:0:0:0:
232,214,10190,1,0,0:0:0:0:
326,308,10340,2,0,L|251:317,1,75.0000028610231,0|0,0:0|0:0,0:0:0:0:
426,214,10640,2,0,L|351:204,1,75.0000028610231,0|0,0:0|0:0,0:0:0:0:
351,204,10940,1,0,0:0:0:0:
351,204,11090,1,0,0:0:0:0:
388,117,11240,6,0,P|335:55|247:67,1,150.000005722046,0|0,0:0|0:0,0:0:0:0:
232,214,11690,2,0,B|302:131|302:131|246:138,1,150.000005722046,0|0,0:0|0:0,0:0:0:0:
166,150,12140,1,0,0:0:0:0:
358,212,12290,1,0,0:0:0:0:
271,53,12440,6,0,L|172:69,1,75.0000028610231,0|0,0:0|0:0,0:0:0:0:
91,138,12740,2,0,L|165:149,1,75.0000028610231,0|0,0:0|0:0,0:0:0:0:
259,231,13040,2,0,L|160:247,1,75.0000028610231,0|0,0:0|0:0,0:0:0:0:
91,138,13340,1,0,0:0:0:0:
309,157,13490,6,0,P|347:218|326:288,1,150.000005722046,0|0,0:0|0:0,0:0:0:0:
213,344,13940,2,0,L|139:333,1,75.0000028610231,0|0,0:0|0:0,0:0:0:0:
20,260,14240,2,0,L|95:249,1,75.0000028610231,0|0,0:0|0:0,0:0:0:0:
259,231,14540,1,0,0:0:0:0:
91,138,14690,1,0,0:0:0:0:
259,52,14840,6,0,P|297:51|339:66,1,75.0000028610231,0|0,0:0|0:0,0:0:0:0:
457,28,15140,2,0,P|439:61|412:86,1,75.0000028610231,0|0,0:0|0:0,0:0:0:0:
377,212,15440,2,0,P|357:180|349:143,1,75.0000028610231,0|0,0:0|0:0,0:0:0:0:
349,143,15740,1,0,0:0:0:0:
349,143,15890,1,0,0:0:0:0:
259,231,16040,6,0,P|211:232|152:209,1,75.0000028610231,0|0,0:0|0:0,0:0:0:0:
349,143,16340,1,0,0:0:0:0:
280,316,16490,2,0,P|231:320|130:295,1,150.000005722046,0|0,0:0|0:0,0:0:0:0:
37,231,16940,2,0,P|77:211|118:175,1,75.0000028610231,0|0,0:0|0:0,0:0:0:0:
192,53,17240,5,0,0:0:0:0:
259,231,17390,1,0,0:0:0:0:
210,50,17540,1,0,0:0:0:0:
240,236,17690,1,0,0:0:0:0:
302,91,17840,2,0,P|341:78|380:80,1,75.0000028610231,0|0,0:0|0:0,0:0:0:0:
441,158,18140,2,0,P|402:171|363:169,1,75.0000028610231,0|0,0:0|0:0,0:0:0:0:
66,206,18440,6,0,L|29:196,1,37.5000014305115,0|0,0:0|0:0,0:0:0:0:
240,155,18590,2,0,L|267:126,1,37.5000014305115,0|0,0:0|0:0,0:0:0:0:
196,331,18740,2,0,L|206:367,1,37.5000014305115,0|0,0:0|0:0,0:0:0:0:
139,130,18891,2,0,L|128:93,1,37.5000014305115,0|0,0:0|0:0,0:0:0:0:
269,256,19040,2,0,L|305:265,1,37.5000014305115,0|0,0:0|0:0,0:0:0:0:
94,306,19190,2,0,L|67:332,1,37.5000014305115,0|0,0:0|0:0,0:0:0:0:
169,234,19340,5,0,0:0:0:0:
169,234,19640,5,0,0:0:0:0:
322,69,19790,1,0,0:0:0:0:
295,292,19940,1,0,0:0:0:0:
189,93,20090,1,0,0:0:0:0:
390,190,20240,2,0,P|433:214|477:271,1,100,0|0,0:0|0:0,0:0:0:0:
295,292,20540,2,0,P|252:268|209:218,1,100,0|0,0:0|0:0,0:0:0:0:
95,95,20840,5,0,0:0:0:0:
306,194,20990,1,0,0:0:0:0:
128,277,21140,1,0,0:0:0:0:
250,44,21290,1,0,0:0:0:0:
250,44,21440,1,0,0:0:0:0:
415,256,21590,1,0,0:0:0:0:
415,256,21740,1,0,0:0:0:0:
340,81,21890,6,0,P|298:55|226:44,1,100,0|0,0:0|0:0,0:0:0:0:
199,109,22190,2,0,P|149:108|82:135,1,100,0|0,0:0|0:0,0:0:0:0:
203,302,22490,1,0,0:0:0:0:
415,256,22640,2,0,P|399:208|352:153,1,100,0|0,0:0|0:0,0:0:0:0:
217,188,22940,1,0,0:0:0:0:
382,342,23090,1,0,0:0:0:0:
432,121,23240,5,0,0:0:0:0:
432,121,23315,1,0,0:0:0:0:
432,121,23390,1,0,0:0:0:0:
217,188,23540,1,0,0:0:0:0:
382,342,23690,1,0,0:0:0:0:
306,91,23840,1,0,0:0:0:0:
255,312,23990,1,0,0:0:0:0:
470,246,24140,2,0,B|477:185|444:136,1,100,0|0,0:3|0:3,0:3:0:0:
255,312,24440,6,0,P|304:316|348:294,1,100,0|0,0:3|0:3,0:3:0:0:
49,248,24741,2,0,P|22:289|18:338,1,100,0|0,0:3|0:3,0:3:0:0:
207,101,25040,2,0,P|186:57|146:28,1,100,0|0,0:3|0:3,0:3:0:0:
291,223,25340,2,0,L|401:205,1,100,0|0,0:0|0:0,0:0:0:0:
208,102,25640,5,0,0:0:0:0:
208,102,25790,1,0,0:0:0:0:
113,310,25940,1,0,0:0:0:0:
113,310,26090,1,0,0:0:0:0:
291,223,26240,1,0,0:0:0:0:
83,128,26390,1,0,0:0:0:0:
113,310,26540,2,0,B|169:333|225:313,1,100,0|0,0:3|0:3,0:3:0:0:
446,183,26840,6,0,B|390:160|334:180,1,100,0|0,0:3|0:3,0:3:0:0:
84,195,27140,2,0,B|140:218|181:202,1,100,0|0,0:3|0:3,0:3:0:0:
259,8,27441,2,0,B|236:64|251:105,1,100,0|0,0:3|0:3,0:3:0:0:
271,370,27740,2,0,B|294:314|274:258,1,100,0|0,0:3|0:3,0:3:0:0:
259,8,28040,5,0,0:0:0:0:
175,312,28190,1,0,0:0:0:0:
175,312,28265,1,0,0:0:0:0:
175,312,28340,1,0,0:0:0:0:
387,258,28490,1,0,0:0:0:0:
142,122,28640,1,0,0:0:0:0:
271,370,28790,1,0,0:0:0:0:
337,69,28940,1,0,0:0:0:0:
84,195,29090,1,0,0:0:0:0:
271,370,29240,6,0,B|291:322|323:317|323:317|377:369|465:313,1,200,0|0,0:0|0:0,0:0:0:0:
432,174,29690,2,0,P|399:206|394:294,1,100,0|0,0:0|0:0,0:0:0:0:
473,249,29990,1,0,0:0:0:0:
351,90,30140,1,0,0:0:0:0:
242,258,30290,1,0,0:0:0:0:
437,77,30440,6,0,P|373:6|283:34,1,200,0|0,0:0|0:3,0:0:0:0:
228,132,30890,2,0,P|183:154|134:150,1,100,0|0,0:0|0:0,0:0:0:0:
167,62,31190,1,0,0:0:0:0:
208,297,31340,1,0,0:0:0:0:
188,62,31490,1,0,0:0:0:0:
185,297,31640,6,0,L|47:267,1,100,0|0,0:0|0:0,0:0:0:0:
327,297,31940,2,0,L|465:267,1,100,0|0,0:0|0:0,0:0:0:0:
184,173,32240,2,0,L|46:143,1,100,0|0,0:0|0:0,0:0:0:0:
326,173,32540,2,0,L|464:143,1,100,0|0,0:0|0:0,0:0:0:0:
260,54,32840,5,0,0:0:0:0:
138,264,32990,1,0,0:0:0:0:
138,264,33065,1,0,0:0:0:0:
138,264,33140,1,0,0:0:0:0:
381,264,33290,1,0,0:0:0:0:
138,123,33440,1,0,0:0:0:0:
260,334,33590,1,0,0:0:0:0:
381,124,33740,1,0,0:0:0:0:
138,123,33890,1,0,0:0:0:0:
260,334,34040,6,0,B|320:290|399:315|399:315|368:235,1,200,0|0,0:0|0:0,0:0:0:0:
214,256,34490,2,0,P|181:288|176:376,1,100,0|0,0:0|0:0,0:0:0:0:
380,264,34790,1,0,0:0:0:0:
245,109,34940,1,0,0:0:0:0:
108,248,35090,1,0,0:0:0:0:
333,117,35240,6,0,P|286:33|192:40,1,200,0|0,0:0|0:3,0:0:0:0:
198,192,35690,2,0,P|231:160|236:72,1,100,0|0,0:0|0:0,0:0:0:0:
148,118,35990,1,0,0:0:0:0:
362,222,36140,1,0,0:0:0:0:
160,100,36290,1,0,0:0:0:0:
347,240,36440,6,0,P|317:279|271:298,1,100,0|0,0:0|0:0,0:0:0:0:
227,25,36740,2,0,P|275:31|315:61,1,100,0|0,0:0|0:0,0:0:0:0:
101,237,37040,2,0,P|82:191|88:142,1,100,0|0,0:0|0:0,0:0:0:0:
196,361,37340,2,0,L|58:387,1,100,0|0,0:0|0:0,0:0:0:0:
97,150,37640,5,0,0:0:0:0:
97,150,37715,1,0,0:0:0:0:
97,150,37790,1,0,0:0:0:0:
322,173,37940,1,0,0:0:0:0:
196,361,38090,1,0,0:0:0:0:
214,99,38240,1,0,0:0:0:0:
313,303,38390,1,0,0:0:0:0:
86,286,38540,2,0,B|65:238|93:172,1,100,0|0,0:3|0:3,0:3:0:0:
391,96,38840,6,0,P|406:139|400:186,1,75.0000028610231,0|0,0:0|0:0,0:0:0:0:
401,330,39140,2,0,P|386:287|392:240,1,75.0000028610231,0|0,0:0|0:0,0:0:0:0:
242,157,39440,2,0,L|339:145,1,75.0000028610231,0|0,0:0|0:0,0:0:0:0:
254,289,39740,2,0,L|180:299,2,75.0000028610231,0|0|0,0:0|0:0|0:0,0:0:0:0:
254,289,40190,1,0,0:0:0:0:
242,157,40340,2,0,P|230:120|208:91,1,75.0000028610231,0|0,0:0|0:0,0:0:0:0:
113,21,40640,2,0,P|88:52|74:95,1,75.0000028610231,0|0,0:0|0:0,0:0:0:0:
69,303,40940,2,0,P|128:290|205:308,1,112.500004291535,0|0,0:0|0:0,0:0:0:0:
205,311,41240,6,0,P|242:319|278:314,1,75.0000028610231,0|0,0:0|0:0,0:0:0:0:
437,277,41540,2,0,P|391:270|346:285,1,75.0000028610231,0|0,0:0|0:0,0:0:0:0:
248,230,41840,2,0,P|277:207|313:196,1,75.0000028610231,0|0,0:0|0:0,0:0:0:0:
313,196,42140,1,0,0:0:0:0:
396,355,42290,2,0,L|470:362,1,75.0000028610231,0|0,0:0|0:0,0:0:0:0:
511,269,42590,2,0,L|436:276,1,75.0000028610231,0|0,0:0|0:0,0:0:0:0:
436,276,42890,1,0,0:0:0:0:
412,180,43040,2,0,L|487:188,1,75.0000028610231,0|0,0:0|0:0,0:0:0:0:
468,89,43340,2,0,L|393:96,1,75.0000028610231,0|0,0:0|0:0,0:0:0:0:
274,65,43640,6,0,P|289:108|283:155,1,75.0000028610231,0|0,0:0|0:0,0:0:0:0:
284,299,43940,2,0,P|269:256|275:209,1,75.0000028610231,0|0,0:0|0:0,0:0:0:0:
201,117,44240,2,0,L|118:129,1,75.0000028610231,0|0,0:0|0:0,0:0:0:0:
77,233,44540,2,0,L|-6:221,2,75.0000028610231,0|0|0,0:0|0:0|0:0,0:0:0:0:
77,233,44990,1,0,0:0:0:0:
176,346,45140,2,0,P|176:309|163:275,1,75.0000028610231,0|0,0:0|0:0,0:0:0:0:
51,137,45440,2,0,L|126:127,1,75.0000028610231,0|0,0:0|0:0,0:0:0:0:
425,102,45740,2,0,P|363:99|290:130,1,112.500004291535,0|0,0:0|0:0,0:0:0:0:
292,133,46040,6,0,P|256:146|220:147,1,75.0000028610231,0|0,0:0|0:0,0:0:0:0:
76,72,46340,2,0,P|106:95|125:127,1,75.0000028610231,0|0,0:0|0:0,0:0:0:0:
128,286,46640,2,0,P|134:248|151:215,1,75.0000028610231,0|0,0:0|0:0,0:0:0:0:
151,216,46940,1,0,0:0:0:0:
273,290,47090,1,0,0:0:0:0:
273,290,47165,1,0,0:0:0:0:
273,290,47240,1,0,0:0:0:0:
256,192,47315,12,0,48140,0:0:0:0:
313,326,48440,5,0,0:0:0:0:
347,181,53240,5,0,0:0:0:0:
445,157,56840,6,0,L|482:147,1,37.5000014305115,0|0,0:0|0:0,0:0:0:0:
271,106,56990,2,0,L|244:77,1,37.5000014305115,0|0,0:0|0:0,0:0:0:0:
315,282,57140,2,0,L|305:318,1,37.5000014305115,0|0,0:0|0:0,0:0:0:0:
372,81,57291,2,0,L|383:44,1,37.5000014305115,0|0,0:0|0:0,0:0:0:0:
242,207,57440,2,0,L|206:216,1,37.5000014305115,0|0,0:0|0:0,0:0:0:0:
417,257,57590,2,0,L|444:283,1,37.5000014305115,0|0,0:0|0:0,0:0:0:0:
347,181,57740,5,0,0:0:0:0:
347,181,58040,5,0,0:0:0:0:
141,273,58190,1,0,0:0:0:0:
253,78,58340,1,0,0:0:0:0:
273,302,58490,1,0,0:0:0:0:
126,135,58640,2,0,P|95:96|77:26,1,100,0|0,0:0|0:0,0:0:0:0:
253,78,58940,2,0,P|283:116|303:179,1,100,0|0,0:0|0:0,0:0:0:0:
141,273,59240,5,0,0:0:0:0:
172,50,59390,1,0,0:0:0:0:
300,164,59540,1,0,0:0:0:0:
40,142,59690,1,0,0:0:0:0:
253,78,59840,2,0,L|360:51,1,100,0|0,0:0|0:0,0:0:0:0:
396,173,60140,1,0,0:0:0:0:
152,229,60290,6,0,P|177:271|214:304,1,100,0|0,0:0|0:0,0:0:0:0:
300,272,60590,2,0,P|348:277|397:267,1,100,0|0,0:0|0:0,0:0:0:0:
475,114,60890,1,0,0:0:0:0:
306,68,61040,2,0,P|259:54|193:59,1,100,0|0,0:0|0:0,0:0:0:0:
398,266,61340,1,0,0:0:0:0:
475,114,61490,1,0,0:0:0:0:
314,76,61640,5,0,0:0:0:0:
314,76,61715,1,0,0:0:0:0:
314,76,61790,1,0,0:0:0:0:
193,246,61940,1,0,0:0:0:0:
399,267,62090,1,0,0:0:0:0:
205,126,62240,1,0,0:0:0:0:
290,316,62390,1,0,0:0:0:0:
416,148,62540,2,0,P|391:106|339:65,1,100,0|0,0:0|0:0,0:0:0:0:
83,275,62840,6,0,P|119:296|186:302,1,100,0|0,0:3|0:3,0:3:0:0:
270,55,63141,2,0,P|234:77|205:129,1,100,0|0,0:3|0:3,0:3:0:0:
358,329,63440,2,0,P|357:286|329:236,1,100,0|0,0:3|0:3,0:3:0:0:
108,162,63740,2,0,L|9:179,1,100,0|0,0:0|0:0,0:0:0:0:
271,305,64040,5,0,0:0:0:0:
271,305,64190,1,0,0:0:0:0:
307,87,64340,1,0,0:0:0:0:
307,87,64490,1,0,0:0:0:0:
108,162,64640,1,0,0:0:0:0:
329,237,64790,1,0,0:0:0:0:
153,80,64940,2,0,L|43:56,1,100,0|0,0:0|0:0,0:0:0:0:
90,315,65240,6,0,P|130:329|187:320,1,100,0|0,0:0|0:0,0:0:0:0:
249,87,65540,2,0,P|208:72|151:81,1,100,0|0,0:0|0:0,0:0:0:0:
285,324,65840,2,0,P|325:338|382:329,1,100,0|0,0:0|0:0,0:0:0:0:
444,96,66140,2,0,P|403:81|346:90,1,100,0|0,0:0|0:0,0:0:0:0:
180,312,66440,5,0,0:0:0:0:
425,187,66590,1,0,0:0:0:0:
425,187,66665,1,0,0:0:0:0:
425,187,66740,1,0,0:0:0:0:
153,144,66890,1,0,0:0:0:0:
347,338,67040,1,0,0:0:0:0:
304,66,67190,1,0,0:0:0:0:
180,312,67340,1,0,0:0:0:0:
425,187,67490,1,0,0:0:0:0:
153,144,67640,6,0,B|74:148|48:66|48:66|17:108|-11:95,1,200,0|0,0:0|0:0,0:0:0:0:
31,187,68090,2,0,P|65:213|122:222,1,100,0|0,0:0|0:0,0:0:0:0:
140,58,68390,1,0,0:0:0:0:
204,239,68540,1,0,0:0:0:0:
317,72,68690,1,0,0:0:0:0:
119,223,68840,6,0,P|153:312|247:318,1,200,0|0,0:0|0:3,0:0:0:0:
318,215,69290,2,0,P|352:188|409:179,1,100,0|0,0:0|0:0,0:0:0:0:
390,269,69590,1,0,0:0:0:0:
317,72,69740,1,0,0:0:0:0:
370,276,69890,1,0,0:0:0:0:
337,65,70040,6,0,P|386:61|431:82,1,100,0|0,0:0|0:0,0:0:0:0:
370,276,70340,2,0,P|320:279|275:258,1,100,0|0,0:0|0:0,0:0:0:0:
512,53,70640,2,0,P|516:102|495:147,1,100,0|0,0:0|0:0,0:0:0:0:
187,290,70940,2,0,P|184:240|205:195,1,100,0|0,0:0|0:0,0:0:0:0:
472,286,71240,5,0,0:0:0:0:
273,310,71390,1,0,0:0:0:0:
273,310,71465,1,0,0:0:0:0:
273,310,71540,1,0,0:0:0:0:
352,125,71690,1,0,0:0:0:0:
499,332,71840,1,0,0:0:0:0:
273,310,71990,1,0,0:0:0:0:
402,126,72140,2,0,P|451:122|496:143,1,100,0|0,0:0|0:0,0:0:0:0:
273,310,72440,6,0,B|170:332|185:234|76:262,1,200,0|0,0:0|0:0,0:0:0:0:
242,229,72890,2,0,P|291:225|336:246,1,100,0|0,0:0|0:0,0:0:0:0:
273,310,73190,1,0,0:0:0:0:
110,338,73340,1,0,0:0:0:0:
186,159,73490,1,0,0:0:0:0:
361,327,73640,6,0,P|292:394|204:362,1,200,0|0,0:0|0:3,0:0:0:0:
251,217,74090,2,0,P|273:256|254:342,1,100,0|0,0:0|0:0,0:0:0:0:
183,275,74390,1,0,0:0:0:0:
417,234,74540,1,0,0:0:0:0:
190,295,74690,1,0,0:0:0:0:
408,212,74840,6,0,P|389:166|350:135,1,100,0|0,0:0|0:0,0:0:0:0:
103,96,75140,2,0,P|121:141|160:172,1,100,0|0,0:0|0:0,0:0:0:0:
306,17,75440,2,0,P|261:35|230:73,1,100,0|0,0:0|0:0,0:0:0:0:
190,295,75741,2,0,P|235:276|266:238,1,100,0|0,0:0|0:0,0:0:0:0:
56,75,76040,5,0,0:0:0:0:
449,145,76340,5,0,0:0:0:0:
56,215,76640,5,0,0:0:0:0:
449,285,76940,5,0,0:0:0:0:
112,159,82040,5,0,0:0:0:0:
112,159,82190,1,0,0:0:0:0:
199,274,82340,2,0,P|215:236|208:180,1,75.0000028610231,0|0,0:0|0:0,0:0:0:0:
192,89,82640,2,0,L|294:64,2,75.0000028610231,0|0|0,0:0|0:0|0:0,0:0:0:0:
192,89,83090,1,0,0:0:0:0:
300,157,83240,2,0,L|402:132,1,75.0000028610231,0|0,0:0|0:0,0:0:0:0:
480,207,83540,2,0,L|408:225,1,75.0000028610231,0|0,0:0|0:0,0:0:0:0:
295,248,83840,6,0,P|258:239|221:245,1,75.0000028610231,0|0,0:0|0:0,0:0:0:0:
181,326,84140,2,0,L|108:343,1,75.0000028610231,0|0,0:0|0:0,0:0:0:0:
108,343,84440,1,0,0:0:0:0:
108,343,84590,1,0,0:0:0:0:
70,165,84740,2,0,L|93:236,1,75.0000028610231,0|0,0:0|0:0,0:0:0:0:
93,236,85040,1,0,0:0:0:0:
152,90,85190,2,0,L|155:164,2,75.0000028610231,0|0|0,0:0|0:0|0:0,0:0:0:0:
254,52,85640,6,0,L|360:77,1,75.0000028610231,0|0,0:0|0:0,0:0:0:0:
492,104,85940,2,0,L|419:121,1,75.0000028610231,0|0,0:0|0:0,0:0:0:0:
304,245,86240,2,0,L|325:173,1,75.0000028610231,0|0,0:0|0:0,0:0:0:0:
409,244,86540,2,0,L|370:379,1,112.500004291535,0|0,0:0|0:0,0:0:0:0:
349,381,86840,5,0,0:0:0:0:
349,381,86990,1,0,0:0:0:0:
349,381,87140,2,0,P|311:381|275:372,1,75.0000028610231,0|0,0:0|0:0,0:0:0:0:
119,329,87440,5,0,0:0:0:0:
119,329,87590,1,0,0:0:0:0:
119,329,87740,2,0,P|156:324|192:313,1,75.0000028610231,0|0,0:0|0:0,0:0:0:0:
143,148,88040,5,0,0:0:0:0:
143,148,88190,1,0,0:0:0:0:
143,148,88340,2,0,P|138:185|140:222,1,75.0000028610231,0|0,0:0|0:0,0:0:0:0:
267,102,88640,5,0,0:0:0:0:
267,102,88790,1,0,0:0:0:0:
267,102,88940,2,0,P|271:64|269:27,1,75.0000028610231,0|0,0:0|0:0,0:0:0:0:
62,332,89240,5,0,0:0:0:0:
455,262,89540,5,0,0:0:0:0:
62,192,89840,5,0,0:0:0:0:
455,122,90140,5,0,0:0:0:0:
62,52,90440,5,0,0:0:0:0:
432,121,91640,5,0,0:0:0:0:
217,188,91790,1,0,0:0:0:0:
382,342,91940,1,0,0:0:0:0:
306,91,92090,1,0,0:0:0:0:
254,312,92240,2,0,B|303:348|362:344,1,100,0|0,0:3|0:3,0:3:0:0:
470,246,92540,2,0,B|422:206|379:208,1,100,0|0,0:3|0:3,0:3:0:0:
157,226,92840,5,0,0:3:0:0:
346,344,92990,1,0,0:3:0:0:
263,134,93140,1,0,0:3:0:0:
211,354,93290,1,0,0:3:0:0:
211,354,93440,1,0,0:0:0:0:
379,207,93590,1,0,0:0:0:0:
379,207,93740,1,0,0:0:0:0:
157,226,93890,6,0,B|111:186|100:127,1,100,0|0,0:3|0:3,0:3:0:0:
171,98,94190,2,0,B|158:38|185:-13,1,100,0|0,0:3|0:3,0:3:0:0:
334,31,94490,1,0,0:0:0:0:
379,207,94640,2,0,P|388:255|380:304,1,100,0|0,0:0|0:0,0:0:0:0:
184,283,94940,1,0,0:0:0:0:
235,81,95090,1,0,0:0:0:0:
300,314,95240,5,0,0:0:0:0:
300,314,95315,1,0,0:0:0:0:
300,314,95390,1,0,0:0:0:0:
151,166,95540,1,0,0:0:0:0:
350,110,95690,1,0,0:0:0:0:
184,283,95840,1,0,0:0:0:0:
235,81,95990,1,0,0:0:0:0:
388,225,96140,2,0,P|370:270|326:320,1,100,0|0,0:0|0:0,0:0:0:0:
29,163,96440,6,0,P|56:122|100:99,1,100,0|0,0:0|0:0,0:0:0:0:
163,368,96740,2,0,P|114:365|72:338,1,100,0|0,0:0|0:0,0:0:0:0:
274,147,97040,2,0,P|296:191|293:240,1,100,0|0,0:0|0:0,0:0:0:0:
171,31,97340,2,0,L|306:-4,1,100,0|0,0:0|0:0,0:0:0:0:
