osu file format v14

[General]
AudioFilename: audio.mp3
AudioLeadIn: 0
PreviewTime: -1
Countdown: 0
SampleSet: Normal
StackLeniency: 1
Mode: 0
LetterboxInBreaks: 0
WidescreenStoryboard: 0

[Editor]
DistanceSpacing: 2.2
BeatDivisor: 4
GridSize: 8
TimelineZoom: 3.999998

[Metadata]
Title:oyasumi
TitleUnicode:oyasumi
Artist:Shiggy Jr.
ArtistUnicode:Shiggy Jr.
Creator:I Love Chiaki
Version:Anti-PP Mapping
Source:who cares
Tags:metadata is for idiots uldis ulders i love chiaki anfeargorm absoluite epic 4 anime girl feet shiggy jr oyasumi epic pp map sliders sotarks
BeatmapID:2248855
BeatmapSetID:1074632

[Difficulty]
HPDrainRate:3.6
CircleSize:4
OverallDifficulty:10
ApproachRate:9.3
SliderMultiplier:1.3
SliderTickRate:1

[Events]
//Background and Video events
0,0,"sample-704bf9b9c2a6be7267acde537aba4b55.jpg",0,0
//Break Periods
//Storyboard Layer 0 (Background)
//Storyboard Layer 1 (Fail)
//Storyboard Layer 2 (Pass)
//Storyboard Layer 3 (Foreground)
//Storyboard Layer 4 (Overlay)
//Storyboard Sound Samples

[TimingPoints]
438,300,4,1,0,100,1,0
438,-66.6666666666667,4,1,0,100,0,0
4638,-1000,4,1,0,100,0,0
5238,-66.6666666666667,4,1,0,100,0,0
6288,-333.333333333333,4,1,0,100,0,0
6438,-66.6666666666667,4,1,0,100,0,0
9438,-1000,4,1,0,100,0,0
10038,-66.6666666666667,4,1,0,100,0,0
18438,-133.333333333333,4,1,0,100,0,0
19638,-133.333333333333,4,1,0,100,0,1
20538,-25,4,1,0,100,0,1
20838,-133.333333333333,4,1,0,100,0,1
21888,-25,4,1,0,100,0,1
22488,-105.263157894737,4,1,0,100,0,1
22788,-28.5714285714286,4,1,0,100,0,1
23163,-38.4615384615385,4,1,0,100,0,1
23688,-45.4545454545455,4,1,0,100,0,1
24138,-38.4615384615385,4,1,0,100,0,1
25713,-47.6190476190476,4,1,0,100,0,1
27138,-41.6666666666667,4,1,0,100,0,1
27438,-37.037037037037,4,1,0,100,0,1
27738,-32.258064516129,4,1,0,100,0,1
27888,-47.6190476190476,4,1,0,100,0,1
28113,-66.6666666666667,4,1,0,100,0,1
28638,-47.6190476190476,4,1,0,100,0,1
29238,-34.4827586206897,4,1,0,100,0,1
29988,-133.333333333333,4,1,0,100,0,1
30438,-34.4827586206897,4,1,0,100,0,1
30813,-38.4615384615385,4,1,0,100,0,1
31038,-133.333333333333,4,1,0,100,0,1
31638,-38.4615384615385,4,1,0,100,0,1
31638,-37.037037037037,4,1,0,100,0,1
32238,-35.7142857142857,4,1,0,100,0,1
33438,-32.258064516129,4,1,0,100,0,1
34038,-52.6315789473684,4,1,0,100,0,1
34788,-133.333333333333,4,1,0,100,0,1
35238,-55.5555555555556,4,1,0,100,0,1
35988,-133.333333333333,4,1,0,100,0,1
36438,-35.7142857142857,4,1,0,100,0,1
38238,-47.6190476190476,4,1,0,100,0,1
38538,-58.8235294117647,4,1,0,100,0,1
38838,-133.333333333333,4,1,0,100,0,0
41238,-1000,4,1,0,100,0,0

[HitObjects]
238,38,438,6,0,P|185:54|212:124,1,146.250005578995
304,172,738,2,0,P|346:183|334:228,1,97.50000371933
214,305,1038,2,0,P|249:336|300:342,2,97.50000371933
155,67,1488,6,0,P|88:119|80:171,1,97.50000371933
102,284,1788,2,0,P|137:315|188:321,2,97.50000371933
201,58,2238,2,0,L|237:91,1,48.750001859665
326,224,2388,2,0,L|267:213,1,48.750001859665
104,183,2538,2,0,L|148:129,2,48.750001859665
194,36,2838,6,0,P|253:64|221:121,1,146.250005578995
127,169,3138,2,0,P|84:180|95:223,1,97.50000371933
217,303,3438,2,0,P|180:334|133:340,2,97.50000371933
385,137,3888,6,0,B|403:173|403:173|364:310,1,146.250005578995
294,357,4188,2,0,P|242:335|227:306,1,48.750001859665
115,177,4338,2,0,B|124:224|124:224|219:303,1,146.250005578995
244,218,4638,6,0,L|262:213,1,19.5
175,68,5238,6,0,B|79:99|99:176,1,146.250005578995
145,281,5538,2,0,B|183:317|183:317|319:306,1,146.250005578995
392,220,5838,2,0,P|429:259|416:328,2,97.50000371933
229,144,6288,6,0,L|259:149,1,29.2499991073609
161,77,6588,6,0,L|136:139,1,48.750001859665
220,240,6738,2,0,L|279:235,1,48.750001859665
304,70,7038,6,0,L|338:125,1,48.750001859665
423,273,7188,2,0,L|357:289,1,48.750001859665
178,175,7338,2,0,L|157:116,1,48.750001859665
156,28,7638,6,0,B|221:72|221:72|243:124,1,97.50000371933
282,238,7938,2,0,L|181:239,1,97.50000371933
133,156,8238,6,0,P|89:193|70:266,2,97.50000371933
339,175,8688,6,0,P|302:131|229:112,1,97.50000371933
131,79,8988,2,0,L|186:93,1,48.750001859665
261,194,9138,2,0,L|331:270,1,97.50000371933
375,343,9438,6,0,L|362:323,1,22.75
302,179,10038,6,0,L|215:151,1,48.750001859665
368,216,12138,6,0,L|328:172,1,48.750001859665
248,56,12288,2,0,L|203:125,1,48.750001859665
176,256,12438,2,0,L|235:228,1,48.750001859665
160,216,14538,6,0,L|115:236,1,48.750001859665
161,77,14688,2,0,L|187:36,1,48.750001859665
275,160,14838,2,0,L|307:196,1,48.750001859665
449,342,14988,2,0,L|407:315,1,48.750001859665
81,44,17238,6,0,L|130:67,1,48.750001859665
352,208,17388,2,0,L|315:168,1,48.750001859665
249,36,17688,6,0,P|212:64|243:106,1,97.50000371933
382,89,18438,6,0,L|400:105,1,24.3750009298325
374,117,18513,2,0,L|392:134,1,24.3750009298325
366,149,18588,2,0,L|383:165,1,24.3750009298325
348,177,18663,2,0,L|362:197,1,24.3750009298325
336,204,18738,2,0,L|350:224,1,24.3750009298325
321,234,18813,2,0,L|330:256,1,24.3750009298325
300,249,18888,2,0,L|295:272,1,24.3750009298325
267,271,18963,2,0,L|259:293,1,24.3750009298325
227,290,19038,2,0,L|197:294,1,24.3750009298325
185,295,19113,2,0,L|147:303,1,24.3750009298325
147,305,19188,2,0,L|115:303,1,24.3750009298325
108,300,19263,2,4,L|77:285,1,24.3750009298325,4|0,0:0|0:0,0:0:0:0:
230,81,19638,6,0,L|251:119,1,24.3750009298325
331,292,19788,2,0,L|290:273,1,24.3750009298325
133,179,19938,2,0,L|175:184,1,24.3750009298325
369,168,20088,2,0,L|329:184,1,24.3750009298325
180,260,20238,6,0,L|107:286,1,73.1250027894975
38,247,20538,2,0,P|44:317|255:242,1,390
230,81,20838,6,4,L|251:119,1,24.3750009298325
331,292,20988,2,0,L|290:273,1,24.3750009298325
133,179,21138,2,12,L|175:184,1,24.3750009298325
369,168,21288,2,0,L|329:184,1,24.3750009298325
195,259,21438,6,0,L|218:222,1,24.3750009298325
334,70,21588,2,0,L|336:115,1,24.3750009298325
327,298,21738,2,0,L|312:257,1,24.3750009298325
213,86,21888,6,0,P|143:92|218:303,1,390
372,238,22188,6,0,P|412:180|202:102,1,390
106,189,22488,2,0,L|139:236,1,30.8749991755486
234,329,22638,2,0,L|247:302,1,30.8749991755486
353,116,22788,2,0,P|458:250|446:334,2,227.500002169609
119,63,23238,6,0,L|113:212,1,84.4999961318971
129,338,23388,2,0,L|207:93,1,253.499988395691
242,30,23688,2,0,B|284:77|284:77|233:241|233:241|270:295,1,286.000008728028
335,349,24438,6,0,P|424:267|423:153,1,168.999992263794
234,197,24738,2,0,P|243:280|295:345,1,168.999992263794
417,204,25038,2,0,P|342:168|259:178,1,168.999992263794
185,148,25338,2,0,L|54:27,2,168.999992263794
286,219,25713,6,0,L|404:164,1,68.2499979171754
419,147,25938,2,0,P|430:212|390:264,2,136.499995834351
223,64,26313,2,0,L|267:132,1,68.2499979171754
358,194,26463,2,0,L|281:189,1,68.2499979171754
154,210,26613,2,0,L|220:178,1,68.2499979171754
440,69,26838,6,0,L|364:196,1,136.499995834351
330,266,27138,2,0,L|233:130,1,155.999995239258
191,50,27438,2,0,L|115:216,1,175.500000669479
112,304,27738,2,0,L|289:179,1,201.500001537323
351,63,28038,2,0,L|389:129,1,68.2499979171754
397,297,28188,6,0,L|397:353,1,48.750001859665
397,297,28338,6,0,L|286:156,1,146.250005578995
259,102,28638,2,0,B|197:134|197:134|112:244,1,204.749993751526
214,270,28938,2,0,B|281:187|281:187|370:142,1,204.749993751526
447,148,29238,6,0,P|429:264|153:295,1,377.000011505127
80,299,29688,2,0,P|98:183|256:84,1,282.750008628845
358,83,29988,6,0,L|379:121,1,24.3750009298325
459,294,30138,2,0,L|418:275,1,24.3750009298325
261,181,30288,2,0,L|225:159,1,24.3750009298325
51,77,30438,6,0,P|69:193|297:296,1,377.000011505127
373,118,30888,2,0,P|450:188|378:166,1,253.499988395691
109,215,31188,6,0,L|140:185,1,24.3750009298325
174,90,31338,6,0,L|203:121,1,24.3750009298325
307,221,31488,6,0,L|275:250,1,24.3750009298325
131,341,31638,2,0,L|31:87,1,253.499988395691
22,26,31938,2,0,L|319:48,1,253.499988395691
358,49,32238,6,0,B|393:90|418:130|415:191|400:239|400:239|391:272|386:279|374:270|340:172,1,272.999991668701
334,171,32538,2,0,B|328:131|302:79|261:44|137:80|137:80|172:166,1,272.999991668701
191,144,32838,2,0,P|211:100|74:106,1,272.999991668701
110,190,33138,2,0,P|90:233|227:228,1,272.999991668701
190,143,33438,6,0,P|309:84|343:212,1,302.250002305985
273,215,33738,2,0,P|253:258|402:243,1,302.250002305985
383,142,34038,2,0,P|284:68|120:74,1,246.999993404389
90,239,34488,2,0,L|219:197,1,123.499996702194
318,66,34788,6,0,L|339:104,1,24.3750009298325
419,277,34938,2,0,L|378:258,1,24.3750009298325
221,164,35088,2,0,L|263:145,1,24.3750009298325
399,39,35238,6,0,P|381:155|138:229,1,350.99998928833
84,103,35763,2,0,L|66:172,1,61.7499983510972
339,87,35988,6,0,L|360:125,1,24.3750009298325
440,298,36138,2,0,L|399:279,1,24.3750009298325
242,185,36288,2,0,L|284:166,1,24.3750009298325
333,248,36438,2,0,P|238:314|215:201,1,272.999991668701
178,108,36738,2,0,P|272:41|295:154,1,272.999991668701
249,108,37038,6,0,B|241:90|241:90|365:54|406:89|432:141|438:181,1,272.999991668701
471,250,37337,2,0,B|479:280|491:289|496:282|505:249|505:249|520:201|523:140|498:100|463:59,1,272.999991668701
379,55,37654,2,0,L|126:36,1,253.499988395691
113,115,37954,2,0,B|193:315|193:315|253:334,1,272.999991668701
319,353,38238,6,0,B|330:282|330:282|396:227|396:227|378:162,1,204.749993751526
342,109,38538,2,0,L|212:68,1,110.50000210762
77,66,38838,6,0,L|70:185,1,97.50000371933
210,70,39438,2,0,L|203:189,1,97.50000371933
338,71,40038,2,0,L|331:190,1,97.50000371933
182,248,40488,2,0,L|224:263,2,24.3750009298325
67,267,40788,6,0,L|82:225,1,24.3750009298325
83,173,40938,2,0,L|113:119,1,48.750001859665
195,61,41238,6,0,L|285:113,1,104
