osu file format v14

[General]
AudioFilename: audio.mp3
AudioLeadIn: 0
PreviewTime: 57942
Countdown: 1
SampleSet: Soft
StackLeniency: 0.7
Mode: 0
LetterboxInBreaks: 0
WidescreenStoryboard: 0

[Editor]
DistanceSpacing: 0.8
BeatDivisor: 4
GridSize: 8
TimelineZoom: 1.9

[Metadata]
Title:oyasumi
TitleUnicode:oyasumi
Artist:Shiggy Jr.
ArtistUnicode:Shiggy Jr.
Creator:SnowNiNo_
Version:Zzz
Source:
Tags:おやすみ listen to the music 池田 智子 tomoko ikeda 原田 茂幸 shigeyuki harada 森 夏彦 natsuhiko mori 諸石 和馬 kazuma moroishi japanese pop jpop j-pop rock jrock j-rock full size long version female vocal
BeatmapID:1490015
BeatmapSetID:704338

[Difficulty]
HPDrainRate:4.5
CircleSize:4
OverallDifficulty:9
ApproachRate:9.5
SliderMultiplier:2.1
SliderTickRate:1

[Events]
//Background and Video events
0,0,"starstorm.png",0,0
//Break Periods
//Storyboard Layer 0 (Background)
//Storyboard Layer 1 (Fail)
//Storyboard Layer 2 (Pass)
//Storyboard Layer 3 (Foreground)
//Storyboard Layer 4 (Overlay)
//Storyboard Sound Samples

[TimingPoints]
492,300,4,2,1,70,1,0
492,-100,4,2,1,70,0,0
10242,-133.333333333333,4,2,2,50,0,0
18492,-133.333333333333,4,2,1,50,0,0
19692,-83.3333333333333,4,2,1,90,0,1
38892,-100,4,2,1,70,0,0
58092,-83.3333333333333,4,2,1,90,0,1
77292,-100,4,2,1,70,0,0
89517,-100,4,2,1,5,0,0
89592,-100,4,2,1,70,0,0
89817,-100,4,2,1,5,0,0
89892,-100,4,2,1,70,0,0
90117,-100,4,2,1,5,0,0
90192,-100,4,2,1,70,0,0
90417,-100,4,2,1,5,0,0
90492,-100,4,2,1,70,0,0
91692,-83.3333333333333,4,2,1,90,0,1
110892,-83.3333333333333,4,2,1,90,0,0
113142,-83.3333333333333,4,2,1,90,0,1
130092,-83.3333333333333,4,2,1,90,0,0

[Colours]
Combo1 : 255,0,0
Combo2 : 192,192,192
Combo3 : 0,0,128
Combo4 : 64,0,64

[HitObjects]
126,132,492,6,0,L|137:254,1,105,2|0,0:0|0:0,0:0:0:0:
275,27,792,2,0,L|264:149,1,105,8|0,0:0|0:0,0:0:0:0:
246,256,1092,1,2,0:0:0:0:
386,99,1242,2,0,L|397:221,1,105,2|8,0:0|0:0,0:0:0:0:
237,361,1542,6,0,L|246:256,1,105,0|2,0:0|0:0,0:0:0:0:
266,131,1842,1,0,0:0:0:0:
136,236,1992,2,0,L|126:131,1,105,8|0,0:0|0:0,0:0:0:0:
246,256,2292,5,2,0:0:0:0:
26,216,2442,1,2,0:0:0:0:
146,341,2592,1,8,0:0:0:0:
126,131,2742,1,0,0:0:0:0:
272,256,2892,6,0,L|265:374,1,105,2|0,0:0|0:0,0:0:0:0:
389,159,3192,2,0,L|396:277,1,105,8|0,0:0|0:0,0:0:0:0:
383,55,3492,1,2,0:0:0:0:
200,105,3642,2,0,L|193:223,1,105,2|8,0:0|0:0,0:0:0:0:
401,368,3942,6,0,L|394:250,1,105,0|2,0:0|0:0,0:0:0:0:
389,159,4242,1,0,0:0:0:0:
278,272,4392,2,0,L|285:154,1,105,8|0,0:0|0:0,0:0:0:0:
334,34,4692,2,0,P|303:94|169:90,1,210,2|8,0:0|0:0,0:0:0:0:
77,26,5142,1,0,0:0:0:0:
106,191,5292,5,2,0:0:0:0:
9,123,5442,1,0,0:0:0:0:
174,94,5592,2,0,L|293:90,1,105,8|0,0:0|0:0,0:0:0:0:
82,196,5892,1,2,0:0:0:0:
101,21,6042,1,2,0:0:0:0:
278,90,6192,2,0,L|269:212,1,105,8|0,0:0|0:0,0:0:0:0:
185,299,6492,5,0,0:0:0:0:
149,102,6642,1,0,0:0:0:0:
376,196,6792,2,0,L|262:195,1,105,8|0,0:0|0:0,0:0:0:0:
243,41,7092,1,2,0:0:0:0:
479,182,7242,1,2,0:0:0:0:
278,299,7392,2,0,L|270:174,1,105,8|0,0:0|0:0,0:0:0:0:
149,102,7692,5,2,0:0:0:0:
130,251,7842,1,0,0:0:0:0:
271,194,7992,2,0,L|263:69,1,105,8|0,0:0|0:0,0:0:0:0:
132,98,8292,1,2,0:0:0:0:
289,203,8442,1,2,0:0:0:0:
117,265,8592,2,0,L|-3:261,1,105,8|0,0:0|0:0,0:0:0:0:
115,94,8892,5,0,0:0:0:0:
246,284,9042,1,0,0:0:0:0:
244,113,9192,1,8,0:0:0:0:
117,265,9342,1,0,0:0:0:0:
185,32,9492,1,2,0:0:0:0:
352,207,9642,1,0,0:0:0:0:
352,207,9717,1,0,0:0:0:0:
352,207,9792,1,8,0:0:0:0:
57,182,9942,5,0,0:0:0:0:
390,63,10092,1,2,0:0:0:0:
444,152,10242,6,0,L|453:243,2,78.7500030040742,0|8|0,0:0|0:0|0:0,0:0:0:0:
344,285,10692,2,0,L|351:206,1,78.7500030040742,0|0,0:0|0:0,0:0:0:0:
259,152,10992,2,0,L|268:243,1,78.7500030040742,8|0,0:0|0:0,0:0:0:0:
215,310,11292,2,0,P|188:270|71:278,1,157.500006008148,0|8,0:0|0:0,0:0:0:0:
134,338,11742,2,0,L|142:155,1,157.500006008148,0|0,0:0|0:0,0:0:0:0:
16,333,12192,5,10,0:0:0:0:
22,175,12342,1,2,0:0:0:0:
134,338,12492,6,0,L|225:342,1,78.7500030040742,2|0,0:0|0:0,0:0:0:0:
252,260,12792,2,0,L|330:256,1,78.7500030040742,8|0,0:0|0:0,0:0:0:0:
330,256,13092,1,0,0:0:0:0:
388,185,13242,2,0,L|479:189,1,78.7500030040742,0|8,0:0|0:0,0:0:0:0:
496,106,13542,5,0,0:0:0:0:
496,106,13617,1,0,0:0:0:0:
496,106,13692,1,0,0:0:0:0:
426,54,13842,1,0,0:0:0:0:
357,107,13992,1,8,0:0:0:0:
388,185,14142,5,0,0:0:0:0:
388,185,14217,1,0,0:0:0:0:
388,185,14292,1,0,0:0:0:0:
317,235,14442,1,0,0:0:0:0:
249,180,14592,5,10,0:0:0:0:
426,54,14742,1,2,0:0:0:0:
385,290,14892,1,2,0:0:0:0:
290,26,15042,1,2,0:0:0:0:
246,101,15192,6,0,L|249:198,1,78.7500030040742,8|0,0:0|0:0,0:0:0:0:
221,262,15492,1,0,0:0:0:0:
152,209,15642,1,0,0:0:0:0:
125,292,15792,2,0,L|128:389,1,78.7500030040742,8|0,0:0|0:0,0:0:0:0:
56,239,16092,6,0,L|61:65,1,157.500006008148,0|8,0:0|0:0,0:0:0:0:
122,20,16542,2,0,P|144:63|260:79,1,157.500006008148,0|0,0:0|0:0,0:0:0:0:
318,63,16992,1,8,0:0:0:0:
364,127,17142,1,0,0:0:0:0:
318,191,17292,5,2,0:0:0:0:
211,8,17442,1,2,0:0:0:0:
155,345,17742,5,2,0:0:0:0:
80,300,17892,2,0,L|75:210,1,78.7500030040742,0|0,0:0|0:0,0:0:0:0:
3,172,18192,2,0,L|8:82,1,78.7500030040742,8|0,0:0|0:0,0:0:0:0:
103,31,18492,5,8,0:0:0:0:
101,89,18567,1,8,0:0:0:0:
118,145,18642,1,8,0:0:0:0:
153,193,18717,1,8,0:0:0:0:
202,226,18792,1,2,0:0:0:0:
259,241,18867,1,0,0:0:0:0:
317,237,18942,1,8,0:0:0:0:
371,213,19017,1,8,0:0:0:0:
414,173,19092,5,2,0:0:0:0:
352,128,19167,1,0,0:0:0:0:
274,128,19242,1,8,0:0:0:0:
212,174,19317,1,8,0:0:0:0:
189,248,19392,1,2,0:0:0:0:
98,68,19692,6,0,B|68:122|68:122|80:186,1,125.999996154785,6|0,0:3|0:0,0:0:0:0:
370,199,19992,1,8,0:0:0:0:
165,139,20142,1,0,0:0:0:0:
436,273,20292,2,0,B|466:219|466:219|454:155,1,125.999996154785,2|0,0:0|0:0,0:0:0:0:
74,56,20592,2,0,B|44:110|44:110|55:173,1,125.999996154785,8|0,0:0|0:0,0:0:0:0:
391,200,20892,5,2,0:0:0:0:
147,128,21042,1,0,0:0:0:0:
392,70,21192,1,8,0:0:0:0:
321,314,21342,1,0,0:0:0:0:
223,16,21492,1,2,0:0:0:0:
152,261,21642,1,2,0:0:0:0:
419,208,21792,1,8,0:0:0:0:
118,121,21942,6,0,B|51:123|51:123|-6:173,1,125.999996154785,0|2,0:0|0:0,0:0:0:0:
310,269,22242,2,0,B|354:307|354:307|421:309,1,125.999996154785,0|8,0:0|0:0,0:0:0:0:
321,78,22542,1,0,0:0:0:0:
110,220,22692,2,0,L|119:348,1,125.999996154785,2|0,0:0|0:0,0:0:0:0:
232,45,22992,1,8,0:0:0:0:
310,269,23142,1,0,0:0:0:0:
69,179,23292,5,6,0:0:0:0:
368,65,23442,1,0,0:0:0:0:
39,176,23592,1,12,0:0:0:0:
419,270,23742,1,0,0:0:0:0:
10,173,23892,1,6,0:0:0:0:
398,61,24042,1,2,0:0:0:0:
238,379,24192,1,12,0:0:0:0:
149,10,24342,1,0,0:0:0:0:
404,263,24492,6,0,B|349:295|349:295|263:290,1,125.999996154785,2|0,0:0|0:0,0:0:0:0:
31,38,24792,2,0,B|86:6|86:6|172:11,1,125.999996154785,8|0,0:0|0:0,0:0:0:0:
135,308,25092,2,0,L|120:178,1,125.999996154785,2|0,0:0|0:0,0:0:0:0:
323,61,25392,1,8,0:0:0:0:
286,291,25542,1,0,0:0:0:0:
148,9,25692,5,2,0:0:0:0:
289,343,25842,1,0,0:0:0:0:
120,182,25992,1,8,0:0:0:0:
323,61,26142,2,0,B|384:43|384:43|454:52,1,125.999996154785,0|0,0:0|0:0,0:0:0:0:
174,276,26442,2,0,B|112:283|112:283|51:265,1,125.999996154785,2|8,0:0|0:0,0:0:0:0:
200,119,26742,1,0,0:0:0:0:
289,343,26892,6,0,L|302:213,1,125.999996154785,6|0,0:0|0:0,0:0:0:0:
107,56,27192,2,0,L|120:186,1,125.999996154785,8|0,0:0|0:0,0:0:0:0:
338,27,27492,1,6,0:0:0:0:
174,276,27642,1,0,0:0:0:0:
189,40,27792,1,8,0:0:0:0:
419,268,27942,1,0,0:0:0:0:
119,181,28092,5,6,0:0:0:0:
387,119,28242,1,8,0:0:0:0:
430,114,28317,1,8,0:0:0:0:
474,109,28392,1,12,0:0:0:0:
284,284,28542,1,8,0:0:0:0:
222,16,28692,5,12,0:0:0:0:
150,315,28842,1,2,0:0:0:0:
218,0,28992,1,12,0:0:0:0:
418,253,29142,1,8,0:0:0:0:
45,120,29292,6,0,B|104:93|104:93|185:96,1,125.999996154785,6|0,0:0|0:0,0:0:0:0:
330,130,29592,1,8,0:0:0:0:
150,315,29742,2,0,B|123:256|123:256|126:175,1,125.999996154785,0|2,0:0|0:0,0:0:0:0:
280,38,30042,1,2,0:0:0:0:
218,235,30192,1,8,0:0:0:0:
160,21,30342,1,0,0:0:0:0:
330,130,30492,6,0,L|467:124,1,125.999996154785,6|0,0:0|0:0,0:0:0:0:
493,292,30792,1,8,0:0:0:0:
218,235,30942,2,0,B|182:182|182:182|178:111,1,125.999996154785,0|2,0:0|0:0,0:0:0:0:
434,40,31242,1,2,0:0:0:0:
305,284,31392,1,8,0:0:0:0:
230,26,31542,1,0,0:0:0:0:
430,276,31692,6,0,L|295:284,1,125.999996154785,6|0,0:0|0:0,0:0:0:0:
53,113,31992,2,0,L|188:121,1,125.999996154785,8|0,0:0|0:0,0:0:0:0:
202,306,32292,1,6,0:0:0:0:
280,97,32442,1,0,0:0:0:0:
160,311,32592,1,8,0:0:0:0:
322,92,32742,1,0,0:0:0:0:
420,345,32892,6,0,L|285:337,1,125.999996154785,6|0,0:0|0:0,0:0:0:0:
71,214,33192,2,0,L|206:206,1,125.999996154785,12|0,0:0|0:0,0:0:0:0:
389,111,33492,1,6,0:0:0:0:
294,337,33642,1,2,0:0:0:0:
294,337,33717,1,0,0:0:0:0:
294,337,33792,1,12,0:0:0:0:
203,92,33942,1,8,0:0:0:0:
481,228,34092,6,0,L|488:364,1,125.999996154785,6|0,0:0|0:0,0:0:0:0:
475,54,34392,1,8,0:0:0:0:
342,228,34542,2,0,B|284:257|284:257|202:241,1,125.999996154785,0|2,0:0|0:0,0:0:0:0:
90,77,34842,1,2,0:0:0:0:
342,119,34992,1,8,0:0:0:0:
76,89,35142,1,0,0:0:0:0:
249,21,35292,6,0,B|266:81|266:81|252:151,1,125.999996154785,6|0,0:0|0:0,0:0:0:0:
68,289,35592,1,8,0:0:0:0:
64,103,35742,2,0,B|123:73|123:73|197:91,1,125.999996154785,0|2,0:0|0:0,0:0:0:0:
328,257,36042,1,2,0:0:0:0:
133,170,36192,1,8,0:0:0:0:
334,77,36342,1,0,0:0:0:0:
143,295,36492,6,0,L|132:156,1,125.999996154785,6|0,0:0|0:0,0:0:0:0:
328,257,36792,2,0,L|317:396,1,125.999996154785,8|0,0:0|0:0,0:0:0:0:
198,44,37092,1,6,0:0:0:0:
143,295,37242,1,0,0:0:0:0:
191,17,37392,1,8,0:0:0:0:
328,257,37542,1,0,0:0:0:0:
86,168,37692,5,6,0:0:0:0:
358,57,37842,1,0,0:0:0:0:
43,165,37992,1,12,0:0:0:0:
371,260,38142,1,0,0:0:0:0:
415,263,38217,1,0,0:0:0:0:
458,266,38292,1,6,0:0:0:0:
0,162,38442,1,0,0:0:0:0:
401,53,38592,1,12,0:0:0:0:
256,352,38742,1,0,0:0:0:0:
256,0,38892,5,6,0:0:0:0:
175,24,39042,1,0,0:0:0:0:
199,105,39192,1,0,0:0:0:0:
280,81,39342,1,0,0:0:0:0:
116,85,39492,5,0,0:0:0:0:
260,163,39642,1,0,0:0:0:0:
182,307,39792,1,0,0:0:0:0:
38,229,39942,1,0,0:0:0:0:
38,229,40242,5,0,0:0:0:0:
56,147,40392,1,0,0:0:0:0:
139,137,40542,1,0,0:0:0:0:
182,307,40692,5,0,0:0:0:0:
200,203,40842,1,0,0:0:0:0:
220,100,40992,1,0,0:0:0:0:
220,100,41292,5,0,0:0:0:0:
298,68,41442,1,0,0:0:0:0:
286,151,41592,1,0,0:0:0:0:
364,119,41742,1,0,0:0:0:0:
232,17,41892,5,0,0:0:0:0:
208,183,42042,1,0,0:0:0:0:
298,68,42192,1,0,0:0:0:0:
274,234,42342,1,0,0:0:0:0:
274,234,42642,5,0,0:0:0:0:
343,280,42792,1,0,0:0:0:0:
414,236,42942,1,0,0:0:0:0:
190,101,43092,5,0,0:0:0:0:
208,183,43242,1,0,0:0:0:0:
126,201,43392,1,0,0:0:0:0:
108,119,43542,1,0,0:0:0:0:
271,127,43692,5,0,0:0:0:0:
289,209,43842,1,0,0:0:0:0:
226,265,43992,1,0,0:0:0:0:
208,183,44142,1,0,0:0:0:0:
307,291,44292,5,0,0:0:0:0:
145,239,44442,1,0,0:0:0:0:
370,235,44592,1,0,0:0:0:0:
208,183,44742,1,0,0:0:0:0:
208,183,45042,5,0,0:0:0:0:
226,265,45192,1,0,0:0:0:0:
145,239,45342,1,0,0:0:0:0:
289,209,45492,5,0,0:0:0:0:
163,321,45642,1,0,0:0:0:0:
208,183,45792,2,0,L|204:61,1,105,0|0,0:0|0:0,0:0:0:0:
307,291,46092,5,0,0:0:0:0:
373,130,46242,2,0,L|370:235,1,105,0|0,0:0|0:0,0:0:0:0:
388,317,46542,1,0,0:0:0:0:
454,156,46692,2,0,L|451:261,1,105,0|0,0:0|0:0,0:0:0:0:
289,209,46992,1,0,0:0:0:0:
292,104,47142,1,0,0:0:0:0:
370,235,47292,5,0,0:0:0:0:
211,78,47442,1,0,0:0:0:0:
159,63,47517,1,0,0:0:0:0:
108,49,47592,1,0,0:0:0:0:
292,104,47742,1,0,0:0:0:0:
208,183,47892,2,0,L|92:191,1,105,0|0,0:0|0:0,0:0:0:0:
28,151,48192,1,0,0:0:0:0:
35,234,48342,1,0,0:0:0:0:
103,190,48492,5,2,0:0:0:0:
409,190,48792,1,8,0:0:0:0:
112,176,49092,5,2,0:0:0:0:
418,176,49392,1,8,0:0:0:0:
121,162,49692,5,2,0:0:0:0:
427,162,49992,1,8,0:0:0:0:
130,148,50292,5,0,0:0:0:0:
436,148,50592,1,8,0:0:0:0:
291,311,50742,1,2,0:0:0:0:
139,134,50892,5,2,0:0:0:0:
445,134,51192,1,8,0:0:0:0:
148,120,51492,5,2,0:0:0:0:
454,120,51792,1,8,0:0:0:0:
157,106,52092,5,2,0:0:0:0:
463,106,52392,1,8,0:0:0:0:
166,92,52692,5,2,0:0:0:0:
472,92,52992,1,10,0:0:0:0:
327,255,53142,1,2,0:0:0:0:
175,78,53292,5,2,0:0:0:0:
219,336,53592,1,8,0:0:0:0:
199,72,53892,5,2,0:0:0:0:
243,330,54192,1,8,0:0:0:0:
223,66,54492,5,2,0:0:0:0:
267,324,54792,1,8,0:0:0:0:
247,60,55092,5,0,0:0:0:0:
291,318,55392,1,8,0:0:0:0:
91,203,55542,1,0,0:0:0:0:
271,54,55692,5,2,0:0:0:0:
315,312,55992,1,8,0:0:0:0:
295,48,56292,5,2,0:0:0:0:
339,306,56592,1,8,0:0:0:0:
319,42,56892,5,8,0:0:0:0:
270,23,56967,1,8,0:0:0:0:
217,22,57042,1,8,0:0:0:0:
168,40,57117,1,8,0:0:0:0:
128,74,57192,1,8,0:0:0:0:
103,119,57267,1,8,0:0:0:0:
95,171,57342,1,8,0:0:0:0:
105,222,57417,1,8,0:0:0:0:
132,267,57492,5,2,0:0:0:0:
175,203,57567,1,2,0:0:0:0:
251,195,57642,1,2,0:0:0:0:
306,247,57717,1,2,0:0:0:0:
302,323,57792,1,2,0:0:0:0:
302,323,58092,6,0,B|246:353|246:353|171:339,1,125.999996154785,6|0,0:3|0:0,0:0:0:0:
251,51,58392,1,8,0:0:0:0:
231,272,58542,1,0,0:0:0:0:
99,50,58692,1,2,0:0:0:0:
375,175,58842,1,2,0:0:0:0:
102,296,58992,2,0,B|75:234|75:234|83:169,1,125.999996154785,8|0,0:0|0:0,0:0:0:0:
331,94,59292,5,2,0:0:0:0:
294,342,59442,1,0,0:0:0:0:
194,73,59592,1,8,0:0:0:0:
464,181,59742,1,0,0:0:0:0:
221,281,59892,2,0,B|162:307|162:307|64:288,1,125.999996154785,2|0,0:0|0:0,0:0:0:0:
332,73,60192,1,8,0:0:0:0:
388,363,60342,6,0,L|400:222,1,125.999996154785,0|2,0:0|0:0,0:0:0:0:
194,73,60642,2,0,L|206:214,1,125.999996154785,0|8,0:0|0:0,0:0:0:0:
294,342,60942,1,0,0:0:0:0:
441,143,61092,2,0,B|384:111|384:111|316:115,1,125.999996154785,2|0,0:0|0:0,0:0:0:0:
170,288,61392,1,8,0:0:0:0:
366,209,61542,1,0,0:0:0:0:
177,56,61692,5,6,0:0:0:0:
85,353,61842,1,0,0:0:0:0:
173,32,61992,1,12,0:0:0:0:
346,338,62142,1,0,0:0:0:0:
169,8,62292,1,6,0:0:0:0:
56,360,62442,1,2,0:0:0:0:
490,168,62592,1,12,0:0:0:0:
24,47,62742,1,0,0:0:0:0:
241,324,62892,6,0,L|253:175,1,125.999996154785,6|0,0:0|0:0,0:0:0:0:
0,183,63192,1,8,0:0:0:0:
266,332,63342,1,0,0:0:0:0:
165,66,63492,1,2,0:0:0:0:
56,360,63642,1,0,0:0:0:0:
365,224,63792,2,0,B|375:156|375:156|351:91,1,125.999996154785,8|0,0:0|0:0,0:0:0:0:
126,186,64092,6,0,L|274:200,1,125.999996154785,2|0,0:0|0:0,0:0:0:0:
56,28,64392,1,8,0:0:0:0:
17,320,64542,2,0,L|4:184,1,125.999996154785,0|2,0:0|0:0,0:0:0:0:
235,94,64842,1,2,0:0:0:0:
144,354,64992,1,8,0:0:0:0:
69,132,65142,1,0,0:0:0:0:
310,240,65292,5,6,0:0:0:0:
16,334,65442,1,0,0:0:0:0:
138,57,65592,1,8,0:0:0:0:
249,325,65742,1,0,0:0:0:0:
19,180,65892,1,6,0:0:0:0:
300,108,66042,1,0,0:0:0:0:
157,351,66192,1,8,0:0:0:0:
137,27,66342,1,0,0:0:0:0:
369,194,66492,5,6,0:0:0:0:
162,264,66642,1,8,0:0:0:0:
118,267,66717,1,8,0:0:0:0:
74,270,66792,1,12,0:0:0:0:
413,191,66942,1,8,0:0:0:0:
93,24,67092,1,12,0:0:0:0:
457,188,67242,1,2,0:0:0:0:
30,273,67392,1,12,0:0:0:0:
501,185,67542,1,8,0:0:0:0:
49,21,67692,6,0,B|11:74|11:74|17:160,1,125.999996154785,6|0,0:0|0:0,0:0:0:0:
179,322,67992,1,8,0:0:0:0:
225,124,68142,2,0,B|172:86|172:86|86:92,1,125.999996154785,0|2,0:0|0:0,0:0:0:0:
30,273,68442,1,2,0:0:0:0:
292,212,68592,1,8,0:0:0:0:
15,134,68742,1,0,0:0:0:0:
179,322,68892,6,0,L|189:181,1,125.999996154785,6|0,0:0|0:0,0:0:0:0:
416,116,69192,1,8,0:0:0:0:
389,323,69342,2,0,B|332:350|332:350|261:332,1,125.999996154785,0|2,0:0|0:0,0:0:0:0:
292,55,69642,1,2,0:0:0:0:
474,278,69792,1,8,0:0:0:0:
287,22,69942,1,0,0:0:0:0:
179,322,70092,6,0,L|40:305,1,125.999996154785,6|0,0:0|0:0,0:0:0:0:
373,111,70392,2,0,L|512:94,1,125.999996154785,8|0,0:0|0:0,0:0:0:0:
220,129,70692,1,6,0:0:0:0:
428,221,70842,1,0,0:0:0:0:
131,226,70992,2,0,L|-8:209,1,125.999996154785,8|0,0:0|0:0,0:0:0:0:
240,90,71292,5,6,0:0:0:0:
465,248,71442,1,0,0:0:0:0:
244,62,71592,1,12,0:0:0:0:
86,326,71742,1,0,0:0:0:0:
248,34,71892,1,6,0:0:0:0:
458,291,72042,1,2,0:0:0:0:
452,335,72117,1,0,0:0:0:0:
446,379,72192,1,12,0:0:0:0:
252,6,72342,1,8,0:0:0:0:
80,370,72492,6,0,B|144:371|144:371|216:335,1,125.999996154785,6|0,0:0|0:0,0:0:0:0:
240,90,72792,1,8,0:0:0:0:
88,165,72942,2,0,B|87:229|87:229|123:301,1,125.999996154785,0|2,0:0|0:0,0:0:0:0:
417,190,73242,1,2,0:0:0:0:
181,206,73392,1,8,0:0:0:0:
487,281,73542,1,0,0:0:0:0:
240,90,73692,6,0,L|97:80,1,125.999996154785,6|0,0:0|0:0,0:0:0:0:
115,284,73992,1,8,0:0:0:0:
327,149,74142,2,0,B|342:86|342:86|319:18,1,125.999996154785,0|2,0:0|0:0,0:0:0:0:
114,81,74442,1,2,0:0:0:0:
300,240,74592,1,8,0:0:0:0:
87,172,74742,1,0,0:0:0:0:
327,149,74892,6,0,L|469:143,1,125.999996154785,6|0,0:0|0:0,0:0:0:0:
220,287,75192,1,8,0:0:0:0:
246,22,75342,1,0,0:0:0:0:
381,293,75492,1,6,0:0:0:0:
87,172,75642,1,0,0:0:0:0:
452,143,75792,2,0,B|482:210|482:210|470:291,1,125.999996154785,8|0,0:0|0:0,0:0:0:0:
84,290,76092,5,6,0:0:0:0:
371,213,76242,1,0,0:0:0:0:
55,78,76392,1,12,0:0:0:0:
404,209,76542,1,0,0:0:0:0:
437,205,76617,1,0,0:0:0:0:
470,201,76692,1,6,0:0:0:0:
52,297,76842,1,0,0:0:0:0:
503,197,76992,1,12,0:0:0:0:
23,71,77142,1,0,0:0:0:0:
103,141,77292,6,0,L|121:266,2,105,6|0|2,0:0|0:0|0:0,0:0:0:0:
24,208,77742,1,2,0:0:0:0:
191,30,77892,2,0,P|247:37|301:180,1,210,8|0,0:0|0:0,0:0:0:0:
249,237,78342,1,0,0:0:0:0:
371,234,78492,6,0,P|400:181|394:128,1,105,2|8,0:0|0:0,0:0:0:0:
184,169,78792,2,0,P|155:222|161:275,1,105,2|2,0:0|0:0,0:0:0:0:
283,326,79092,2,0,L|270:87,1,210,8|0,0:0|0:0,0:0:0:0:
271,116,79542,1,0,0:0:0:0:
209,38,79692,6,0,P|165:70|115:79,1,105,2|8,0:0|0:0,0:0:0:0:
4,147,79992,2,0,P|55:156|96:188,1,105,2|2,0:0|0:0,0:0:0:0:
145,280,80292,2,0,P|121:219|248:172,1,210,8|0,0:0|0:0,0:0:0:0:
305,211,80742,1,0,0:0:0:0:
125,306,80892,5,2,0:0:0:0:
214,345,81042,1,0,0:0:0:0:
240,347,81117,1,0,0:0:0:0:
266,350,81192,1,0,0:0:0:0:
332,298,81342,1,0,0:0:0:0:
358,300,81417,1,0,0:0:0:0:
384,303,81492,1,0,0:0:0:0:
454,257,81642,1,0,0:0:0:0:
395,196,81792,5,0,0:0:0:0:
395,196,82092,5,2,0:0:0:0:
328,144,82242,2,0,L|336:31,2,105,2|0|2,0:0|0:0|0:0,0:0:0:0:
317,229,82692,1,0,0:0:0:0:
250,177,82842,2,0,L|258:64,1,105,2|0,0:0|0:0,0:0:0:0:
198,12,83142,1,2,0:0:0:0:
176,93,83292,6,0,L|168:197,2,105,0|2|0,0:0|0:0|0:0,0:0:0:0:
117,33,83742,1,2,0:0:0:0:
95,114,83892,2,0,L|87:218,1,105,0|0,0:0|0:0,0:0:0:0:
79,302,84192,1,2,0:0:0:0:
11,252,84342,1,0,0:0:0:0:
87,218,84492,5,2,0:0:0:0:
155,268,84642,2,0,L|173:154,2,105,2|0|2,0:0|0:0|0:0,0:0:0:0:
228,307,85092,2,0,L|246:193,2,105,0|2|0,0:0|0:0|0:0,0:0:0:0:
296,357,85542,1,2,0:0:0:0:
313,274,85692,2,0,L|331:160,2,105,0|2|0,0:0|0:0|0:0,0:0:0:0:
372,333,86142,1,2,0:0:0:0:
392,251,86292,2,0,L|431:3,1,210,2|2,0:0|0:0,0:0:0:0:
424,43,86892,5,2,0:0:0:0:
380,114,87042,1,2,0:0:0:0:
346,36,87192,1,8,0:0:0:0:
458,121,87342,1,2,0:0:0:0:
302,107,87492,5,0,0:0:0:0:
424,43,87642,1,2,0:0:0:0:
336,185,87792,1,8,0:0:0:0:
458,121,87942,1,2,0:0:0:0:
251,175,88092,5,0,0:0:0:0:
346,36,88242,1,2,0:0:0:0:
421,195,88392,1,8,0:0:0:0:
302,107,88542,1,2,0:0:0:0:
424,43,88692,5,2,0:0:0:0:
384,269,88842,1,0,0:0:0:0:
384,269,88992,1,10,0:0:0:0:
424,43,89142,1,0,0:0:0:0:
200,243,89292,6,0,B|121:230|121:230|93:146,1,157.5,10|0,0:0|0:0,0:0:0:0:
187,152,89592,2,0,B|266:165|266:165|294:249,1,157.5,10|0,0:0|0:0,0:0:0:0:
303,329,89892,2,0,B|224:316|224:316|196:232,1,157.5,10|0,0:0|0:0,0:0:0:0:
290,238,90192,2,0,B|369:251|369:251|397:335,1,157.5,10|0,0:0|0:0,0:0:0:0:
199,242,90492,5,2,0:0:0:0:
199,242,91092,1,0,0:0:0:0:
240,237,91167,1,0,0:0:0:0:
281,232,91242,1,0,0:0:0:0:
322,228,91317,1,0,0:0:0:0:
363,224,91392,1,0,0:0:0:0:
257,54,91692,6,0,B|188:57|188:57|132:93,1,125.999996154785,2|0,0:0|0:0,0:0:0:0:
282,280,91992,1,8,0:0:0:0:
383,60,92142,1,0,0:0:0:0:
151,221,92292,2,0,L|162:368,1,125.999996154785,2|0,0:0|0:0,0:0:0:0:
364,199,92592,1,8,0:0:0:0:
140,87,92742,1,0,0:0:0:0:
292,298,92892,5,2,0:0:0:0:
279,30,93042,1,0,0:0:0:0:
53,217,93192,1,8,0:0:0:0:
391,203,93342,1,0,0:0:0:0:
118,56,93492,1,2,0:0:0:0:
179,354,93642,1,0,0:0:0:0:
349,125,93792,1,8,0:0:0:0:
23,247,93942,6,0,L|168:255,1,125.999996154785,0|2,0:0|0:0,0:0:0:0:
465,36,94242,2,0,L|320:44,1,125.999996154785,0|8,0:0|0:0,0:0:0:0:
154,157,94542,1,0,0:0:0:0:
416,275,94692,2,0,B|448:216|448:216|442:143,1,125.999996154785,2|0,0:0|0:0,0:0:0:0:
172,60,94992,1,8,0:0:0:0:
214,296,95142,1,0,0:0:0:0:
443,157,95292,5,6,0:0:0:0:
137,56,95442,1,0,0:0:0:0:
464,154,95592,1,12,0:0:0:0:
179,300,95742,1,0,0:0:0:0:
485,151,95892,1,6,0:0:0:0:
102,52,96042,1,0,0:0:0:0:
256,352,96192,1,12,0:0:0:0:
256,0,96342,1,0,0:0:0:0:
60,283,96492,6,0,B|118:311|118:311|199:296,1,125.999996154785,6|0,0:0|0:0,0:0:0:0:
425,350,96792,2,0,B|420:285|420:285|366:223,1,125.999996154785,8|0,0:0|0:0,0:0:0:0:
256,0,97092,2,0,B|202:36|202:36|175:113,1,125.999996154785,2|0,0:0|0:0,0:0:0:0:
315,337,97392,1,8,0:0:0:0:
281,94,97542,1,0,0:0:0:0:
99,254,97692,5,2,0:0:0:0:
407,194,97842,1,0,0:0:0:0:
141,95,97992,1,8,0:0:0:0:
197,360,98142,1,0,0:0:0:0:
365,72,98292,1,2,0:0:0:0:
68,161,98442,1,0,0:0:0:0:
385,322,98592,1,8,0:0:0:0:
234,35,98742,1,0,0:0:0:0:
34,353,98892,6,0,B|10:293|10:293|22:221,1,125.999996154785,6|0,0:0|0:0,0:0:0:0:
467,222,99192,2,0,B|491:282|491:282|479:354,1,125.999996154785,8|0,0:0|0:0,0:0:0:0:
183,318,99492,1,6,0:0:0:0:
313,51,99642,1,0,0:0:0:0:
332,355,99792,1,8,0:0:0:0:
164,16,99942,1,0,0:0:0:0:
328,189,100092,5,6,0:0:0:0:
93,340,100242,1,8,0:0:0:0:
49,343,100317,1,8,0:0:0:0:
5,346,100392,1,12,0:0:0:0:
372,186,100542,1,8,0:0:0:0:
120,13,100692,1,6,0:0:0:0:
416,183,100842,1,8,0:0:0:0:
460,180,100917,1,8,0:0:0:0:
504,177,100992,1,12,0:0:0:0:
76,10,101142,1,8,0:0:0:0:
256,352,101292,6,0,B|276:294|276:294|256:224,1,125.999996154785,6|0,0:0|0:0,0:0:0:0:
12,106,101592,1,8,0:0:0:0:
59,286,101742,2,0,B|123:308|123:308|192:292,1,125.999996154785,0|2,0:0|0:0,0:0:0:0:
193,19,102042,1,0,0:0:0:0:
130,217,102192,1,8,0:0:0:0:
14,12,102342,1,0,0:0:0:0:
293,86,102492,6,0,L|432:94,1,125.999996154785,6|0,0:0|0:0,0:0:0:0:
289,284,102792,1,8,0:0:0:0:
205,142,102942,2,0,B|191:77|191:77|216:12,1,125.999996154785,0|2,0:0|0:0,0:0:0:0:
339,207,103242,1,0,0:0:0:0:
95,256,103392,1,8,0:0:0:0:
293,86,103542,1,0,0:0:0:0:
368,361,103692,5,6,0:0:0:0:
208,180,103842,1,0,0:0:0:0:
442,133,103992,1,8,0:0:0:0:
245,320,104142,1,0,0:0:0:0:
311,73,104292,1,6,0:0:0:0:
475,269,104442,1,0,0:0:0:0:
194,179,104592,1,8,0:0:0:0:
452,117,104742,1,0,0:0:0:0:
342,366,104892,5,6,0:0:0:0:
256,48,105042,1,0,0:0:0:0:
170,366,105192,1,12,0:0:0:0:
255,33,105342,1,0,0:0:0:0:
354,381,105492,1,6,0:0:0:0:
254,18,105642,1,0,0:0:0:0:
27,272,105792,1,12,0:0:0:0:
487,189,105942,1,0,0:0:0:0:
102,42,106092,6,0,B|77:100|77:100|96:178,1,125.999996154785,6|0,0:0|0:0,0:0:0:0:
259,369,106392,1,8,0:0:0:0:
299,117,106542,2,0,L|158:107,1,125.999996154785,0|2,0:0|0:0,0:0:0:0:
373,303,106842,1,0,0:0:0:0:
401,27,106992,1,8,0:0:0:0:
163,218,107142,1,0,0:0:0:0:
424,125,107292,6,0,L|283:115,1,125.999996154785,6|0,0:0|0:0,0:0:0:0:
75,245,107592,1,8,0:0:0:0:
318,339,107742,2,0,B|334:277|334:277|315:207,1,125.999996154785,0|2,0:0|0:0,0:0:0:0:
35,105,108042,1,0,0:0:0:0:
235,270,108192,1,8,0:0:0:0:
183,24,108342,1,0,0:0:0:0:
87,351,108492,6,0,L|235:361,1,125.999996154785,6|0,0:0|0:0,0:0:0:0:
140,180,108792,1,8,0:0:0:0:
52,350,108942,1,0,0:0:0:0:
140,152,109092,1,6,0:0:0:0:
212,359,109242,1,0,0:0:0:0:
140,124,109392,1,8,0:0:0:0:
25,367,109542,1,0,0:0:0:0:
251,198,109692,5,2,0:0:0:0:
273,140,109767,1,2,0:0:0:0:
325,106,109842,1,2,0:0:0:0:
387,109,109917,1,2,0:0:0:0:
436,147,109992,1,2,0:0:0:0:
453,206,110067,1,2,0:0:0:0:
433,265,110142,1,2,0:0:0:0:
382,301,110217,1,2,0:0:0:0:
320,300,110292,5,2,0:0:0:0:
321,269,110367,1,2,0:0:0:0:
322,237,110442,1,2,0:0:0:0:
322,206,110517,1,2,0:0:0:0:
323,174,110592,1,2,0:0:0:0:
324,143,110667,1,2,0:0:0:0:
325,111,110742,1,2,0:0:0:0:
325,80,110817,1,2,0:0:0:0:
326,48,110892,5,2,0:0:0:0:
70,103,111042,1,0,0:0:0:0:
468,149,111192,1,8,0:0:0:0:
47,107,111342,1,0,0:0:0:0:
349,44,111492,1,0,0:0:0:0:
24,111,111642,1,0,0:0:0:0:
491,145,111792,1,12,0:0:0:0:
1,115,111942,1,0,0:0:0:0:
378,41,112092,5,0,0:0:0:0:
322,319,112242,1,0,0:0:0:0:
158,36,112392,1,12,0:0:0:0:
327,341,112542,1,0,0:0:0:0:
384,64,112692,1,2,0:0:0:0:
336,23,112767,1,2,0:0:0:0:
276,3,112842,1,2,0:0:0:0:
214,8,112917,1,2,0:0:0:0:
158,36,112992,1,14,0:0:0:0:
117,84,113067,1,2,0:0:0:0:
98,143,113142,6,0,B|100:215|100:215|139:268,1,125.999996154785,0|2,0:0|0:0,0:0:0:0:
418,179,113442,2,0,B|416:107|416:107|377:54,1,125.999996154785,0|8,0:0|0:0,0:0:0:0:
217,317,113742,1,0,0:0:0:0:
457,273,113892,2,0,B|502:223|502:223|511:145,1,125.999996154785,2|0,0:0|0:0,0:0:0:0:
248,157,114192,1,8,0:0:0:0:
349,353,114342,1,0,0:0:0:0:
338,48,114492,5,6,0:0:0:0:
157,317,114642,1,0,0:0:0:0:
341,24,114792,1,12,0:0:0:0:
450,358,114942,1,0,0:0:0:0:
344,0,115092,1,6,0:0:0:0:
137,343,115242,1,0,0:0:0:0:
504,159,115392,1,12,0:0:0:0:
63,52,115542,1,0,0:0:0:0:
291,278,115692,6,0,B|321:217|321:217|314:139,1,125.999996154785,6|0,0:0|0:0,0:0:0:0:
51,216,115992,2,0,B|21:277|21:277|28:355,1,125.999996154785,8|0,0:0|0:0,0:0:0:0:
404,195,116292,2,0,B|399:127|399:127|354:63,1,125.999996154785,2|0,0:0|0:0,0:0:0:0:
57,129,116592,1,8,0:0:0:0:
316,159,116742,1,0,0:0:0:0:
82,10,116892,6,0,B|52:71|52:71|59:149,1,125.999996154785,2|0,0:0|0:0,0:0:0:0:
149,320,117192,1,8,0:0:0:0:
255,111,117342,2,0,B|194:81|194:81|116:88,1,125.999996154785,0|2,0:0|0:0,0:0:0:0:
54,290,117642,1,0,0:0:0:0:
179,170,117792,1,8,0:0:0:0:
11,206,117942,1,0,0:0:0:0:
222,254,118092,6,0,L|351:247,1,125.999996154785,6|0,0:0|0:0,0:0:0:0:
136,86,118392,2,0,L|7:79,1,125.999996154785,8|0,0:0|0:0,0:0:0:0:
239,74,118692,1,6,0:0:0:0:
37,212,118842,1,0,0:0:0:0:
125,52,118992,1,8,0:0:0:0:
214,304,119142,1,0,0:0:0:0:
245,69,119292,5,6,0:0:0:0:
28,255,119442,1,0,0:0:0:0:
20,298,119517,1,0,0:0:0:0:
12,341,119592,1,12,0:0:0:0:
250,46,119742,1,0,0:0:0:0:
341,308,119892,1,6,0:0:0:0:
255,23,120042,1,0,0:0:0:0:
4,384,120192,1,12,0:0:0:0:
260,0,120342,1,0,0:0:0:0:
466,318,120492,6,0,L|334:307,1,125.999996154785,6|0,0:0|0:0,0:0:0:0:
245,69,120792,1,8,0:0:0:0:
438,120,120942,2,0,B|459:179|459:179|447:255,1,125.999996154785,0|2,0:0|0:0,0:0:0:0:
167,215,121242,1,0,0:0:0:0:
373,186,121392,1,8,0:0:0:0:
228,360,121542,1,0,0:0:0:0:
245,69,121692,6,0,B|300:39|300:39|368:47,1,125.999996154785,6|0,0:0|0:0,0:0:0:0:
302,271,121992,1,8,0:0:0:0:
149,129,122142,2,0,B|133:66|133:66|152:1,1,125.999996154785,0|2,0:0|0:0,0:0:0:0:
302,271,122442,1,0,0:0:0:0:
40,130,122592,1,8,0:0:0:0:
318,127,122742,1,0,0:0:0:0:
137,220,122892,5,6,0:0:0:0:
245,80,123042,1,0,0:0:0:0:
297,293,123192,1,8,0:0:0:0:
149,129,123342,1,0,0:0:0:0:
360,201,123492,1,6,0:0:0:0:
172,310,123642,1,0,0:0:0:0:
245,80,123792,1,8,0:0:0:0:
402,306,123942,1,0,0:0:0:0:
121,217,124092,5,6,0:0:0:0:
356,80,124242,1,0,0:0:0:0:
265,326,124392,1,12,0:0:0:0:
177,18,124542,1,0,0:0:0:0:
481,187,124692,5,6,0:0:0:0:
76,315,124842,1,0,0:0:0:0:
510,183,124992,1,12,0:0:0:0:
80,47,125142,1,0,0:0:0:0:
311,335,125292,6,0,B|338:275|338:275|329:200,1,125.999996154785,6|0,0:0|0:0,0:0:0:0:
208,79,125592,1,8,0:0:0:0:
76,315,125742,2,0,L|225:306,1,125.999996154785,0|2,0:0|0:0,0:0:0:0:
309,49,126042,1,0,0:0:0:0:
103,180,126192,1,8,0:0:0:0:
405,290,126342,1,0,0:0:0:0:
118,58,126492,6,0,B|51:73|51:73|2:120,1,125.999996154785,6|0,0:0|0:0,0:0:0:0:
201,307,126792,1,8,0:0:0:0:
208,123,126942,2,0,B|228:57|228:57|212:-8,1,125.999996154785,0|2,0:0|0:0,0:0:0:0:
103,180,127242,1,0,0:0:0:0:
335,148,127392,1,8,0:0:0:0:
118,58,127542,1,0,0:0:0:0:
255,260,127692,5,6,0:0:0:0:
242,75,127842,1,0,0:0:0:0:
144,241,127992,1,8,0:0:0:0:
356,151,128142,1,0,0:0:0:0:
168,132,128292,1,6,0:0:0:0:
362,273,128442,1,0,0:0:0:0:
338,54,128592,1,8,0:0:0:0:
255,260,128742,1,0,0:0:0:0:
434,187,128892,5,6,0:0:0:0:
90,45,129042,1,0,0:0:0:0:
460,185,129192,1,12,0:0:0:0:
79,325,129342,1,0,0:0:0:0:
486,183,129492,1,6,0:0:0:0:
34,33,129642,1,0,0:0:0:0:
347,362,129792,1,12,0:0:0:0:
256,16,129942,1,0,0:0:0:0:
165,362,130092,5,14,0:0:0:0:
165,362,130692,1,12,0:0:0:0:
165,362,131292,1,12,0:0:0:0:
92,311,131442,1,2,0:0:0:0:
94,298,131517,1,2,0:0:0:0:
96,285,131592,1,2,0:0:0:0:
170,237,131742,1,2,0:0:0:0:
168,224,131817,1,2,0:0:0:0:
166,211,131892,1,2,0:0:0:0:
82,183,132042,1,2,0:0:0:0:
82,95,132192,1,2,0:0:0:0:
166,68,132342,1,2,0:0:0:0:
165,362,132492,5,10,0:0:0:0:
