osu file format v14

[General]
AudioFilename: audio.mp3
AudioLeadIn: 0
PreviewTime: 19638
Countdown: 0
SampleSet: Soft
StackLeniency: 0.7
Mode: 3
LetterboxInBreaks: 0
SpecialStyle: 0
WidescreenStoryboard: 1

[Editor]
DistanceSpacing: 1.2
BeatDivisor: 4
GridSize: 8
TimelineZoom: 1.7

[Metadata]
Title:oyasumi (Cut Ver.)
TitleUnicode:oyasumi (Cut Ver.)
Artist:Shiggy Jr.
ArtistUnicode:Shiggy Jr.
Creator:Pairoxd
Version:Normal
Source:
Tags:ML-ysg LISTEN TO THE MUSIC japanese rock j-rock おやすみ tomoko ikeda 池田 智子 shigeyuki harada 原田 茂幸 natsuhiko mori 森 夏彦 kazma moroishi 諸石 和馬 guitar bass drum jrock jpop j-pop dnb female vocal short version ALL ABOUT POP UMCK-9866
BeatmapID:2272126
BeatmapSetID:1086533

[Difficulty]
HPDrainRate:7
CircleSize:4
OverallDifficulty:6.5
ApproachRate:4
SliderMultiplier:1.4
SliderTickRate:1

[Events]
//Background and Video events
0,0,"bG.jpg",0,0
//Break Periods
//Storyboard Layer 0 (Background)
//Storyboard Layer 1 (Fail)
//Storyboard Layer 2 (Pass)
//Storyboard Layer 3 (Foreground)
//Storyboard Layer 4 (Overlay)
//Storyboard Sound Samples

[TimingPoints]
438,300,4,2,1,60,1,0
19638,-100,4,2,1,60,0,1
38838,-100,4,2,1,60,0,0

[HitObjects]
320,192,438,5,2,0:0:0:0:
448,192,438,1,0,0:0:0:0:
64,192,738,1,2,0:0:0:0:
192,192,738,1,0,0:0:0:0:
320,192,1038,1,2,0:0:0:0:
448,192,1038,1,0,0:0:0:0:
64,192,1188,1,0,0:0:0:0:
320,192,1338,1,2,0:0:0:0:
192,192,1488,1,0,0:0:0:0:
64,192,1638,1,2,0:0:0:0:
448,192,1788,1,0,0:0:0:0:
64,192,1938,1,2,0:0:0:0:
192,192,1938,1,0,0:0:0:30:soft-hitclap.wav
320,192,2238,1,2,0:0:0:0:
448,192,2238,1,0,0:0:0:0:
64,192,2388,1,0,0:0:0:0:
448,192,2538,1,2,0:0:0:0:
320,192,2688,1,2,0:0:0:0:
64,192,2838,1,2,0:0:0:0:
192,192,2838,1,0,0:0:0:0:
448,192,3138,1,2,0:0:0:0:
320,192,3138,1,0,0:0:0:0:
192,192,3438,1,2,0:0:0:0:
64,192,3438,1,0,0:0:0:0:
448,192,3588,1,0,0:0:0:0:
192,192,3738,1,2,0:0:0:0:
320,192,3888,1,0,0:0:0:0:
448,192,4038,1,2,0:0:0:0:
64,192,4188,1,0,0:0:0:0:
448,192,4338,1,2,0:0:0:0:
320,192,4338,1,0,0:0:0:30:soft-hitclap.wav
192,192,4638,1,2,0:0:0:0:
64,192,4638,1,0,0:0:0:0:
448,192,4938,1,2,0:0:0:0:
320,192,4938,1,0,0:0:0:30:soft-hitclap.wav
192,192,5088,1,2,0:0:0:0:
64,192,5238,1,2,0:0:0:0:
320,192,5238,1,0,0:0:0:0:
192,192,5538,1,2,0:0:0:0:
320,192,5538,1,0,0:0:0:60:Clap.wav
192,192,5838,1,2,0:0:0:0:
448,192,5838,1,0,0:0:0:0:
320,192,5988,1,0,0:0:0:0:
64,192,6138,1,2,0:0:0:0:
448,192,6288,1,0,0:0:0:0:
192,192,6438,1,2,0:0:0:0:
64,192,6438,1,0,0:0:0:0:
192,192,6738,1,2,0:0:0:0:
320,192,6738,1,0,0:0:0:60:Clap.wav
448,192,7038,1,2,0:0:0:0:
320,192,7038,1,0,0:0:0:0:
64,192,7188,1,2,0:0:0:0:
448,192,7338,1,2,0:0:0:0:
192,192,7488,1,2,0:0:0:0:
64,192,7638,1,2,0:0:0:0:
320,192,7638,1,0,0:0:0:0:
64,192,7938,1,2,0:0:0:0:
448,192,7938,1,0,0:0:0:60:Clap.wav
192,192,8238,1,2,0:0:0:0:
448,192,8238,1,0,0:0:0:0:
64,192,8388,1,0,0:0:0:0:
320,192,8538,1,2,0:0:0:0:
192,192,8688,1,0,0:0:0:0:
448,192,8838,1,2,0:0:0:0:
192,192,8988,1,0,0:0:0:0:
320,192,9138,1,2,0:0:0:0:
64,192,9288,1,0,0:0:0:0:
192,192,9438,1,2,0:0:0:0:
320,192,9588,1,0,0:0:0:0:
64,192,9738,1,2,0:0:0:0:
448,192,9888,1,0,0:0:0:0:
64,192,10038,1,2,0:0:0:0:
192,192,10038,1,0,0:0:0:0:
320,192,10338,1,0,0:0:0:60:Clap.wav
448,192,10338,1,0,0:0:0:0:
192,192,10638,1,0,0:0:0:0:
320,192,10788,1,0,0:0:0:0:
64,192,10938,1,0,0:0:0:60:Clap.wav
448,192,10938,1,0,0:0:0:0:
192,192,11238,1,0,0:0:0:0:
64,192,11388,1,0,0:0:0:0:
320,192,11538,1,0,0:0:0:60:Clap.wav
448,192,11538,1,0,0:0:0:0:
192,192,11838,1,0,0:0:0:0:
320,192,11988,1,0,0:0:0:0:
64,192,12138,1,2,0:0:0:0:
448,192,12138,1,0,0:0:0:60:Clap.wav
320,192,12288,1,2,0:0:0:0:
192,192,12438,1,2,0:0:0:0:
448,192,12588,1,0,0:0:0:0:
64,192,12738,1,0,0:0:0:60:Clap.wav
192,192,12738,1,0,0:0:0:0:
448,192,13038,1,0,0:0:0:0:
320,192,13188,1,0,0:0:0:0:
64,192,13338,1,0,0:0:0:60:Clap.wav
192,192,13338,1,0,0:0:0:0:
320,192,13638,1,0,0:0:0:0:
192,192,13788,1,0,0:0:0:0:
320,192,13938,1,0,0:0:0:60:Clap.wav
448,192,13938,1,0,0:0:0:0:
64,192,14088,1,0,0:0:0:0:
192,192,14163,1,0,0:0:0:0:
320,192,14238,1,0,0:0:0:0:
448,192,14388,1,0,0:0:0:0:
64,192,14538,1,2,0:0:0:0:
320,192,14538,1,0,0:0:0:60:Clap.wav
192,192,14688,1,2,0:0:0:0:
448,192,14838,1,2,0:0:0:0:
64,192,14988,1,2,0:0:0:0:
192,192,15138,1,0,0:0:0:60:Clap.wav
320,192,15138,1,0,0:0:0:0:
448,192,15438,1,0,0:0:0:0:
192,192,15588,1,0,0:0:0:0:
320,192,15738,1,0,0:0:0:60:Clap.wav
448,192,15738,1,0,0:0:0:0:
64,192,16038,1,0,0:0:0:0:
320,192,16188,1,0,0:0:0:0:
192,192,16338,1,0,0:0:0:60:Clap.wav
448,192,16338,1,0,0:0:0:0:
64,192,16638,1,0,0:0:0:0:
320,192,16788,1,0,0:0:0:0:
64,192,16938,1,0,0:0:0:60:Clap.wav
192,192,16938,1,0,0:0:0:0:
320,192,17238,1,2,0:0:0:0:
192,192,17388,1,2,0:0:0:0:
64,192,17538,1,0,0:0:0:60:Clap.wav
448,192,17538,1,0,0:0:0:0:
320,192,17688,1,2,0:0:0:0:
320,192,17988,1,0,0:0:0:0:
64,192,18138,1,0,0:0:0:60:Clap.wav
192,192,18138,1,0,0:0:0:0:
320,192,18288,1,0,0:0:0:0:
64,192,18438,1,2,0:0:0:0:
448,192,18438,1,0,0:0:0:50:Snare.wav
192,192,18588,1,0,0:0:0:50:Snare.wav
320,192,18663,1,0,0:0:0:50:Snare.wav
448,192,18738,1,2,0:0:0:0:
320,192,18888,1,0,0:0:0:50:Snare.wav
192,192,18963,1,0,0:0:0:50:Snare.wav
64,192,19038,1,2,0:0:0:0:
192,192,19188,1,0,0:0:0:50:Snare.wav
320,192,19263,1,0,0:0:0:50:Snare.wav
448,192,19338,1,2,0:0:0:0:
64,192,19638,1,4,0:0:0:0:
448,192,19638,1,2,0:0:0:0:
320,192,19788,1,0,0:0:0:0:
192,192,19938,1,2,0:0:0:0:
64,192,19938,1,8,0:0:0:0:
448,192,20088,1,0,0:0:0:0:
320,192,20238,1,2,0:0:0:0:
192,192,20388,1,0,0:0:0:0:
64,192,20538,1,2,0:0:0:0:
448,192,20538,1,8,0:0:0:0:
320,192,20838,1,2,0:0:0:0:
192,192,20988,1,0,0:0:0:0:
320,192,21138,1,8,0:0:0:0:
448,192,21138,1,2,0:0:0:0:
64,192,21288,1,0,0:0:0:0:
192,192,21438,1,2,0:0:0:0:
320,192,21588,1,0,0:0:0:0:
64,192,21738,1,2,0:0:0:0:
448,192,21738,1,8,0:0:0:0:
192,192,21888,1,0,0:0:0:0:
320,192,22038,1,2,0:0:0:0:
64,192,22188,1,0,0:0:0:0:
192,192,22338,1,2,0:0:0:0:
448,192,22338,1,8,0:0:0:0:
320,192,22488,1,0,0:0:0:0:
64,192,22638,1,2,0:0:0:0:
448,192,22938,1,2,0:0:0:0:
192,192,22938,1,8,0:0:0:0:
320,192,23088,1,0,0:0:0:0:
64,192,23238,1,2,0:0:0:0:
192,192,23388,1,0,0:0:0:0:
320,192,23538,1,8,0:0:0:0:
448,192,23538,1,2,0:0:0:0:
64,192,23688,1,0,0:0:0:0:
192,192,23838,1,2,0:0:0:0:
448,192,23988,1,0,0:0:0:0:
320,192,24138,1,10,0:0:0:0:
64,192,24138,1,4,0:0:0:0:
192,192,24438,1,2,0:0:0:0:
448,192,24438,1,4,0:0:0:0:
192,192,24738,1,8,0:0:0:0:
320,192,24738,1,2,0:0:0:0:
64,192,25038,1,2,0:0:0:0:
320,192,25038,1,0,0:0:0:0:
448,192,25338,1,8,0:0:0:0:
64,192,25338,1,2,0:0:0:0:
320,192,25638,1,2,0:0:0:0:
192,192,25788,1,0,0:0:0:0:
64,192,25938,1,2,0:0:0:0:
448,192,25938,1,8,0:0:0:0:
320,192,26088,1,0,0:0:0:0:
64,192,26238,1,2,0:0:0:0:
192,192,26388,1,0,0:0:0:0:
320,192,26538,1,8,0:0:0:0:
448,192,26538,1,2,0:0:0:0:
64,192,26688,1,0,0:0:0:0:
192,192,26838,1,2,0:0:0:0:
64,192,27138,1,2,0:0:0:0:
448,192,27138,1,8,0:0:0:0:
192,192,27288,1,0,0:0:0:0:
320,192,27438,1,2,0:0:0:0:
448,192,27588,1,0,0:0:0:0:
192,192,27738,1,8,0:0:0:0:
64,192,27738,1,2,0:0:0:0:
64,192,28038,1,2,0:0:0:0:
448,192,28038,1,0,0:0:0:0:
192,192,28188,1,0,0:0:0:70:Snare.wav
320,192,28263,1,0,0:0:0:70:Snare.wav
448,192,28338,1,2,0:0:0:0:
64,192,28488,1,0,0:0:0:70:Snare.wav
320,192,28638,1,2,0:0:0:0:
448,192,28638,1,0,0:0:0:0:
192,192,28788,1,0,0:0:0:70:Snare.wav
64,192,28938,1,2,0:0:0:0:
320,192,28938,1,0,0:0:0:0:
448,192,29088,1,0,0:0:0:70:Snare.wav
64,192,29238,128,4,29688:0:0:0:0:
192,192,29238,1,2,0:0:0:0:
320,192,29538,1,10,0:0:0:0:
192,192,29688,128,0,29838:0:0:0:0:
320,192,29838,1,2,0:0:0:0:
448,192,29838,1,0,0:0:0:0:
64,192,29988,1,0,0:0:0:0:
192,192,30138,1,2,0:0:0:0:
448,192,30138,1,8,0:0:0:0:
320,192,30288,1,0,0:0:0:0:
64,192,30438,1,2,0:0:0:0:
448,192,30438,128,0,30888:0:0:0:0:
192,192,30738,1,10,0:0:0:0:
320,192,30888,128,0,31038:0:0:0:0:
64,192,31038,1,2,0:0:0:0:
192,192,31038,1,0,0:0:0:0:
448,192,31188,1,0,0:0:0:0:
64,192,31338,1,8,0:0:0:0:
320,192,31338,1,2,0:0:0:0:
192,192,31488,1,0,0:0:0:0:
64,192,31638,128,2,31938:0:0:0:0:
448,192,31638,1,0,0:0:0:0:
192,192,31938,1,8,0:0:0:0:
320,192,31938,1,2,0:0:0:0:
64,192,32238,1,2,0:0:0:0:
448,192,32238,128,0,32538:0:0:0:0:
192,192,32538,1,2,0:0:0:0:
320,192,32538,1,8,0:0:0:0:
192,192,32838,1,0,0:0:0:0:
64,192,32838,128,2,33138:0:0:0:0:
320,192,33138,1,2,0:0:0:0:
448,192,33138,1,8,0:0:0:0:
192,192,33438,1,2,0:0:0:0:
320,192,33438,1,0,0:0:0:0:
448,192,33588,1,0,0:0:0:70:Snare.wav
64,192,33738,1,8,0:0:0:0:
320,192,33738,1,2,0:0:0:0:
192,192,33888,1,0,0:0:0:70:Snare.wav
64,192,34038,128,2,34488:0:0:0:0:
448,192,34038,1,4,0:0:0:0:
192,192,34338,1,10,0:0:0:0:
320,192,34488,128,0,34638:0:0:0:0:
192,192,34638,1,2,0:0:0:0:
448,192,34638,1,0,0:0:0:0:
64,192,34788,1,0,0:0:0:0:
320,192,34938,1,2,0:0:0:0:
448,192,34938,1,8,0:0:0:0:
192,192,35088,1,0,0:0:0:0:
64,192,35238,1,2,0:0:0:0:
448,192,35238,128,0,35688:0:0:0:0:
320,192,35538,1,10,0:0:0:0:
192,192,35688,128,0,35838:0:0:0:0:
64,192,35838,1,2,0:0:0:0:
320,192,35838,1,0,0:0:0:0:
448,192,35988,1,0,0:0:0:0:
64,192,36138,1,8,0:0:0:0:
192,192,36138,1,2,0:0:0:0:
320,192,36288,1,0,0:0:0:0:
192,192,36438,128,2,36738:0:0:0:0:
448,192,36438,1,0,0:0:0:0:
320,192,36738,1,8,0:0:0:0:
448,192,36738,1,2,0:0:0:0:
64,192,37038,1,2,0:0:0:0:
320,192,37038,128,0,37338:0:0:0:0:
64,192,37338,1,2,0:0:0:0:
192,192,37338,1,8,0:0:0:0:
448,192,37488,1,0,0:0:0:0:
192,192,37638,1,6,0:0:0:0:
320,192,37638,1,8,0:0:0:0:
64,192,37788,1,0,0:0:0:70:Snare.wav
320,192,37938,1,8,0:0:0:0:
448,192,37938,1,2,0:0:0:0:
192,192,38013,1,0,0:0:0:70:Snare.wav
448,192,38138,1,0,0:0:0:70:Snare.wav
320,192,38238,1,2,0:0:0:0:
192,192,38388,1,0,0:0:0:40:Tom3.wav
64,192,38538,1,2,0:0:0:0:
448,192,38538,1,8,0:0:0:0:
320,192,38688,1,0,0:0:0:40:Tom3.wav
64,192,38838,1,2,0:0:0:0:
192,192,38838,1,4,0:0:0:0:
64,192,39438,1,2,0:0:0:0:
320,192,39438,1,4,0:0:0:0:
64,192,40038,1,2,0:0:0:0:
448,192,40038,1,4,0:0:0:0:
320,192,40188,1,0,0:0:0:40:Tom1.wav
192,192,40263,1,0,0:0:0:40:Tom1.wav
64,192,40338,1,0,0:0:0:40:Tom1.wav
192,192,40488,1,0,0:0:0:40:Tom2.wav
320,192,40563,1,0,0:0:0:40:Tom2.wav
448,192,40638,1,0,0:0:0:40:Tom2.wav
64,192,40788,1,0,0:0:0:40:Tom2.wav
192,192,40938,1,0,0:0:0:40:Tom3.wav
448,192,40938,1,0,0:0:0:0:
320,192,41088,1,0,0:0:0:40:Tom3.wav
64,192,41238,128,2,43638:0:0:0:0:
448,192,41238,128,4,43638:0:0:0:0:
