osu file format v14

[General]
AudioFilename: audio.mp3
AudioLeadIn: 0
PreviewTime: 19638
Countdown: 0
SampleSet: None
StackLeniency: 0.7
Mode: 0
LetterboxInBreaks: 0
WidescreenStoryboard: 0

[Editor]
DistanceSpacing: 1.9
BeatDivisor: 4
GridSize: 32
TimelineZoom: 2.1

[Metadata]
Title:oyasumi
TitleUnicode:oyasumi
Artist:Shiggy Jr.
ArtistUnicode:Shiggy Jr.
Creator:-Andromeda-
Version:Goodnight
Source:
Tags:
BeatmapID:2157789
BeatmapSetID:1031885

[Difficulty]
HPDrainRate:5
CircleSize:4
OverallDifficulty:9
ApproachRate:9.3
SliderMultiplier:1.4
SliderTickRate:1

[Events]
//Background and Video events
0,0,"fa4ba3e92711c3ecc0f4d1a41ea2411460c2ce46.jpg",0,0
//Break Periods
//Storyboard Layer 0 (Background)
//Storyboard Layer 1 (Fail)
//Storyboard Layer 2 (Pass)
//Storyboard Layer 3 (Foreground)
//Storyboard Layer 4 (Overlay)
//Storyboard Sound Samples

[TimingPoints]
438,300,4,2,0,50,1,0
19638,-83.3333333333333,4,2,0,50,0,0

[Colours]
Combo1 : 128,255,255
Combo2 : 128,255,217

[HitObjects]
71,75,438,5,0,0:0:0:0:
74,109,738,1,0,0:0:0:0:
125,258,1038,1,0,0:0:0:0:
221,129,1188,1,0,0:0:0:0:
221,129,1488,5,0,0:0:0:0:
401,179,1788,1,0,0:0:0:0:
323,37,1938,1,0,0:0:0:0:
318,264,2238,5,0,0:0:0:0:
403,83,2388,1,0,0:0:0:0:
445,353,2538,2,0,L|447:279,1,70
403,83,2838,5,0,0:0:0:0:
402,124,3138,1,0,0:0:0:0:
298,268,3438,1,0,0:0:0:0:
221,103,3588,1,0,0:0:0:0:
221,103,3888,5,0,0:0:0:0:
83,168,4188,1,0,0:0:0:0:
104,16,4338,1,0,0:0:0:0:
221,103,4638,6,0,L|219:192,1,70
150,298,4938,1,0,0:0:0:0:
150,298,5088,1,0,0:0:0:0:
298,208,5238,6,0,P|335:204|392:210,1,70
375,353,5538,2,0,B|350:326|350:326|329:270,1,70
433,81,5838,6,0,P|426:124|411:161,1,70
261,116,6138,2,0,B|299:99|299:99|341:95,1,70
178,182,6438,6,0,P|160:132|160:94,1,70
233,260,6738,2,0,B|197:278|197:278|145:278,1,70,0|0,3:0|3:0,3:0:0:0:
39,224,7038,5,0,0:0:0:0:
39,224,7188,1,0,0:0:0:0:
109,43,7338,2,0,L|106:136,1,70
213,298,7638,6,0,P|233:254|242:212,1,70
56,320,7938,2,0,B|84:315|84:315|119:294,1,70
190,90,8238,6,0,P|170:134|161:176,1,70
347,68,8538,2,0,B|318:72|318:72|283:93,1,70
455,250,8838,6,0,P|475:206|484:163,1,70
298,271,9138,2,0,B|326:266|326:266|361:245,1,70
481,149,9438,1,0,0:0:0:0:
258,55,9588,1,0,0:0:0:0:
361,245,9738,1,0,0:0:0:0:
388,32,9888,1,0,0:0:0:0:
361,245,10038,1,0,0:0:0:0:
126,230,10338,5,0,0:0:0:0:
361,245,10938,1,0,0:0:0:0:
126,230,11538,1,0,0:0:0:0:
228,303,11988,1,0,0:0:0:0:
283,102,12138,1,0,0:0:0:0:
126,230,12288,1,0,0:0:0:0:
363,250,12438,1,0,0:0:0:0:
363,250,12738,5,0,0:0:0:0:
331,39,13338,1,0,0:0:0:0:
363,250,13938,1,0,0:0:0:0:
363,250,14013,1,0,0:0:0:0:
363,250,14088,1,0,0:0:0:0:
256,161,14238,1,0,0:0:0:0:
169,275,14388,1,0,0:0:0:0:
212,54,14538,1,0,0:0:0:0:
169,275,14688,1,0,0:0:0:0:
212,54,14838,5,0,0:0:0:0:
169,275,14988,1,0,0:0:0:0:
85,82,15138,5,0,0:0:0:0:
332,95,15738,1,0,0:0:0:0:
85,82,16338,1,0,0:0:0:0:
332,95,16938,1,0,0:0:0:0:
196,164,17238,1,0,0:0:0:0:
376,233,17388,1,0,0:0:0:0:
246,36,17538,1,0,0:0:0:0:
297,273,17688,1,0,0:0:0:0:
385,21,18138,1,0,0:0:0:0:
107,70,18438,6,0,L|117:124,1,35
145,207,18588,2,0,L|158:168,1,35
222,41,18738,6,0,L|231:90,1,35
262,243,18888,2,0,L|284:194,1,35
348,36,19038,6,0,L|382:94,1,35
397,314,19188,2,0,L|416:270,1,35
500,93,19338,5,0,0:0:0:0:
500,93,19638,6,0,P|446:79|393:82,1,83.9999974365235
277,345,19938,2,0,P|289:298|291:251,1,83.9999974365235
239,100,20238,1,0,0:0:0:0:
141,327,20388,1,0,0:0:0:0:
328,135,20538,1,0,0:0:0:0:
76,116,20688,1,0,0:0:0:0:
328,135,20838,5,0,0:0:0:0:
75,230,20988,1,0,0:0:0:0:
242,56,21138,1,0,0:0:0:0:
262,339,21288,2,0,L|251:248,1,83.9999974365235
357,117,21588,2,0,L|344:216,1,83.9999974365235
309,37,21888,6,0,P|367:22|411:33,1,83.9999974365235
90,240,22188,2,0,P|80:186|82:141,1,83.9999974365235
186,42,22488,1,0,0:0:0:0:
298,207,22638,2,0,P|305:251|301:309,1,83.9999974365235
456,174,22938,2,0,P|461:122|458:82,1,83.9999974365235
182,32,23238,5,0,0:0:0:0:
195,289,23388,1,0,0:0:0:0:
336,32,23538,5,0,0:0:0:0:
328,303,23688,1,0,0:0:0:0:
182,32,23838,5,0,0:0:0:0:
336,343,23988,1,0,0:0:0:0:
336,32,24138,5,0,0:0:0:0:
167,350,24288,1,0,0:0:0:0:
182,32,24438,6,0,B|158:76|158:76|157:120,1,83.9999974365235
449,108,24738,2,0,B|392:99|392:99|355:109,1,83.9999974365235
202,287,25038,1,0,0:0:0:0:
436,227,25188,1,0,0:0:0:0:
286,77,25338,1,0,0:0:0:0:
386,320,25488,1,0,0:0:0:0:
417,36,25638,6,0,L|412:127,1,83.9999974365235
285,286,25938,1,0,0:0:0:0:
97,143,26088,2,0,L|195:144,1,83.9999974365235
285,286,26388,1,0,0:0:0:0:
86,295,26538,1,0,0:0:0:0:
297,121,26688,1,0,0:0:0:0:
185,352,26838,6,0,L|180:266,1,83.9999974365235
297,121,27138,2,0,L|275:225,1,83.9999974365235
93,314,27438,2,0,P|112:268|142:232,1,83.9999974365235
369,151,27738,2,0,P|350:197|320:233,1,83.9999974365235
108,126,28038,5,0,0:0:0:0:
376,50,28188,1,0,0:0:0:0:
376,50,28263,1,0,0:0:0:0:
376,50,28338,1,0,0:0:0:0:
276,144,28488,1,0,0:0:0:0:
186,45,28638,1,0,0:0:0:0:
442,221,28788,1,0,0:0:0:0:
135,241,28938,1,0,0:0:0:0:
442,221,29088,1,0,0:0:0:0:
135,241,29238,6,0,B|196:207|196:207|297:203,1,167.999994873047
53,314,29688,2,0,L|47:217,1,83.9999974365235
171,61,29988,1,0,0:0:0:0:
263,263,30138,1,0,0:0:0:0:
94,126,30288,1,0,0:0:0:0:
376,53,30438,6,0,L|428:223,1,167.999994873047
191,149,30888,2,0,L|286:134,1,83.9999974365235
426,214,31188,1,0,0:0:0:0:
269,333,31338,1,0,0:0:0:0:
311,129,31488,1,0,0:0:0:0:
387,367,31638,6,0,L|395:282,1,83.9999974365235
297,46,31938,2,0,L|314:154,1,83.9999974365235
446,336,32238,2,0,B|440:290|440:290|420:255,1,83.9999974365235
237,76,32538,2,0,B|243:122|243:122|262:157,1,83.9999974365235
446,336,32838,5,0,0:0:0:0:
353,83,32988,1,0,0:0:0:0:
291,339,33138,1,0,0:0:0:0:
353,83,33288,1,0,0:0:0:0:
363,244,33438,1,0,0:0:0:0:
363,244,33513,1,0,0:0:0:0:
363,244,33588,1,0,0:0:0:0:
164,129,33738,1,0,0:0:0:0:
375,39,33888,1,0,0:0:0:0:
201,252,34038,6,0,P|118:253|61:175,1,167.999994873047
179,47,34488,2,0,L|160:156,1,83.9999974365235
64,193,34788,1,0,0:0:0:0:
86,4,34938,1,0,0:0:0:0:
226,222,35088,1,0,0:0:0:0:
300,13,35238,6,0,L|341:195,1,167.999994873047
433,350,35688,2,0,L|447:262,1,83.9999974365235
434,84,35988,1,0,0:0:0:0:
199,159,36138,1,0,0:0:0:0:
366,282,36288,1,0,0:0:0:0:
270,23,36438,6,0,P|288:74|295:118,1,83.9999974365235
222,239,36738,2,0,P|204:188|197:144,1,83.9999974365235
321,25,37038,2,0,B|320:78|320:78|304:139,1,83.9999974365235
170,236,37338,2,0,B|171:187|171:187|187:122,1,83.9999974365235
443,33,37638,5,0,0:0:0:0:
387,359,37788,1,0,0:0:0:0:
236,29,37938,5,0,0:0:0:0:
282,362,38088,1,0,0:0:0:0:
236,29,38238,6,0,L|230:127,1,83.9999974365235
162,358,38538,2,0,L|151:256,1,83.9999974365235
97,89,38838,6,0,L|105:139,1,41.9999987182618
257,193,39438,2,0,L|278:138,1,41.9999987182618
439,181,40038,2,0,L|458:224,1,41.9999987182618
447,310,40188,1,0,0:0:0:0:
447,310,40263,1,0,0:0:0:0:
447,310,40338,1,0,0:0:0:0:
347,242,40488,1,0,0:0:0:0:
347,242,40563,1,0,0:0:0:0:
347,242,40638,1,0,0:0:0:0:
201,340,40788,1,0,0:0:0:0:
203,86,40938,1,0,0:0:0:0:
201,340,41088,1,0,0:0:0:0:
256,192,41238,12,0,43638,0:0:0:0:
