osu file format v14

[General]
AudioFilename: Moonlight.ogg
AudioLeadIn: 0
PreviewTime: 25514
Countdown: 0
SampleSet: Soft
StackLeniency: 0.7
Mode: 3
LetterboxInBreaks: 0
SpecialStyle: 0
WidescreenStoryboard: 1

[Editor]
DistanceSpacing: 1.1
BeatDivisor: 4
GridSize: 32
TimelineZoom: 1.2

[Metadata]
Title:Moonlight
TitleUnicode:Moonlight
Artist:Shiganai Koukousei
ArtistUnicode:しがない高校生
Creator:ssapgosu
Version:iRedi's Normal
Source:
Tags:garageband piano instrumental electronic i tried to make a really cool song kakkoii kyoku tsuketta mita かっこいい曲作ってみた shiganaikoukousei irone osu nicknem_ iredi
BeatmapID:4177203
BeatmapSetID:1950064

[Difficulty]
HPDrainRate:7
CircleSize:7
OverallDifficulty:7
ApproachRate:5
SliderMultiplier:1.4
SliderTickRate:1

[Events]
//Background and Video events
0,0,"dancing-in-the-moonlight-realistic-4k-landscape-lake-cloud-night_G0DWjsaI_upscaled.jpg",0,0
//Break Periods
//Storyboard Layer 0 (Background)
//Storyboard Layer 1 (Fail)
//Storyboard Layer 2 (Pass)
//Storyboard Layer 3 (Foreground)
//Storyboard Layer 4 (Overlay)
//Storyboard Sound Samples

[TimingPoints]
1566,379.746835443038,4,2,0,29,1,0
25869,-100,4,2,0,29,0,1
50173,-100,4,2,0,29,0,0

[HitObjects]
402,192,1566,5,0,0:0:0:0:
109,192,1945,1,0,0:0:0:0:
182,192,2135,1,0,0:0:0:0:
256,192,2325,1,0,0:0:0:0:
402,192,2325,1,0,0:0:0:0:
182,192,2610,1,0,0:0:0:0:
329,192,2610,1,0,0:0:0:0:
256,192,2895,1,0,0:0:0:0:
109,192,2895,1,0,0:0:0:0:
475,192,3084,1,0,0:0:0:0:
402,192,3274,1,0,0:0:0:0:
329,192,3464,1,0,0:0:0:0:
402,192,3654,1,0,0:0:0:0:
109,192,3844,1,0,0:0:0:0:
182,192,4034,1,0,0:0:0:0:
109,192,4224,1,0,0:0:0:0:
36,192,4414,1,0,0:0:0:0:
475,192,4603,1,0,0:0:0:0:
256,192,4983,1,0,0:0:0:0:
329,192,5173,1,0,0:0:0:0:
36,192,5363,1,0,0:0:0:0:
182,192,5363,1,0,0:0:0:0:
109,192,5648,1,0,0:0:0:0:
256,192,5648,1,0,0:0:0:0:
182,192,5933,1,0,0:0:0:0:
329,192,5933,1,0,0:0:0:0:
256,192,6122,128,0,6502:0:0:0:0:
182,192,6502,128,0,6882:0:0:0:0:
402,192,6882,128,0,7262:0:0:0:0:
475,192,7262,128,0,7641:0:0:0:0:
109,192,7641,1,0,0:0:0:0:
36,192,7641,1,0,0:0:0:0:
256,192,8021,1,0,0:0:0:0:
182,192,8211,1,0,0:0:0:0:
475,192,8401,1,0,0:0:0:0:
329,192,8401,1,0,0:0:0:0:
182,192,8686,1,0,0:0:0:0:
36,192,8686,1,0,0:0:0:0:
475,192,8971,1,0,0:0:0:0:
329,192,8971,1,0,0:0:0:0:
256,192,9160,1,0,0:0:0:0:
182,192,9350,1,0,0:0:0:0:
36,192,9540,1,0,0:0:0:0:
109,192,9730,1,0,0:0:0:0:
329,192,9920,1,0,0:0:0:0:
256,192,10110,1,0,0:0:0:0:
402,192,10300,1,0,0:0:0:0:
475,192,10490,1,0,0:0:0:0:
329,192,10679,1,0,0:0:0:0:
256,192,10679,1,0,0:0:0:0:
182,192,11059,1,0,0:0:0:0:
256,192,11249,1,0,0:0:0:0:
36,192,11439,1,0,0:0:0:0:
182,192,11439,1,0,0:0:0:0:
475,192,11724,1,0,0:0:0:0:
329,192,11724,1,0,0:0:0:0:
36,192,12009,1,0,0:0:0:0:
182,192,12009,1,0,0:0:0:0:
329,192,12198,128,0,12578:0:0:0:0:
475,192,12578,128,0,12958:0:0:0:0:
182,192,12958,128,0,13338:0:0:0:0:
36,192,13338,128,0,13717:0:0:0:0:
256,192,13717,1,0,0:0:0:0:
256,192,14097,1,0,0:0:0:0:
182,192,14097,1,0,0:0:0:0:
475,192,14287,1,0,0:0:0:0:
329,192,14477,1,0,0:0:0:0:
402,192,14477,1,0,0:0:0:0:
182,192,14762,1,0,0:0:0:0:
256,192,14762,1,0,0:0:0:0:
36,192,15047,1,0,0:0:0:0:
109,192,15047,1,0,0:0:0:0:
402,192,15236,1,0,0:0:0:0:
475,192,15426,1,0,0:0:0:0:
329,192,15616,1,0,0:0:0:0:
256,192,15806,1,0,0:0:0:0:
109,192,15996,1,0,0:0:0:0:
36,192,16186,1,0,0:0:0:0:
182,192,16376,1,0,0:0:0:0:
256,192,16566,1,0,0:0:0:0:
475,192,16755,1,0,0:0:0:0:
402,192,16755,1,0,0:0:0:0:
256,192,17135,1,0,0:0:0:0:
329,192,17325,1,0,0:0:0:0:
109,192,17515,1,0,0:0:0:0:
36,192,17515,1,0,0:0:0:0:
182,192,17800,1,0,0:0:0:0:
256,192,17800,1,0,0:0:0:0:
402,192,18084,1,0,0:0:0:0:
329,192,18084,1,0,0:0:0:0:
109,192,18274,128,0,18654:0:0:0:0:
256,192,18654,128,0,19034:0:0:0:0:
402,192,19034,128,0,19414:0:0:0:0:
256,192,19414,128,0,19793:0:0:0:0:
109,192,19793,1,0,0:0:0:0:
36,192,19793,1,0,0:0:0:0:
256,192,20173,1,0,0:0:0:0:
182,192,20363,1,0,0:0:0:0:
402,192,20553,1,0,0:0:0:0:
475,192,20553,1,0,0:0:0:0:
256,192,20838,1,0,0:0:0:0:
329,192,20838,1,0,0:0:0:0:
402,192,21122,1,0,0:0:0:0:
475,192,21122,1,0,0:0:0:0:
182,192,21312,1,0,0:0:0:0:
109,192,21502,1,0,0:0:0:0:
182,192,21692,1,0,0:0:0:0:
109,192,21882,1,0,0:0:0:0:
329,192,22072,1,0,0:0:0:0:
402,192,22262,1,0,0:0:0:0:
329,192,22452,1,0,0:0:0:0:
402,192,22641,1,0,0:0:0:0:
256,192,22831,1,0,0:0:0:0:
182,192,22831,1,0,0:0:0:0:
402,192,23211,1,0,0:0:0:0:
329,192,23401,1,0,0:0:0:0:
36,192,23591,1,0,0:0:0:0:
109,192,23591,1,0,0:0:0:0:
182,192,23876,1,0,0:0:0:0:
256,192,23876,1,0,0:0:0:0:
109,192,24160,1,0,0:0:0:0:
36,192,24160,1,0,0:0:0:0:
475,192,24350,1,0,0:0:0:0:
256,192,24350,1,0,0:0:0:0:
182,192,24603,1,0,0:0:0:0:
402,192,24603,1,0,0:0:0:0:
109,192,24857,1,0,0:0:0:0:
329,192,24857,1,0,0:0:0:0:
182,192,25490,1,0,0:0:0:0:
256,192,25679,1,0,0:0:0:0:
329,192,25869,1,0,0:0:0:0:
475,192,25869,1,0,0:0:0:0:
182,192,26059,1,0,0:0:0:0:
402,192,26249,1,0,0:0:0:0:
109,192,26439,1,0,0:0:0:0:
256,192,26629,1,0,0:0:0:0:
182,192,26629,1,0,0:0:0:0:
36,192,26819,1,0,0:0:0:0:
329,192,27009,1,0,0:0:0:0:
475,192,27198,1,0,0:0:0:0:
36,192,27388,1,0,0:0:0:0:
182,192,27388,1,0,0:0:0:0:
402,192,27673,1,0,0:0:0:0:
256,192,27863,1,0,0:0:0:0:
109,192,28053,1,0,0:0:0:0:
475,192,28148,1,0,0:0:0:0:
402,192,28148,1,0,0:0:0:0:
256,192,28338,1,0,0:0:0:0:
329,192,28528,1,0,0:0:0:0:
182,192,28717,1,0,0:0:0:0:
36,192,28812,1,0,0:0:0:0:
402,192,28907,1,0,0:0:0:0:
329,192,28907,1,0,0:0:0:0:
182,192,29192,1,0,0:0:0:0:
256,192,29382,1,0,0:0:0:0:
182,192,29572,1,0,0:0:0:0:
109,192,29667,1,0,0:0:0:0:
36,192,29667,1,0,0:0:0:0:
256,192,29857,1,0,0:0:0:0:
402,192,30047,1,0,0:0:0:0:
256,192,30236,1,0,0:0:0:0:
182,192,30426,1,0,0:0:0:0:
475,192,30426,128,0,30806:0:0:0:0:
109,192,30806,128,0,31186:0:0:0:0:
256,192,30806,1,0,0:0:0:0:
402,192,31186,1,0,0:0:0:0:
329,192,31186,1,0,0:0:0:0:
182,192,31566,1,0,0:0:0:0:
329,192,31755,1,0,0:0:0:0:
182,192,31945,1,0,0:0:0:0:
36,192,31945,1,0,0:0:0:0:
256,192,32135,1,0,0:0:0:0:
109,192,32325,1,0,0:0:0:0:
329,192,32515,1,0,0:0:0:0:
256,192,32705,1,0,0:0:0:0:
182,192,32705,1,0,0:0:0:0:
402,192,32895,1,0,0:0:0:0:
36,192,33084,1,0,0:0:0:0:
475,192,33274,1,0,0:0:0:0:
182,192,33464,1,0,0:0:0:0:
329,192,33464,1,0,0:0:0:0:
109,192,33749,1,0,0:0:0:0:
256,192,33939,1,0,0:0:0:0:
329,192,34129,1,0,0:0:0:0:
109,192,34224,1,0,0:0:0:0:
36,192,34224,1,0,0:0:0:0:
402,192,34319,1,0,0:0:0:0:
182,192,34509,1,0,0:0:0:0:
256,192,34603,1,0,0:0:0:0:
475,192,34983,1,0,0:0:0:0:
36,192,34983,1,0,0:0:0:0:
109,192,35173,1,0,0:0:0:0:
402,192,35363,1,0,0:0:0:0:
109,192,35553,1,0,0:0:0:0:
256,192,35743,1,0,0:0:0:0:
329,192,35743,1,0,0:0:0:0:
402,192,35933,1,0,0:0:0:0:
182,192,36122,1,0,0:0:0:0:
402,192,36312,1,0,0:0:0:0:
36,192,36502,1,0,0:0:0:0:
256,192,36502,1,0,0:0:0:0:
329,192,36692,1,0,0:0:0:0:
182,192,36882,1,0,0:0:0:0:
36,192,37072,1,0,0:0:0:0:
256,192,37262,1,0,0:0:0:0:
475,192,37262,1,0,0:0:0:0:
329,192,37452,1,0,0:0:0:0:
182,192,37641,1,0,0:0:0:0:
256,192,38021,1,0,0:0:0:0:
36,192,38021,1,0,0:0:0:0:
182,192,38211,1,0,0:0:0:0:
329,192,38401,1,0,0:0:0:0:
256,192,38591,1,0,0:0:0:0:
402,192,38781,1,0,0:0:0:0:
475,192,38781,1,0,0:0:0:0:
182,192,38971,1,0,0:0:0:0:
329,192,39160,1,0,0:0:0:0:
109,192,39350,1,0,0:0:0:0:
402,192,39540,1,0,0:0:0:0:
256,192,39540,1,0,0:0:0:0:
36,192,39825,1,0,0:0:0:0:
182,192,40015,1,0,0:0:0:0:
329,192,40205,1,0,0:0:0:0:
36,192,40300,1,0,0:0:0:0:
109,192,40300,1,0,0:0:0:0:
475,192,40490,1,0,0:0:0:0:
256,192,40679,1,0,0:0:0:0:
36,192,40869,1,0,0:0:0:0:
182,192,40964,1,0,0:0:0:0:
475,192,41059,1,0,0:0:0:0:
402,192,41059,1,0,0:0:0:0:
109,192,41344,1,0,0:0:0:0:
329,192,41534,1,0,0:0:0:0:
475,192,41724,1,0,0:0:0:0:
182,192,41819,1,0,0:0:0:0:
109,192,41819,1,0,0:0:0:0:
256,192,42009,1,0,0:0:0:0:
402,192,42198,1,0,0:0:0:0:
36,192,42388,1,0,0:0:0:0:
182,192,42578,1,0,0:0:0:0:
475,192,42578,128,0,42958:0:0:0:0:
256,192,42958,128,0,43338:0:0:0:0:
329,192,42958,1,0,0:0:0:0:
109,192,43338,1,0,0:0:0:0:
36,192,43338,128,0,43717:0:0:0:0:
329,192,43717,1,0,0:0:0:0:
402,192,43907,1,0,0:0:0:0:
256,192,44097,1,0,0:0:0:0:
109,192,44097,1,0,0:0:0:0:
329,192,44287,1,0,0:0:0:0:
182,192,44477,1,0,0:0:0:0:
402,192,44667,1,0,0:0:0:0:
36,192,44857,1,0,0:0:0:0:
109,192,44857,1,0,0:0:0:0:
475,192,45047,1,0,0:0:0:0:
256,192,45236,1,0,0:0:0:0:
36,192,45426,1,0,0:0:0:0:
329,192,45616,1,0,0:0:0:0:
182,192,45616,1,0,0:0:0:0:
256,192,45901,1,0,0:0:0:0:
109,192,46091,1,0,0:0:0:0:
256,192,46281,1,0,0:0:0:0:
402,192,46376,1,0,0:0:0:0:
475,192,46376,1,0,0:0:0:0:
182,192,46471,1,0,0:0:0:0:
329,192,46660,1,0,0:0:0:0:
402,192,46755,1,0,0:0:0:0:
36,192,47135,1,0,0:0:0:0:
329,192,47135,1,0,0:0:0:0:
402,192,47325,1,0,0:0:0:0:
182,192,47515,1,0,0:0:0:0:
256,192,47705,1,0,0:0:0:0:
475,192,47895,1,0,0:0:0:0:
329,192,47895,1,0,0:0:0:0:
109,192,48084,1,0,0:0:0:0:
329,192,48274,1,0,0:0:0:0:
256,192,48464,1,0,0:0:0:0:
182,192,48654,1,0,0:0:0:0:
36,192,48654,1,0,0:0:0:0:
402,192,48939,1,0,0:0:0:0:
109,192,49129,1,0,0:0:0:0:
402,192,49319,1,0,0:0:0:0:
256,192,49414,1,0,0:0:0:0:
182,192,49414,1,0,0:0:0:0:
475,192,49509,1,0,0:0:0:0:
109,192,49698,1,0,0:0:0:0:
182,192,49793,1,0,0:0:0:0:
329,192,49983,1,0,0:0:0:0:
36,192,50173,1,0,0:0:0:0:
109,192,50173,1,0,0:0:0:0:
256,192,50363,1,0,0:0:0:0:
182,192,50553,1,0,0:0:0:0:
402,192,50933,1,0,0:0:0:0:
256,192,51122,1,0,0:0:0:0:
329,192,51312,1,0,0:0:0:0:
109,192,51692,1,0,0:0:0:0:
182,192,51787,1,0,0:0:0:0:
256,192,51977,1,0,0:0:0:0:
329,192,52167,1,0,0:0:0:0:
402,192,52357,1,0,0:0:0:0:
182,192,52547,1,0,0:0:0:0:
329,192,52641,1,0,0:0:0:0:
402,192,52831,1,0,0:0:0:0:
109,192,53021,1,0,0:0:0:0:
182,192,53021,1,0,0:0:0:0:
475,192,53116,1,0,0:0:0:0:
