osu file format v14

[General]
AudioFilename: Moonlight.ogg
AudioLeadIn: 0
PreviewTime: 25514
Countdown: 0
SampleSet: Soft
StackLeniency: 0.7
Mode: 3
LetterboxInBreaks: 0
SpecialStyle: 0
WidescreenStoryboard: 1

[Editor]
DistanceSpacing: 1.1
BeatDivisor: 4
GridSize: 32
TimelineZoom: 1.7

[Metadata]
Title:Moonlight
TitleUnicode:Moonlight
Artist:Shiganai Koukousei
ArtistUnicode:しがない高校生
Creator:ssapgosu
Version:Nicknem's Hard
Source:
Tags:garageband piano instrumental electronic i tried to make a really cool song kakkoii kyoku tsuketta mita かっこいい曲作ってみた shiganaikoukousei irone osu nicknem_ iredi
BeatmapID:4156475
BeatmapSetID:1950064

[Difficulty]
HPDrainRate:8
CircleSize:7
OverallDifficulty:7
ApproachRate:5
SliderMultiplier:1.4
SliderTickRate:1

[Events]
//Background and Video events
0,0,"dancing-in-the-moonlight-realistic-4k-landscape-lake-cloud-night_G0DWjsaI_upscaled.jpg",0,0
//Break Periods
//Storyboard Layer 0 (Background)
//Storyboard Layer 1 (Fail)
//Storyboard Layer 2 (Pass)
//Storyboard Layer 3 (Foreground)
//Storyboard Layer 4 (Overlay)
//Storyboard Sound Samples

[TimingPoints]
1566,379.746835443038,4,2,0,29,1,0
25869,-100,4,2,0,29,0,1
50173,-100,4,2,0,29,0,0

[HitObjects]
402,192,1566,5,0,0:0:0:0:
475,192,1566,1,0,0:0:0:0:
329,192,1755,1,0,0:0:0:0:
36,192,1945,1,0,0:0:0:0:
109,192,2040,1,0,0:0:0:0:
182,192,2135,1,0,0:0:0:0:
256,192,2230,1,0,0:0:0:0:
475,192,2325,1,0,0:0:0:0:
329,192,2325,1,0,0:0:0:0:
256,192,2610,1,0,0:0:0:0:
402,192,2610,1,0,0:0:0:0:
182,192,2895,1,0,0:0:0:0:
329,192,2895,1,0,0:0:0:0:
475,192,3084,1,0,0:0:0:0:
402,192,3179,1,0,0:0:0:0:
329,192,3274,1,0,0:0:0:0:
256,192,3369,1,0,0:0:0:0:
402,192,3464,1,0,0:0:0:0:
329,192,3559,1,0,0:0:0:0:
256,192,3654,1,0,0:0:0:0:
182,192,3749,1,0,0:0:0:0:
36,192,3844,1,0,0:0:0:0:
109,192,3939,1,0,0:0:0:0:
182,192,4034,1,0,0:0:0:0:
256,192,4129,1,0,0:0:0:0:
109,192,4224,1,0,0:0:0:0:
182,192,4319,1,0,0:0:0:0:
256,192,4414,1,0,0:0:0:0:
329,192,4509,1,0,0:0:0:0:
475,192,4603,1,0,0:0:0:0:
36,192,4603,1,0,0:0:0:0:
402,192,4793,1,0,0:0:0:0:
329,192,4888,1,0,0:0:0:0:
109,192,4983,1,0,0:0:0:0:
182,192,5078,1,0,0:0:0:0:
256,192,5173,1,0,0:0:0:0:
329,192,5268,1,0,0:0:0:0:
36,192,5363,1,0,0:0:0:0:
475,192,5363,1,0,0:0:0:0:
402,192,5648,1,0,0:0:0:0:
109,192,5648,1,0,0:0:0:0:
182,192,5933,1,0,0:0:0:0:
329,192,5933,1,0,0:0:0:0:
36,192,6122,128,0,6312:0:0:0:0:
109,192,6122,1,0,0:0:0:0:
182,192,6312,1,0,0:0:0:0:
475,192,6502,128,0,6692:0:0:0:0:
402,192,6502,1,0,0:0:0:0:
329,192,6692,1,0,0:0:0:0:
182,192,6882,1,0,0:0:0:0:
109,192,6882,128,0,7072:0:0:0:0:
36,192,7072,1,0,0:0:0:0:
402,192,7262,128,0,7452:0:0:0:0:
329,192,7262,1,0,0:0:0:0:
475,192,7452,1,0,0:0:0:0:
256,192,7547,1,0,0:0:0:0:
109,192,7641,5,0,0:0:0:0:
36,192,7641,1,0,0:0:0:0:
182,192,7831,1,0,0:0:0:0:
475,192,8021,1,0,0:0:0:0:
402,192,8116,1,0,0:0:0:0:
329,192,8211,1,0,0:0:0:0:
256,192,8306,1,0,0:0:0:0:
36,192,8401,1,0,0:0:0:0:
182,192,8401,1,0,0:0:0:0:
256,192,8686,1,0,0:0:0:0:
109,192,8686,1,0,0:0:0:0:
329,192,8971,1,0,0:0:0:0:
182,192,8971,1,0,0:0:0:0:
36,192,9160,1,0,0:0:0:0:
109,192,9255,1,0,0:0:0:0:
182,192,9350,1,0,0:0:0:0:
256,192,9445,1,0,0:0:0:0:
109,192,9540,1,0,0:0:0:0:
182,192,9635,1,0,0:0:0:0:
256,192,9730,1,0,0:0:0:0:
329,192,9825,1,0,0:0:0:0:
475,192,9920,1,0,0:0:0:0:
402,192,10015,1,0,0:0:0:0:
329,192,10110,1,0,0:0:0:0:
256,192,10205,1,0,0:0:0:0:
402,192,10300,1,0,0:0:0:0:
329,192,10395,1,0,0:0:0:0:
256,192,10490,1,0,0:0:0:0:
182,192,10584,1,0,0:0:0:0:
36,192,10679,1,0,0:0:0:0:
475,192,10679,1,0,0:0:0:0:
109,192,10869,1,0,0:0:0:0:
182,192,10964,1,0,0:0:0:0:
402,192,11059,1,0,0:0:0:0:
329,192,11154,1,0,0:0:0:0:
256,192,11249,1,0,0:0:0:0:
182,192,11344,1,0,0:0:0:0:
475,192,11439,1,0,0:0:0:0:
36,192,11439,1,0,0:0:0:0:
109,192,11724,1,0,0:0:0:0:
402,192,11724,1,0,0:0:0:0:
329,192,12009,1,0,0:0:0:0:
182,192,12009,1,0,0:0:0:0:
475,192,12198,128,0,12388:0:0:0:0:
402,192,12198,1,0,0:0:0:0:
329,192,12388,1,0,0:0:0:0:
36,192,12578,128,0,12768:0:0:0:0:
109,192,12578,1,0,0:0:0:0:
182,192,12768,1,0,0:0:0:0:
329,192,12958,1,0,0:0:0:0:
402,192,12958,128,0,13148:0:0:0:0:
475,192,13148,1,0,0:0:0:0:
109,192,13338,128,0,13528:0:0:0:0:
182,192,13338,1,0,0:0:0:0:
36,192,13528,1,0,0:0:0:0:
329,192,13717,5,0,0:0:0:0:
256,192,13717,1,0,0:0:0:0:
182,192,13907,1,0,0:0:0:0:
475,192,14097,1,0,0:0:0:0:
36,192,14097,1,0,0:0:0:0:
402,192,14192,1,0,0:0:0:0:
329,192,14287,1,0,0:0:0:0:
256,192,14382,1,0,0:0:0:0:
36,192,14477,1,0,0:0:0:0:
182,192,14477,1,0,0:0:0:0:
256,192,14762,1,0,0:0:0:0:
109,192,14762,1,0,0:0:0:0:
329,192,15047,1,0,0:0:0:0:
182,192,15047,1,0,0:0:0:0:
36,192,15236,1,0,0:0:0:0:
109,192,15331,1,0,0:0:0:0:
182,192,15426,1,0,0:0:0:0:
256,192,15521,1,0,0:0:0:0:
109,192,15616,1,0,0:0:0:0:
182,192,15711,1,0,0:0:0:0:
256,192,15806,1,0,0:0:0:0:
329,192,15901,1,0,0:0:0:0:
475,192,15996,1,0,0:0:0:0:
402,192,16091,1,0,0:0:0:0:
329,192,16186,1,0,0:0:0:0:
256,192,16281,1,0,0:0:0:0:
402,192,16376,1,0,0:0:0:0:
329,192,16471,1,0,0:0:0:0:
256,192,16566,1,0,0:0:0:0:
182,192,16660,1,0,0:0:0:0:
36,192,16755,1,0,0:0:0:0:
475,192,16755,1,0,0:0:0:0:
109,192,16945,1,0,0:0:0:0:
182,192,17040,1,0,0:0:0:0:
402,192,17135,1,0,0:0:0:0:
329,192,17230,1,0,0:0:0:0:
256,192,17325,1,0,0:0:0:0:
182,192,17420,1,0,0:0:0:0:
475,192,17515,1,0,0:0:0:0:
36,192,17515,1,0,0:0:0:0:
109,192,17800,1,0,0:0:0:0:
402,192,17800,1,0,0:0:0:0:
329,192,18084,1,0,0:0:0:0:
182,192,18084,1,0,0:0:0:0:
475,192,18274,128,0,18464:0:0:0:0:
402,192,18274,1,0,0:0:0:0:
256,192,18464,1,0,0:0:0:0:
36,192,18654,128,0,18844:0:0:0:0:
109,192,18654,1,0,0:0:0:0:
256,192,18844,1,0,0:0:0:0:
475,192,19034,1,0,0:0:0:0:
402,192,19034,128,0,19224:0:0:0:0:
329,192,19224,1,0,0:0:0:0:
109,192,19414,128,0,19603:0:0:0:0:
36,192,19414,1,0,0:0:0:0:
182,192,19603,1,0,0:0:0:0:
329,192,19793,5,0,0:0:0:0:
256,192,19793,1,0,0:0:0:0:
402,192,19983,1,0,0:0:0:0:
36,192,20173,1,0,0:0:0:0:
109,192,20268,1,0,0:0:0:0:
182,192,20363,1,0,0:0:0:0:
256,192,20458,1,0,0:0:0:0:
475,192,20553,1,0,0:0:0:0:
329,192,20553,1,0,0:0:0:0:
256,192,20838,1,0,0:0:0:0:
402,192,20838,1,0,0:0:0:0:
182,192,21122,1,0,0:0:0:0:
329,192,21122,1,0,0:0:0:0:
475,192,21312,1,0,0:0:0:0:
402,192,21407,1,0,0:0:0:0:
329,192,21502,1,0,0:0:0:0:
256,192,21597,1,0,0:0:0:0:
402,192,21692,1,0,0:0:0:0:
329,192,21787,1,0,0:0:0:0:
256,192,21882,1,0,0:0:0:0:
182,192,21977,1,0,0:0:0:0:
36,192,22072,1,0,0:0:0:0:
109,192,22167,1,0,0:0:0:0:
182,192,22262,1,0,0:0:0:0:
256,192,22357,1,0,0:0:0:0:
109,192,22452,1,0,0:0:0:0:
182,192,22547,1,0,0:0:0:0:
256,192,22641,1,0,0:0:0:0:
329,192,22736,1,0,0:0:0:0:
475,192,22831,1,0,0:0:0:0:
36,192,22831,1,0,0:0:0:0:
402,192,23021,1,0,0:0:0:0:
329,192,23116,1,0,0:0:0:0:
109,192,23211,5,0,0:0:0:0:
182,192,23306,1,0,0:0:0:0:
256,192,23401,1,0,0:0:0:0:
329,192,23496,1,0,0:0:0:0:
109,192,23591,1,0,0:0:0:0:
402,192,23591,1,0,0:0:0:0:
182,192,23876,1,0,0:0:0:0:
329,192,23876,1,0,0:0:0:0:
109,192,24160,1,0,0:0:0:0:
402,192,24160,1,0,0:0:0:0:
36,192,24350,5,0,0:0:0:0:
475,192,24350,1,0,0:0:0:0:
402,192,24603,1,0,0:0:0:0:
109,192,24603,1,0,0:0:0:0:
182,192,24857,1,0,0:0:0:0:
329,192,24857,1,0,0:0:0:0:
36,192,25490,1,0,0:0:0:0:
109,192,25584,1,0,0:0:0:0:
182,192,25679,1,0,0:0:0:0:
256,192,25774,1,0,0:0:0:0:
475,192,25869,1,0,0:0:0:0:
402,192,25869,1,0,0:0:0:0:
329,192,25964,1,0,0:0:0:0:
256,192,26059,1,0,0:0:0:0:
475,192,26154,1,0,0:0:0:0:
109,192,26249,1,0,0:0:0:0:
36,192,26249,1,0,0:0:0:0:
182,192,26344,1,0,0:0:0:0:
256,192,26439,1,0,0:0:0:0:
36,192,26534,1,0,0:0:0:0:
329,192,26629,1,0,0:0:0:0:
402,192,26629,1,0,0:0:0:0:
256,192,26724,1,0,0:0:0:0:
475,192,26819,1,0,0:0:0:0:
402,192,26914,1,0,0:0:0:0:
109,192,27009,1,0,0:0:0:0:
182,192,27009,1,0,0:0:0:0:
256,192,27103,1,0,0:0:0:0:
36,192,27198,1,0,0:0:0:0:
109,192,27293,1,0,0:0:0:0:
329,192,27388,1,0,0:0:0:0:
402,192,27388,1,0,0:0:0:0:
256,192,27483,1,0,0:0:0:0:
402,192,27673,1,0,0:0:0:0:
475,192,27673,1,0,0:0:0:0:
109,192,27863,1,0,0:0:0:0:
182,192,27863,1,0,0:0:0:0:
402,192,28053,1,0,0:0:0:0:
329,192,28053,1,0,0:0:0:0:
36,192,28148,1,0,0:0:0:0:
109,192,28148,1,0,0:0:0:0:
182,192,28243,1,0,0:0:0:0:
256,192,28338,1,0,0:0:0:0:
475,192,28528,1,0,0:0:0:0:
402,192,28528,1,0,0:0:0:0:
329,192,28717,1,0,0:0:0:0:
256,192,28812,1,0,0:0:0:0:
182,192,28907,1,0,0:0:0:0:
109,192,28907,1,0,0:0:0:0:
36,192,29002,1,0,0:0:0:0:
329,192,29192,1,0,0:0:0:0:
402,192,29192,1,0,0:0:0:0:
182,192,29382,1,0,0:0:0:0:
256,192,29382,1,0,0:0:0:0:
402,192,29572,1,0,0:0:0:0:
475,192,29572,1,0,0:0:0:0:
109,192,29667,1,0,0:0:0:0:
36,192,29667,1,0,0:0:0:0:
182,192,29762,1,0,0:0:0:0:
256,192,29857,1,0,0:0:0:0:
402,192,30047,1,0,0:0:0:0:
475,192,30047,1,0,0:0:0:0:
329,192,30236,1,0,0:0:0:0:
256,192,30331,1,0,0:0:0:0:
182,192,30426,1,0,0:0:0:0:
402,192,30426,1,0,0:0:0:0:
109,192,30553,1,0,0:0:0:0:
36,192,30679,1,0,0:0:0:0:
329,192,30806,1,0,0:0:0:0:
402,192,30933,1,0,0:0:0:0:
475,192,31059,1,0,0:0:0:0:
182,192,31186,1,0,0:0:0:0:
329,192,31186,1,0,0:0:0:0:
36,192,31566,1,0,0:0:0:0:
109,192,31660,1,0,0:0:0:0:
182,192,31755,1,0,0:0:0:0:
256,192,31850,1,0,0:0:0:0:
402,192,31945,1,0,0:0:0:0:
329,192,31945,1,0,0:0:0:0:
256,192,32040,1,0,0:0:0:0:
182,192,32135,1,0,0:0:0:0:
109,192,32230,1,0,0:0:0:0:
475,192,32325,1,0,0:0:0:0:
402,192,32325,1,0,0:0:0:0:
329,192,32420,1,0,0:0:0:0:
256,192,32515,1,0,0:0:0:0:
475,192,32610,1,0,0:0:0:0:
182,192,32705,1,0,0:0:0:0:
109,192,32705,1,0,0:0:0:0:
256,192,32800,1,0,0:0:0:0:
329,192,32895,1,0,0:0:0:0:
402,192,32990,1,0,0:0:0:0:
109,192,33084,1,0,0:0:0:0:
36,192,33084,1,0,0:0:0:0:
182,192,33179,1,0,0:0:0:0:
256,192,33274,1,0,0:0:0:0:
36,192,33369,1,0,0:0:0:0:
402,192,33464,1,0,0:0:0:0:
475,192,33464,1,0,0:0:0:0:
329,192,33559,1,0,0:0:0:0:
109,192,33749,1,0,0:0:0:0:
182,192,33749,1,0,0:0:0:0:
329,192,33939,1,0,0:0:0:0:
402,192,33939,1,0,0:0:0:0:
109,192,34129,1,0,0:0:0:0:
36,192,34129,1,0,0:0:0:0:
402,192,34224,1,0,0:0:0:0:
475,192,34224,1,0,0:0:0:0:
329,192,34319,1,0,0:0:0:0:
182,192,34509,1,0,0:0:0:0:
475,192,34603,1,0,0:0:0:0:
402,192,34603,1,0,0:0:0:0:
329,192,34793,1,0,0:0:0:0:
109,192,34983,1,0,0:0:0:0:
182,192,34983,1,0,0:0:0:0:
256,192,35078,1,0,0:0:0:0:
329,192,35173,1,0,0:0:0:0:
402,192,35268,1,0,0:0:0:0:
36,192,35363,1,0,0:0:0:0:
109,192,35363,1,0,0:0:0:0:
182,192,35458,1,0,0:0:0:0:
256,192,35553,1,0,0:0:0:0:
402,192,35743,1,0,0:0:0:0:
329,192,35743,1,0,0:0:0:0:
256,192,35838,1,0,0:0:0:0:
182,192,35933,1,0,0:0:0:0:
109,192,36028,1,0,0:0:0:0:
475,192,36122,1,0,0:0:0:0:
402,192,36122,1,0,0:0:0:0:
329,192,36217,1,0,0:0:0:0:
256,192,36312,1,0,0:0:0:0:
36,192,36502,1,0,0:0:0:0:
109,192,36502,1,0,0:0:0:0:
182,192,36597,1,0,0:0:0:0:
256,192,36692,1,0,0:0:0:0:
182,192,36787,1,0,0:0:0:0:
475,192,36882,1,0,0:0:0:0:
402,192,36882,1,0,0:0:0:0:
329,192,36977,1,0,0:0:0:0:
256,192,37072,1,0,0:0:0:0:
182,192,37262,1,0,0:0:0:0:
109,192,37262,1,0,0:0:0:0:
36,192,37357,1,0,0:0:0:0:
256,192,37452,1,0,0:0:0:0:
182,192,37547,1,0,0:0:0:0:
475,192,37641,1,0,0:0:0:0:
402,192,37641,1,0,0:0:0:0:
329,192,37831,1,0,0:0:0:0:
109,192,38021,1,0,0:0:0:0:
182,192,38021,1,0,0:0:0:0:
256,192,38116,1,0,0:0:0:0:
329,192,38211,1,0,0:0:0:0:
402,192,38306,1,0,0:0:0:0:
109,192,38401,1,0,0:0:0:0:
36,192,38401,1,0,0:0:0:0:
182,192,38496,1,0,0:0:0:0:
256,192,38591,1,0,0:0:0:0:
36,192,38686,1,0,0:0:0:0:
329,192,38781,1,0,0:0:0:0:
402,192,38781,1,0,0:0:0:0:
256,192,38876,1,0,0:0:0:0:
475,192,38971,1,0,0:0:0:0:
402,192,39066,1,0,0:0:0:0:
109,192,39160,1,0,0:0:0:0:
182,192,39160,1,0,0:0:0:0:
256,192,39255,1,0,0:0:0:0:
36,192,39350,1,0,0:0:0:0:
109,192,39445,1,0,0:0:0:0:
329,192,39540,1,0,0:0:0:0:
402,192,39540,1,0,0:0:0:0:
256,192,39635,1,0,0:0:0:0:
402,192,39825,1,0,0:0:0:0:
475,192,39825,1,0,0:0:0:0:
109,192,40015,1,0,0:0:0:0:
182,192,40015,1,0,0:0:0:0:
402,192,40205,1,0,0:0:0:0:
329,192,40205,1,0,0:0:0:0:
36,192,40300,1,0,0:0:0:0:
109,192,40300,1,0,0:0:0:0:
182,192,40395,1,0,0:0:0:0:
256,192,40490,1,0,0:0:0:0:
475,192,40679,1,0,0:0:0:0:
402,192,40679,1,0,0:0:0:0:
329,192,40869,1,0,0:0:0:0:
256,192,40964,1,0,0:0:0:0:
182,192,41059,1,0,0:0:0:0:
109,192,41059,1,0,0:0:0:0:
36,192,41154,1,0,0:0:0:0:
329,192,41344,1,0,0:0:0:0:
402,192,41344,1,0,0:0:0:0:
182,192,41534,1,0,0:0:0:0:
256,192,41534,1,0,0:0:0:0:
402,192,41724,1,0,0:0:0:0:
475,192,41724,1,0,0:0:0:0:
109,192,41819,1,0,0:0:0:0:
36,192,41819,1,0,0:0:0:0:
182,192,41914,1,0,0:0:0:0:
256,192,42009,1,0,0:0:0:0:
402,192,42198,1,0,0:0:0:0:
475,192,42198,1,0,0:0:0:0:
329,192,42388,1,0,0:0:0:0:
256,192,42483,1,0,0:0:0:0:
182,192,42578,1,0,0:0:0:0:
475,192,42578,1,0,0:0:0:0:
109,192,42958,1,0,0:0:0:0:
402,192,42958,1,0,0:0:0:0:
36,192,43338,1,0,0:0:0:0:
329,192,43338,1,0,0:0:0:0:
36,192,43717,1,0,0:0:0:0:
109,192,43812,1,0,0:0:0:0:
182,192,43907,1,0,0:0:0:0:
256,192,44002,1,0,0:0:0:0:
402,192,44097,1,0,0:0:0:0:
329,192,44097,1,0,0:0:0:0:
256,192,44192,1,0,0:0:0:0:
182,192,44287,1,0,0:0:0:0:
109,192,44382,1,0,0:0:0:0:
475,192,44477,1,0,0:0:0:0:
402,192,44477,1,0,0:0:0:0:
329,192,44572,1,0,0:0:0:0:
256,192,44667,1,0,0:0:0:0:
475,192,44762,1,0,0:0:0:0:
182,192,44857,1,0,0:0:0:0:
109,192,44857,1,0,0:0:0:0:
256,192,44952,1,0,0:0:0:0:
329,192,45047,1,0,0:0:0:0:
402,192,45141,1,0,0:0:0:0:
109,192,45236,1,0,0:0:0:0:
36,192,45236,1,0,0:0:0:0:
182,192,45331,1,0,0:0:0:0:
256,192,45426,1,0,0:0:0:0:
36,192,45521,1,0,0:0:0:0:
402,192,45616,1,0,0:0:0:0:
475,192,45616,1,0,0:0:0:0:
329,192,45711,1,0,0:0:0:0:
109,192,45901,1,0,0:0:0:0:
182,192,45901,1,0,0:0:0:0:
329,192,46091,1,0,0:0:0:0:
402,192,46091,1,0,0:0:0:0:
109,192,46281,1,0,0:0:0:0:
36,192,46281,1,0,0:0:0:0:
182,192,46376,1,0,0:0:0:0:
329,192,46471,1,0,0:0:0:0:
256,192,46660,1,0,0:0:0:0:
475,192,46755,1,0,0:0:0:0:
402,192,46755,1,0,0:0:0:0:
329,192,46850,1,0,0:0:0:0:
256,192,46945,1,0,0:0:0:0:
475,192,47040,1,0,0:0:0:0:
109,192,47135,1,0,0:0:0:0:
182,192,47135,1,0,0:0:0:0:
256,192,47230,1,0,0:0:0:0:
329,192,47325,1,0,0:0:0:0:
402,192,47420,1,0,0:0:0:0:
36,192,47515,1,0,0:0:0:0:
109,192,47515,1,0,0:0:0:0:
182,192,47610,1,0,0:0:0:0:
256,192,47705,1,0,0:0:0:0:
36,192,47800,1,0,0:0:0:0:
402,192,47895,1,0,0:0:0:0:
329,192,47895,1,0,0:0:0:0:
256,192,47990,1,0,0:0:0:0:
182,192,48084,1,0,0:0:0:0:
109,192,48179,1,0,0:0:0:0:
475,192,48274,1,0,0:0:0:0:
402,192,48274,1,0,0:0:0:0:
329,192,48369,1,0,0:0:0:0:
256,192,48464,1,0,0:0:0:0:
475,192,48559,1,0,0:0:0:0:
329,192,48654,1,0,0:0:0:0:
402,192,48654,1,0,0:0:0:0:
182,192,48749,1,0,0:0:0:0:
109,192,48749,1,0,0:0:0:0:
256,192,48939,1,0,0:0:0:0:
36,192,48939,1,0,0:0:0:0:
329,192,49129,1,0,0:0:0:0:
109,192,49129,1,0,0:0:0:0:
182,192,49319,1,0,0:0:0:0:
402,192,49319,1,0,0:0:0:0:
475,192,49509,1,0,0:0:0:0:
256,192,49509,1,0,0:0:0:0:
182,192,49698,1,0,0:0:0:0:
402,192,49698,1,0,0:0:0:0:
329,192,49793,1,0,0:0:0:0:
109,192,49793,1,0,0:0:0:0:
475,192,49983,1,0,0:0:0:0:
36,192,49983,1,0,0:0:0:0:
329,192,50173,1,0,0:0:0:0:
256,192,50268,1,0,0:0:0:0:
182,192,50363,1,0,0:0:0:0:
109,192,50458,1,0,0:0:0:0:
256,192,50553,1,0,0:0:0:0:
182,192,50648,1,0,0:0:0:0:
109,192,50743,1,0,0:0:0:0:
36,192,50838,1,0,0:0:0:0:
256,192,50933,1,0,0:0:0:0:
329,192,51028,1,0,0:0:0:0:
402,192,51122,1,0,0:0:0:0:
475,192,51217,1,0,0:0:0:0:
182,192,51312,1,0,0:0:0:0:
256,192,51407,1,0,0:0:0:0:
329,192,51502,1,0,0:0:0:0:
402,192,51597,1,0,0:0:0:0:
36,192,51692,1,0,0:0:0:0:
109,192,51787,1,0,0:0:0:0:
256,192,51977,1,0,0:0:0:0:
329,192,52167,1,0,0:0:0:0:
402,192,52357,1,0,0:0:0:0:
36,192,52547,1,0,0:0:0:0:
182,192,52641,1,0,0:0:0:0:
256,192,52831,1,0,0:0:0:0:
402,192,53021,1,0,0:0:0:0:
329,192,53021,1,0,0:0:0:0:
475,192,53116,1,0,0:0:0:0:
