osu file format v14

[General]
AudioFilename: audio.ogg
AudioLeadIn: 0
PreviewTime: 26090
Countdown: 0
SampleSet: Normal
StackLeniency: 0.7
Mode: 1
LetterboxInBreaks: 0
WidescreenStoryboard: 1

[Editor]
Bookmarks: 2356,8431,14887,26659,38811
DistanceSpacing: 0.5
BeatDivisor: 4
GridSize: 32
TimelineZoom: 2.4

[Metadata]
Title:Moonlight
TitleUnicode:Moonlight
Artist:Shiganai Koukousei
ArtistUnicode:しがない高校生
Creator:Shinsekai-
Version:We tried to make a really cool Inner Oni
Source:
Tags:Vulkin GarageBand Piano Instrumental Electronic I tried to make a really cool song Kakkoii Kyoku Tsuketta Mita かっこいい曲作ってみた Shiganaikoukousei
BeatmapID:3722624
BeatmapSetID:1650041

[Difficulty]
HPDrainRate:6
CircleSize:7
OverallDifficulty:6
ApproachRate:10
SliderMultiplier:1.4
SliderTickRate:1

[Events]
//Background and Video events
0,0,"bgbgbgbgbgbgbgbgbg.jpg",0,0
//Break Periods
//Storyboard Layer 0 (Background)
//Storyboard Layer 1 (Fail)
//Storyboard Layer 2 (Pass)
//Storyboard Layer 3 (Foreground)
//Storyboard Layer 4 (Overlay)
//Storyboard Sound Samples

[TimingPoints]
2301,379.746835443038,4,1,1,40,1,0
14785,-100,4,1,1,50,0,0
26177,-100,4,1,1,70,0,0
26604,-100,4,1,1,70,0,1
50876,-100,4,1,1,40,0,1
50908,-100,4,1,1,40,0,0

[HitObjects]
256,192,2301,5,0,0:0:0:0:
256,192,2490,1,0,0:0:0:0:
256,192,2585,1,0,0:0:0:0:
256,192,2680,1,8,0:0:0:0:
256,192,2775,1,8,0:0:0:0:
256,192,2870,1,0,0:0:0:0:
256,192,2965,1,0,0:0:0:0:
256,192,3060,1,8,0:0:0:0:
256,192,3345,1,8,0:0:0:0:
256,192,3630,1,8,0:0:0:0:
256,192,3819,1,0,0:0:0:0:
256,192,3914,1,0,0:0:0:0:
256,192,4009,1,8,0:0:0:0:
256,192,4104,1,0,0:0:0:0:
256,192,4199,1,8,0:0:0:0:
256,192,4389,1,0,0:0:0:0:
256,192,4484,1,0,0:0:0:0:
256,192,4579,1,8,0:0:0:0:
256,192,4769,1,8,0:0:0:0:
256,192,4959,1,0,0:0:0:0:
256,192,5149,1,0,0:0:0:0:
256,192,5338,1,8,0:0:0:0:
256,192,5528,1,8,0:0:0:0:
256,192,5623,1,8,0:0:0:0:
256,192,5718,1,0,0:0:0:0:
256,192,5813,1,0,0:0:0:0:
256,192,6003,1,0,0:0:0:0:
256,192,6098,1,8,0:0:0:0:
256,192,6288,1,0,0:0:0:0:
256,192,6383,1,8,0:0:0:0:
256,192,6668,1,8,0:0:0:0:
256,192,6857,1,0,0:0:0:0:
256,192,6952,1,0,0:0:0:0:
256,192,7047,1,0,0:0:0:0:
256,192,7142,1,0,0:0:0:0:
256,192,7237,1,8,0:0:0:0:
256,192,7332,1,8,0:0:0:0:
256,192,7522,1,8,0:0:0:0:
256,192,7617,1,0,0:0:0:0:
256,192,7807,1,8,0:0:0:0:
256,192,7997,1,0,0:0:0:0:
256,192,8187,1,0,0:0:0:0:
256,192,8282,1,0,0:0:0:0:
256,192,8376,1,8,0:0:0:0:
256,192,8566,1,0,0:0:0:0:
256,192,8661,1,0,0:0:0:0:
256,192,8756,1,8,0:0:0:0:
256,192,8851,1,8,0:0:0:0:
256,192,8946,1,0,0:0:0:0:
256,192,9041,1,0,0:0:0:0:
256,192,9136,1,8,0:0:0:0:
256,192,9421,1,8,0:0:0:0:
256,192,9706,1,8,0:0:0:0:
256,192,9895,1,0,0:0:0:0:
256,192,9990,1,8,0:0:0:0:
256,192,10085,1,0,0:0:0:0:
256,192,10180,1,8,0:0:0:0:
256,192,10275,1,8,0:0:0:0:
256,192,10465,1,0,0:0:0:0:
256,192,10560,1,0,0:0:0:0:
256,192,10655,1,8,0:0:0:0:
256,192,10845,1,8,0:0:0:0:
256,192,10940,1,0,0:0:0:0:
256,192,11035,1,8,0:0:0:0:
256,192,11130,1,8,0:0:0:0:
256,192,11225,1,0,0:0:0:0:
256,192,11319,1,8,0:0:0:0:
256,192,11414,1,0,0:0:0:0:
256,192,11604,1,0,0:0:0:0:
256,192,11699,1,0,0:0:0:0:
256,192,11794,1,0,0:0:0:0:
256,192,11889,1,0,0:0:0:0:
256,192,11984,1,0,0:0:0:0:
256,192,12174,1,8,0:0:0:0:
256,192,12459,1,8,0:0:0:0:
256,192,12744,1,8,0:0:0:0:
256,192,12933,1,0,0:0:0:0:
256,192,13028,1,8,0:0:0:0:
256,192,13123,1,0,0:0:0:0:
256,192,13218,1,8,0:0:0:0:
256,192,13313,1,0,0:0:0:0:
256,192,13408,1,0,0:0:0:0:
256,192,13598,1,8,0:0:0:0:
256,192,13693,1,0,0:0:0:0:
256,192,13788,1,8,0:0:0:0:
256,192,13978,1,0,0:0:0:0:
256,192,14073,1,0,0:0:0:0:
256,192,14168,1,8,0:0:0:0:
256,192,14263,1,8,0:0:0:0:
256,192,14357,1,8,0:0:0:0:
256,192,14452,1,0,0:0:0:0:
256,192,14832,5,12,0:0:0:0:
256,192,15022,5,8,0:0:0:0:
256,192,15117,1,8,0:0:0:0:
256,192,15212,1,0,0:0:0:0:
256,192,15497,1,8,0:0:0:0:
256,192,15782,1,0,0:0:0:0:
256,192,15971,5,0,0:0:0:0:
256,192,16066,1,8,0:0:0:0:
256,192,16161,1,0,0:0:0:0:
256,192,16256,1,8,0:0:0:0:
256,192,16351,1,8,0:0:0:0:
256,192,16541,1,0,0:0:0:0:
256,192,16636,1,0,0:0:0:0:
256,192,16731,1,8,0:0:0:0:
256,192,16921,1,8,0:0:0:0:
256,192,17016,1,8,0:0:0:0:
256,192,17111,1,0,0:0:0:0:
256,192,17206,1,0,0:0:0:0:
256,192,17301,1,8,0:0:0:0:
256,192,17395,1,0,0:0:0:0:
256,192,17490,1,8,0:0:0:0:
256,192,17680,1,8,0:0:0:0:
256,192,17775,1,8,0:0:0:0:
256,192,17870,1,0,0:0:0:0:
256,192,17965,1,0,0:0:0:0:
256,192,18250,1,0,0:0:0:0:
256,192,18345,1,0,0:0:0:0:
256,192,18440,1,8,0:0:0:0:
256,192,18535,1,8,0:0:0:0:
256,192,18725,1,0,0:0:0:0:
256,192,18914,1,8,0:0:0:0:
256,192,19009,1,0,0:0:0:0:
256,192,19105,1,0,0:0:0:0:
256,192,19294,1,8,0:0:0:0:
256,192,19484,1,0,0:0:0:0:
256,192,19674,1,8,0:0:0:0:
256,192,19864,1,8,0:0:0:0:
256,192,20054,1,0,0:0:0:0:
256,192,20149,1,8,0:0:0:0:
256,192,20244,1,8,0:0:0:0:
256,192,20338,1,0,0:0:0:0:
256,192,20433,1,0,0:0:0:0:
256,192,20528,1,12,0:0:0:0:
256,192,20908,1,8,0:0:0:0:
256,192,21003,1,8,0:0:0:0:
256,192,21098,1,0,0:0:0:0:
256,192,21193,1,0,0:0:0:0:
256,192,21288,1,8,0:0:0:0:
256,192,21573,1,8,0:0:0:0:
256,192,21668,1,0,0:0:0:0:
256,192,21857,1,8,0:0:0:0:
256,192,22047,1,0,0:0:0:0:
256,192,22142,1,8,0:0:0:0:
256,192,22237,1,8,0:0:0:0:
256,192,22332,1,0,0:0:0:0:
256,192,22427,1,8,0:0:0:0:
256,192,22617,1,0,0:0:0:0:
256,192,22712,1,8,0:0:0:0:
256,192,22807,1,0,0:0:0:0:
256,192,22997,1,0,0:0:0:0:
256,192,23092,1,0,0:0:0:0:
256,192,23187,1,0,0:0:0:0:
256,192,23282,1,8,0:0:0:0:
256,192,23376,1,0,0:0:0:0:
256,192,23471,1,0,0:0:0:0:
256,192,23566,1,8,0:0:0:0:
256,192,23756,1,8,0:0:0:0:
256,192,23851,1,8,0:0:0:0:
256,192,23946,1,8,0:0:0:0:
256,192,24041,1,0,0:0:0:0:
256,192,24326,1,0,0:0:0:0:
256,192,24421,1,0,0:0:0:0:
256,192,24516,1,8,0:0:0:0:
256,192,24611,1,0,0:0:0:0:
256,192,24801,1,8,0:0:0:0:
256,192,24895,1,8,0:0:0:0:
256,192,25085,5,4,0:0:0:0:
256,192,25338,1,4,0:0:0:0:
256,192,25592,1,4,0:0:0:0:
256,192,26225,1,8,0:0:0:0:
256,192,26319,1,8,0:0:0:0:
256,192,26414,1,0,0:0:0:0:
256,192,26509,1,0,0:0:0:0:
256,192,26604,1,12,0:0:0:0:
256,192,26794,1,0,0:0:0:0:
256,192,26889,1,8,0:0:0:0:
256,192,26984,1,0,0:0:0:0:
256,192,27079,1,8,0:0:0:0:
256,192,27174,1,0,0:0:0:0:
256,192,27269,1,0,0:0:0:0:
256,192,27364,1,8,0:0:0:0:
256,192,27554,1,0,0:0:0:0:
256,192,27649,1,0,0:0:0:0:
256,192,27744,1,0,0:0:0:0:
256,192,27838,1,8,0:0:0:0:
256,192,27933,1,0,0:0:0:0:
256,192,28123,1,8,0:0:0:0:
256,192,28218,1,8,0:0:0:0:
256,192,28408,1,0,0:0:0:0:
256,192,28598,1,8,0:0:0:0:
256,192,28788,1,0,0:0:0:0:
256,192,28978,1,8,0:0:0:0:
256,192,29073,1,0,0:0:0:0:
256,192,29263,1,8,0:0:0:0:
256,192,29452,1,8,0:0:0:0:
256,192,29547,1,8,0:0:0:0:
256,192,29642,1,0,0:0:0:0:
256,192,29737,1,0,0:0:0:0:
256,192,29927,1,8,0:0:0:0:
256,192,30117,1,0,0:0:0:0:
256,192,30307,1,8,0:0:0:0:
256,192,30497,1,8,0:0:0:0:
256,192,30592,1,8,0:0:0:0:
256,192,30782,1,8,0:0:0:0:
256,192,30971,1,0,0:0:0:0:
256,192,31066,1,0,0:0:0:0:
256,192,31161,1,8,0:0:0:0:
256,192,31288,1,8,0:0:0:0:
256,192,31414,1,8,0:0:0:0:
256,192,31541,1,8,0:0:0:0:
256,192,31668,1,8,0:0:0:0:
256,192,31794,1,8,0:0:0:0:
256,192,31921,1,0,0:0:0:0:
256,192,32301,1,0,0:0:0:0:
256,192,32395,1,0,0:0:0:0:
256,192,32490,1,8,0:0:0:0:
256,192,32585,1,0,0:0:0:0:
256,192,32680,1,12,0:0:0:0:
256,192,32870,1,0,0:0:0:0:
256,192,32965,1,8,0:0:0:0:
256,192,33060,1,8,0:0:0:0:
256,192,33155,1,8,0:0:0:0:
256,192,33250,1,0,0:0:0:0:
256,192,33345,1,8,0:0:0:0:
256,192,33440,1,0,0:0:0:0:
256,192,33630,1,0,0:0:0:0:
256,192,33725,1,0,0:0:0:0:
256,192,33819,1,8,0:0:0:0:
256,192,33914,1,8,0:0:0:0:
256,192,34009,1,8,0:0:0:0:
256,192,34199,1,0,0:0:0:0:
256,192,34294,1,0,0:0:0:0:
256,192,34484,1,8,0:0:0:0:
256,192,34674,1,0,0:0:0:0:
256,192,34864,1,8,0:0:0:0:
256,192,35054,1,0,0:0:0:0:
256,192,35244,1,0,0:0:0:0:
256,192,35338,1,8,0:0:0:0:
256,192,35433,1,0,0:0:0:0:
256,192,35528,1,8,0:0:0:0:
256,192,35623,1,8,0:0:0:0:
256,192,35718,1,0,0:0:0:0:
256,192,35813,1,8,0:0:0:0:
256,192,35908,1,8,0:0:0:0:
256,192,36098,1,0,0:0:0:0:
256,192,36193,1,0,0:0:0:0:
256,192,36288,1,8,0:0:0:0:
256,192,36478,1,0,0:0:0:0:
256,192,36573,1,0,0:0:0:0:
256,192,36668,1,8,0:0:0:0:
256,192,36763,1,0,0:0:0:0:
256,192,36857,1,8,0:0:0:0:
256,192,36952,1,8,0:0:0:0:
256,192,37047,1,8,0:0:0:0:
256,192,37237,1,8,0:0:0:0:
256,192,37332,1,8,0:0:0:0:
256,192,37427,1,0,0:0:0:0:
256,192,37617,1,0,0:0:0:0:
256,192,37712,1,0,0:0:0:0:
256,192,37807,1,8,0:0:0:0:
256,192,37997,1,8,0:0:0:0:
256,192,38092,1,8,0:0:0:0:
256,192,38187,1,0,0:0:0:0:
256,192,38282,1,0,0:0:0:0:
256,192,38376,1,8,0:0:0:0:
256,192,38471,1,8,0:0:0:0:
256,192,38566,1,8,0:0:0:0:
256,192,38756,5,4,0:0:0:0:
256,192,38946,1,8,0:0:0:0:
256,192,39041,1,8,0:0:0:0:
256,192,39136,1,0,0:0:0:0:
256,192,39231,1,8,0:0:0:0:
256,192,39326,1,0,0:0:0:0:
256,192,39421,1,0,0:0:0:0:
256,192,39516,1,8,0:0:0:0:
256,192,39706,1,0,0:0:0:0:
256,192,39801,1,0,0:0:0:0:
256,192,39895,1,8,0:0:0:0:
256,192,39990,1,8,0:0:0:0:
256,192,40085,1,8,0:0:0:0:
256,192,40180,1,0,0:0:0:0:
256,192,40275,1,8,0:0:0:0:
256,192,40370,1,8,0:0:0:0:
256,192,40560,1,0,0:0:0:0:
256,192,40750,1,0,0:0:0:0:
256,192,40940,1,8,0:0:0:0:
256,192,41130,1,8,0:0:0:0:
256,192,41225,1,0,0:0:0:0:
256,192,41414,1,0,0:0:0:0:
256,192,41604,1,8,0:0:0:0:
256,192,41699,1,8,0:0:0:0:
256,192,41794,1,0,0:0:0:0:
256,192,41889,1,8,0:0:0:0:
256,192,42079,1,0,0:0:0:0:
256,192,42269,1,8,0:0:0:0:
256,192,42459,1,0,0:0:0:0:
256,192,42649,1,8,0:0:0:0:
256,192,42744,1,0,0:0:0:0:
256,192,42933,1,8,0:0:0:0:
256,192,43123,1,8,0:0:0:0:
256,192,43218,1,8,0:0:0:0:
256,192,43313,1,0,0:0:0:0:
256,192,43693,1,8,0:0:0:0:
256,192,44073,1,0,0:0:0:0:
256,192,44452,1,8,0:0:0:0:
256,192,44547,1,8,0:0:0:0:
256,192,44642,1,0,0:0:0:0:
256,192,44737,1,0,0:0:0:0:
256,192,44832,1,12,0:0:0:0:
256,192,45022,1,8,0:0:0:0:
256,192,45117,1,8,0:0:0:0:
256,192,45212,1,0,0:0:0:0:
256,192,45307,1,8,0:0:0:0:
256,192,45402,1,0,0:0:0:0:
256,192,45497,1,0,0:0:0:0:
256,192,45592,1,8,0:0:0:0:
256,192,45782,1,0,0:0:0:0:
256,192,45876,1,0,0:0:0:0:
256,192,45971,1,8,0:0:0:0:
256,192,46066,1,8,0:0:0:0:
256,192,46161,1,8,0:0:0:0:
256,192,46351,1,0,0:0:0:0:
256,192,46446,1,8,0:0:0:0:
256,192,46636,1,0,0:0:0:0:
256,192,46826,1,8,0:0:0:0:
256,192,47016,1,8,0:0:0:0:
256,192,47206,1,0,0:0:0:0:
256,192,47395,1,0,0:0:0:0:
256,192,47490,1,8,0:0:0:0:
256,192,47585,1,8,0:0:0:0:
256,192,47680,1,8,0:0:0:0:
256,192,47775,1,0,0:0:0:0:
256,192,47965,1,0,0:0:0:0:
256,192,48060,1,8,0:0:0:0:
256,192,48155,1,8,0:0:0:0:
256,192,48250,1,0,0:0:0:0:
256,192,48345,1,0,0:0:0:0:
256,192,48440,1,8,0:0:0:0:
256,192,48535,1,8,0:0:0:0:
256,192,48630,1,0,0:0:0:0:
256,192,48819,1,0,0:0:0:0:
256,192,48914,1,8,0:0:0:0:
256,192,49009,1,0,0:0:0:0:
256,192,49104,1,8,0:0:0:0:
256,192,49199,1,8,0:0:0:0:
256,192,49294,1,0,0:0:0:0:
256,192,49389,1,8,0:0:0:0:
256,192,49484,1,8,0:0:0:0:
256,192,49674,1,8,0:0:0:0:
256,192,49864,1,0,0:0:0:0:
256,192,50054,1,8,0:0:0:0:
256,192,50244,1,8,0:0:0:0:
256,192,50433,1,8,0:0:0:0:
256,192,50528,1,0,0:0:0:0:
256,192,50718,1,8,0:0:0:0:
256,192,50908,1,4,0:0:0:0:
256,192,51288,1,8,0:0:0:0:
256,192,51383,1,0,0:0:0:0:
256,192,51478,1,8,0:0:0:0:
256,192,51573,1,0,0:0:0:0:
256,192,51668,1,0,0:0:0:0:
256,192,51857,1,8,0:0:0:0:
256,192,52047,1,0,0:0:0:0:
256,192,52142,1,0,0:0:0:0:
256,192,52237,1,0,0:0:0:0:
256,192,52332,1,0,0:0:0:0:
256,192,52427,1,8,0:0:0:0:
256,192,52522,1,0,0:0:0:0:
256,192,52712,1,8,0:0:0:0:
256,192,52902,1,8,0:0:0:0:
256,192,53092,1,0,0:0:0:0:
256,192,53282,1,0,0:0:0:0:
256,192,53376,1,8,0:0:0:0:
256,192,53566,1,0,0:0:0:0:
256,192,53756,1,8,0:0:0:0:
256,192,53851,1,0,0:0:0:0:
