osu file format v14

[General]
AudioFilename: audio.ogg
AudioLeadIn: 0
PreviewTime: 26090
Countdown: 0
SampleSet: Normal
StackLeniency: 0.7
Mode: 1
LetterboxInBreaks: 0
WidescreenStoryboard: 1

[Editor]
DistanceSpacing: 0.5
BeatDivisor: 4
GridSize: 16
TimelineZoom: 2.4

[Metadata]
Title:Moonlight
TitleUnicode:Moonlight
Artist:Shiganai Koukousei
ArtistUnicode:しがない高校生
Creator:Shinsekai-
Version:I tried to make a really cool Futsuu
Source:
Tags:Vulkin GarageBand Piano Instrumental Electronic I tried to make a really cool song Kakkoii Kyoku Tsuketta Mita かっこいい曲作ってみた Shiganaikoukousei
BeatmapID:3369731
BeatmapSetID:1650041

[Difficulty]
HPDrainRate:8
CircleSize:2
OverallDifficulty:4
ApproachRate:10
SliderMultiplier:1.4
SliderTickRate:1

[Events]
//Background and Video events
0,0,"bgbgbgbgbgbgbgbgbg.jpg",0,0
//Break Periods
//Storyboard Layer 0 (Background)
//Storyboard Layer 1 (Fail)
//Storyboard Layer 2 (Pass)
//Storyboard Layer 3 (Foreground)
//Storyboard Layer 4 (Overlay)
//Storyboard Sound Samples

[TimingPoints]
2301,379.746835443038,4,1,1,40,1,0
14785,-100,4,1,1,50,0,0
26177,-100,4,1,1,70,0,0
26604,-100,4,1,1,70,0,1
50876,-100,4,1,1,40,0,1
50908,-100,4,1,1,40,0,0

[HitObjects]
272,208,2301,5,0,0:0:0:0:
272,208,2680,1,8,0:0:0:0:
272,208,3060,1,8,0:0:0:0:
272,208,3819,1,0,0:0:0:0:
272,208,4579,1,8,0:0:0:0:
272,208,4959,1,0,0:0:0:0:
272,208,5338,1,0,0:0:0:0:
272,208,5718,1,8,0:0:0:0:
272,208,6098,1,8,0:0:0:0:
272,208,6857,1,0,0:0:0:0:
272,208,7237,1,8,0:0:0:0:
272,208,7617,1,0,0:0:0:0:
272,208,7997,1,0,0:0:0:0:
256,192,8187,1,0,0:0:0:0:
272,208,8376,1,0,0:0:0:0:
272,208,9136,1,0,0:0:0:0:
272,208,9895,1,0,0:0:0:0:
272,192,10275,1,8,0:0:0:0:
272,208,10465,1,8,0:0:0:0:
272,208,10655,1,8,0:0:0:0:
272,208,11035,1,0,0:0:0:0:
272,208,11414,1,8,0:0:0:0:
272,208,12174,1,0,0:0:0:0:
272,208,12554,1,8,0:0:0:0:
272,208,12933,1,0,0:0:0:0:
272,208,13693,1,0,0:0:0:0:
272,208,14073,1,8,0:0:0:0:
272,208,14452,1,0,0:0:0:0:
272,208,14832,1,12,0:0:0:0:
272,208,15971,1,0,0:0:0:0:
272,208,16351,1,0,0:0:0:0:
272,208,16541,1,8,0:0:0:0:
272,208,16731,1,0,0:0:0:0:
272,208,17111,1,0,0:0:0:0:
272,208,17301,1,0,0:0:0:0:
272,208,17490,1,8,0:0:0:0:
272,208,18250,1,8,0:0:0:0:
272,208,18630,1,0,0:0:0:0:
272,208,18819,1,8,0:0:0:0:
272,208,19009,1,0,0:0:0:0:
272,208,19389,1,0,0:0:0:0:
272,208,19769,1,8,0:0:0:0:
272,208,20149,1,0,0:0:0:0:
272,208,20338,1,8,0:0:0:0:
272,208,20528,1,12,0:0:0:0:
272,208,21288,1,0,0:0:0:0:
272,208,21668,1,8,0:0:0:0:
272,208,21857,1,0,0:0:0:0:
272,208,22047,1,0,0:0:0:0:
272,208,22807,1,8,0:0:0:0:
272,208,23187,1,8,0:0:0:0:
272,208,23376,1,0,0:0:0:0:
272,208,23566,1,0,0:0:0:0:
272,208,24326,1,8,0:0:0:0:
272,208,24611,1,0,0:0:0:0:
272,208,24895,1,8,0:0:0:0:
256,192,25085,12,0,25592,0:0:0:0:
272,192,26225,5,8,0:0:0:0:
272,192,26604,1,0,0:0:0:0:
256,192,26984,1,8,0:0:0:0:
272,192,27174,1,0,0:0:0:0:
256,192,27364,1,0,0:0:0:0:
272,192,28123,1,0,0:0:0:0:
272,208,28408,1,8,0:0:0:0:
272,192,28693,1,0,0:0:0:0:
256,192,28883,1,0,0:0:0:0:
272,208,29263,1,8,0:0:0:0:
272,208,29642,1,0,0:0:0:0:
256,192,30402,1,0,0:0:0:0:
272,192,30592,1,8,0:0:0:0:
272,208,30782,1,0,0:0:0:0:
256,192,31161,1,8,0:0:0:0:
256,192,31541,1,8,0:0:0:0:
272,192,31731,1,8,0:0:0:0:
256,192,31921,1,0,0:0:0:0:
256,192,32680,1,0,0:0:0:0:
256,192,32965,1,8,0:0:0:0:
256,192,33250,1,8,0:0:0:0:
272,208,33440,1,0,0:0:0:0:
256,192,33819,1,8,0:0:0:0:
256,192,34199,1,0,0:0:0:0:
256,192,34579,1,0,0:0:0:0:
272,208,34959,1,8,0:0:0:0:
256,192,35718,1,8,0:0:0:0:
256,192,36478,1,0,0:0:0:0:
256,192,36668,1,8,0:0:0:0:
256,192,36857,1,0,0:0:0:0:
256,192,37237,1,8,0:0:0:0:
256,192,37427,1,0,0:0:0:0:
256,192,37617,1,8,0:0:0:0:
256,192,37997,1,0,0:0:0:0:
256,192,38376,1,8,0:0:0:0:
256,192,38566,1,8,0:0:0:0:
256,192,38756,1,4,0:0:0:0:
256,192,39516,1,8,0:0:0:0:
272,208,39895,1,0,0:0:0:0:
256,192,40275,1,0,0:0:0:0:
256,192,40560,1,8,0:0:0:0:
272,208,40845,1,0,0:0:0:0:
256,192,41035,1,8,0:0:0:0:
256,192,41414,1,8,0:0:0:0:
256,192,41604,1,8,0:0:0:0:
256,192,41794,1,0,0:0:0:0:
256,192,42174,1,0,0:0:0:0:
272,208,42554,1,8,0:0:0:0:
256,192,43313,1,0,0:0:0:0:
256,192,43693,1,8,0:0:0:0:
256,192,44073,1,0,0:0:0:0:
256,192,44452,1,0,0:0:0:0:
272,208,44642,1,0,0:0:0:0:
256,192,44832,1,8,0:0:0:0:
272,208,45592,1,8,0:0:0:0:
256,192,45971,1,8,0:0:0:0:
256,192,46161,1,8,0:0:0:0:
256,192,46351,1,0,0:0:0:0:
256,192,46731,1,0,0:0:0:0:
272,208,47111,1,0,0:0:0:0:
256,192,47395,1,0,0:0:0:0:
256,192,47680,1,0,0:0:0:0:
256,192,47870,1,8,0:0:0:0:
256,192,48250,1,8,0:0:0:0:
256,176,48630,1,0,0:0:0:0:
256,192,49389,1,8,0:0:0:0:
256,176,49769,1,8,0:0:0:0:
256,192,50149,1,0,0:0:0:0:
256,176,50338,1,0,0:0:0:0:
256,192,50528,1,0,0:0:0:0:
256,192,50718,1,8,0:0:0:0:
256,192,50908,12,0,52427,0:0:0:0:
256,192,53756,5,8,0:0:0:0:
