osu file format v14

[General]
AudioFilename: audio.mp3
AudioLeadIn: 0
PreviewTime: -1
Countdown: 1
SampleSet: Normal
StackLeniency: 0.7
Mode: 0
LetterboxInBreaks: 0
WidescreenStoryboard: 0

[Editor]
Bookmarks: 22196,33294,38843,43005,44219,49942,54971,55144,55317,99884
DistanceSpacing: 0.9
BeatDivisor: 4
GridSize: 4
TimelineZoom: 2.4

[Metadata]
Title:Crossbreed Night
TitleUnicode:Crossbreed Night
Artist:Shifrix
ArtistUnicode:Shifrix
Creator:Skellen
Version:Formacja Wpierdol
Source:
Tags:Shifrix night of knights
BeatmapID:927069
BeatmapSetID:429672

[Difficulty]
HPDrainRate:6
CircleSize:4
OverallDifficulty:8.2
ApproachRate:9.8
SliderMultiplier:1.6
SliderTickRate:1

[Events]
//Background and Video events
0,0,"izayoi_sakuya_touhou_maids_wallpaper-13314.jpg",0,0
//Break Periods
//Storyboard Layer 0 (Background)
//Storyboard Layer 1 (Fail)
//Storyboard Layer 2 (Pass)
//Storyboard Layer 3 (Foreground)
//Storyboard Sound Samples

[TimingPoints]
0,346.820809248555,4,1,0,100,1,0
11098,-80,4,1,0,100,0,0
33294,-74.0740740740741,4,1,0,100,0,0
38583,-74.0740740740741,4,1,0,5,0,0
38670,-74.0740740740741,4,1,0,100,0,0
55491,-66.6666666666667,4,1,0,100,0,1
88786,-100,4,1,0,100,0,0
109421,-200,4,1,0,100,0,0
110982,-80,4,1,0,100,0,1
149826,-74.0740740740741,4,1,0,100,0,1
155375,-100,4,1,0,100,0,0

[HitObjects]
40,308,0,5,0,0:0:0:0:
120,32,173,1,0,0:0:0:0:
168,180,346,1,0,0:0:0:0:
200,168,433,1,0,0:0:0:0:
228,152,520,1,0,0:0:0:0:
248,128,606,1,0,0:0:0:0:
264,100,693,6,0,P|292:128|336:140,1,80
456,44,1040,5,0,0:0:0:0:
476,72,1127,1,0,0:0:0:0:
484,104,1213,1,0,0:0:0:0:
484,136,1300,1,0,0:0:0:0:
480,168,1387,6,0,P|464:212|424:240,1,80
328,340,1734,5,0,0:0:0:0:
256,340,1820,1,0,0:0:0:0:
184,340,1907,2,0,L|184:292,1,40
184,340,2080,2,0,P|128:352|96:336,1,80
36,260,2427,1,0,0:0:0:0:
312,232,2601,1,0,0:0:0:0:
124,96,2774,6,0,P|140:52|172:20,1,80
384,24,3121,5,0,0:0:0:0:
412,40,3208,1,0,0:0:0:0:
436,60,3294,1,0,0:0:0:0:
452,88,3381,1,0,0:0:0:0:
464,116,3468,6,0,P|472:164|468:200,1,80
356,336,3815,5,0,0:0:0:0:
324,344,3901,1,0,0:0:0:0:
292,344,3988,1,0,0:0:0:0:
260,336,4075,1,0,0:0:0:0:
232,324,4161,6,0,P|184:312|140:308,1,80
56,208,4508,5,0,0:0:0:0:
32,176,4595,1,0,0:0:0:0:
40,136,4682,1,0,0:0:0:0:
76,124,4768,1,0,0:0:0:0:
104,152,4855,2,0,P|140:168|184:168,1,80
312,32,5202,1,0,0:0:0:0:
356,336,5375,1,0,0:0:0:0:
64,360,5549,6,0,P|36:316|32:276,1,80
52,52,5895,1,0,0:0:0:0:
124,52,5982,1,0,0:0:0:0:
196,52,6069,2,0,L|196:108,1,40
196,52,6242,2,0,P|244:48|280:64,1,80
476,120,6589,5,0,0:0:0:0:
476,192,6676,1,0,0:0:0:0:
476,264,6763,2,0,L|424:264,1,40
388,324,6936,1,0,0:0:0:0:
196,52,7109,1,0,0:0:0:0:
328,112,7283,5,0,0:0:0:0:
320,144,7369,1,0,0:0:0:0:
304,172,7456,1,0,0:0:0:0:
280,192,7543,1,0,0:0:0:0:
252,204,7630,5,0,0:0:0:0:
28,24,7803,1,0,0:0:0:0:
8,104,7976,2,0,P|0:148|8:192,1,80
56,368,8323,6,0,P|104:356|144:356,1,80
340,372,8670,1,0,0:0:0:0:
372,364,8757,1,0,0:0:0:0:
400,352,8843,1,0,0:0:0:0:
428,332,8930,1,0,0:0:0:0:
444,304,9017,6,0,P|464:256|468:216,1,80
432,28,9364,5,0,0:0:0:0:
408,48,9450,1,0,0:0:0:0:
376,60,9537,1,0,0:0:0:0:
344,60,9624,1,0,0:0:0:0:
312,52,9710,5,0,0:0:0:0:
44,152,9884,1,0,0:0:0:0:
84,336,10057,5,0,0:0:0:0:
116,348,10144,1,0,0:0:0:0:
148,352,10231,1,0,0:0:0:0:
180,352,10317,1,0,0:0:0:0:
212,344,10404,6,0,P|268:328|304:324,1,80
364,352,10664,1,0,0:0:0:0:
436,376,10751,2,0,P|460:344|472:300,1,80
440,32,11098,6,0,P|424:96|400:120,1,100
204,32,11445,1,0,0:0:0:0:
164,40,11531,1,0,0:0:0:0:
128,56,11618,1,0,0:0:0:0:
96,80,11705,1,0,0:0:0:0:
68,108,11791,6,0,P|36:156|28:196,1,100
96,368,12138,1,0,0:0:0:0:
132,352,12225,1,0,0:0:0:0:
172,348,12312,1,0,0:0:0:0:
212,352,12398,1,0,0:0:0:0:
252,364,12485,6,0,P|304:376|368:376,1,100
472,264,12832,5,0,0:0:0:0:
432,268,12919,1,0,0:0:0:0:
392,268,13005,1,0,0:0:0:0:
356,256,13092,1,0,0:0:0:0:
320,240,13179,5,0,0:0:0:0:
460,40,13352,1,0,0:0:0:0:
472,264,13526,1,0,0:0:0:0:
244,100,13699,1,0,0:0:0:0:
24,180,13872,6,0,P|84:188|128:208,1,100
172,344,14219,1,0,0:0:0:0:
208,356,14306,1,0,0:0:0:0:
248,360,14393,1,0,0:0:0:0:
288,356,14479,1,0,0:0:0:0:
328,344,14566,6,0,P|388:348|432:344,1,100
492,156,14913,1,0,0:0:0:0:
500,116,15000,1,0,0:0:0:0:
496,76,15086,1,0,0:0:0:0:
480,40,15173,1,0,0:0:0:0:
448,12,15260,6,0,P|428:56|388:104,1,100
220,16,15606,1,0,0:0:0:0:
192,44,15693,1,0,0:0:0:0:
184,84,15780,1,0,0:0:0:0:
192,124,15867,1,0,0:0:0:0:
216,156,15953,5,8,0:0:0:0:
472,264,16127,1,2,0:0:0:0:
60,268,16300,1,8,0:0:0:0:
184,84,16473,1,2,0:0:0:0:
60,268,16647,6,0,P|88:320|132:344,1,100
300,364,16994,5,0,0:0:0:0:
340,368,17080,1,0,0:0:0:0:
380,368,17167,1,0,0:0:0:0:
420,356,17254,1,0,0:0:0:0:
448,328,17341,6,0,P|476:280|480:232,1,100
476,40,17687,1,0,0:0:0:0:
436,52,17774,1,0,0:0:0:0:
396,56,17861,1,0,0:0:0:0:
356,52,17947,1,0,0:0:0:0:
316,40,18034,6,0,P|256:28|208:32,1,100
36,96,18381,1,0,0:0:0:0:
44,136,18468,1,0,0:0:0:0:
60,172,18554,1,0,0:0:0:0:
84,204,18641,1,0,0:0:0:0:
116,228,18728,6,0,P|168:248|232:248,1,100
217,30,19075,1,0,0:0:0:0:
280,336,19248,1,0,0:0:0:0:
468,360,19421,6,0,P|488:312|496:260,1,100
504,84,19768,5,0,0:0:0:0:
472,108,19855,1,0,0:0:0:0:
432,116,19942,1,0,0:0:0:0:
392,112,20028,1,0,0:0:0:0:
356,96,20115,6,0,P|296:80|232:84,1,100
44,136,20462,5,0,0:0:0:0:
60,172,20549,1,0,0:0:0:0:
80,204,20635,1,0,0:0:0:0:
108,232,20722,1,0,0:0:0:0:
144,252,20809,6,0,P|208:268|264:264,1,100
412,352,21156,5,0,0:0:0:0:
440,324,21242,1,0,0:0:0:0:
404,304,21329,1,0,0:0:0:0:
380,272,21416,1,0,0:0:0:0:
420,260,21502,6,0,P|452:216|464:160,1,100
416,112,21763,1,0,0:0:0:0:
464,48,21849,2,0,P|408:40|356:64,1,100
40,64,22196,5,0,0:0:0:0:
96,328,22369,1,0,0:0:0:0:
148,152,22543,1,0,0:0:0:0:
160,124,22630,1,0,0:0:0:0:
176,100,22716,2,0,P|200:72|220:60,1,50
252,128,22890,2,0,P|316:144|356:140,1,100
480,296,23236,5,0,0:0:0:0:
460,320,23323,1,0,0:0:0:0:
432,332,23410,1,0,0:0:0:0:
404,336,23497,1,0,0:0:0:0:
376,336,23583,6,0,P|320:332|264:316,1,100
52,328,23930,5,0,0:0:0:0:
52,256,24017,1,0,0:0:0:0:
52,184,24104,2,0,L|104:184,1,50
176,184,24277,5,0,0:0:0:0:
480,40,24450,1,0,0:0:0:0:
124,120,24624,5,0,0:0:0:0:
480,116,24797,1,0,0:0:0:0:
376,336,24971,6,0,P|328:356|272:356,1,100
80,332,25317,1,0,0:0:0:0:
64,308,25404,1,0,0:0:0:0:
56,280,25491,2,0,P|44:244|48:212,1,50
120,240,25664,2,0,P|132:192|128:136,1,100
16,32,26011,5,0,0:0:0:0:
44,28,26098,1,0,0:0:0:0:
72,28,26184,1,0,0:0:0:0:
100,32,26271,1,0,0:0:0:0:
128,40,26358,6,0,P|192:56|268:48,1,100
436,60,26705,5,0,0:0:0:0:
456,96,26791,1,0,0:0:0:0:
468,136,26878,1,0,0:0:0:0:
472,176,26965,1,0,0:0:0:0:
472,216,27052,5,0,0:0:0:0:
225,55,27225,1,0,0:0:0:0:
224,324,27398,1,0,0:0:0:0:
468,136,27572,1,0,0:0:0:0:
288,236,27745,6,0,P|228:252|176:244,1,100
40,128,28092,5,0,0:0:0:0:
100,84,28179,1,0,0:0:0:0:
156,36,28265,2,0,L|196:88,1,50
232,136,28439,5,0,0:0:0:0:
460,320,28612,1,0,0:0:0:0:
224,324,28786,5,0,0:0:0:0:
152,324,28872,1,0,0:0:0:0:
80,324,28959,2,0,L|80:260,1,50
80,324,29132,2,0,P|36:280|28:228,1,100
52,56,29479,5,0,0:0:0:0:
76,40,29566,1,0,0:0:0:0:
104,32,29653,1,0,0:0:0:0:
132,28,29739,1,0,0:0:0:0:
164,32,29826,5,0,0:0:0:0:
320,360,30000,1,0,0:0:0:0:
384,296,30173,2,0,L|336:204,1,100
320,16,30520,6,0,P|376:8|432:20,1,100
500,192,30867,1,0,0:0:0:0:
488,220,30953,1,0,0:0:0:0:
468,244,31040,2,0,P|440:268|416:276,1,50
408,196,31213,2,0,P|360:208|312:256,1,100
200,356,31560,5,0,0:0:0:0:
176,340,31647,1,0,0:0:0:0:
156,320,31734,1,0,0:0:0:0:
140,292,31820,1,0,0:0:0:0:
124,264,31907,6,0,P|100:208|92:168,1,100
200,40,32254,1,0,0:0:0:0:
228,32,32341,1,0,0:0:0:0:
244,56,32427,1,0,0:0:0:0:
268,76,32514,1,0,0:0:0:0:
296,92,32601,6,0,P|356:112|424:92,1,100
460,140,32861,1,0,0:0:0:0:
504,208,32947,2,0,L|520:312,1,100
264,364,33294,6,0,P|208:372|148:344,1,108.000000411987
220,296,33641,1,0,0:0:0:0:
244,20,33815,1,0,0:0:0:0:
152,252,33988,5,0,0:0:0:0:
312,56,34161,1,0,0:0:0:0:
120,184,34335,5,0,0:0:0:0:
352,120,34508,1,0,0:0:0:0:
244,20,34682,6,0,P|304:12|360:24,1,108.000000411987
244,20,35028,2,0,B|208:52|208:52|280:124,1,108.000000411987
384,224,35375,2,0,B|420:260|420:260|356:324,1,108.000000411987
81,252,35722,2,0,B|61:216|61:216|120:184,1,108.000000411987
412,156,36069,6,0,P|428:232|400:292,1,108.000000411987
352,208,36416,1,0,0:0:0:0:
48,72,36589,1,0,0:0:0:0:
300,268,36763,5,0,0:0:0:0:
104,20,36936,1,0,0:0:0:0:
224,272,37109,5,0,0:0:0:0:
180,32,37283,1,0,0:0:0:0:
48,72,37456,2,0,P|24:140|32:176,1,108.000000411987
48,72,37803,2,0,B|92:52|92:52|120:120,1,108.000000411987
208,352,38150,2,0,B|260:344|296:304|296:304|316:324|364:352|416:352|416:352|388:292,1,270.000001029968
360,260,38670,5,0,0:0:0:0:
52,324,38843,6,0,P|24:268|32:208,1,108.000000411987
100,256,39190,1,0,0:0:0:0:
332,40,39364,1,0,0:0:0:0:
172,284,39537,5,0,0:0:0:0:
268,8,39710,1,0,0:0:0:0:
244,268,39884,5,0,0:0:0:0:
200,32,40057,2,0,B|136:52|88:16|88:16|88:72|80:112|24:136,1,216.000000823975
152,112,40578,5,0,0:0:0:0:
380,352,40751,1,0,0:0:0:0:
216,72,40924,5,0,0:0:0:0:
312,384,41098,1,0,0:0:0:0:
284,104,41271,5,0,0:0:0:0:
256,340,41445,1,0,0:0:0:0:
380,352,41618,6,0,P|424:316|440:264,1,108.000000411987
380,352,41965,2,0,B|336:360|336:360|320:288,1,108.000000411987
284,104,42312,5,0,0:0:0:0:
136,248,42485,1,0,0:0:0:0:
284,104,42658,5,0,0:0:0:0:
64,320,42832,1,0,0:0:0:0:
256,192,43005,12,0,44219,0:0:0:0:
212,352,44393,6,0,P|264:364|320:340,1,108.000000411987
260,288,44739,1,0,0:0:0:0:
80,32,44913,1,0,0:0:0:0:
324,240,45086,5,0,0:0:0:0:
20,76,45260,1,0,0:0:0:0:
252,212,45433,5,0,0:0:0:0:
92,104,45606,2,0,B|64:152|76:212|76:212|92:104,1,216.000000823975
80,216,46127,5,0,0:0:0:0:
460,176,46300,1,0,0:0:0:0:
128,272,46473,5,0,0:0:0:0:
420,116,46647,1,0,0:0:0:0:
152,200,46820,5,0,0:0:0:0:
384,180,46994,2,0,B|399:287|399:287|411:227|383:179,1,216.000000823975
400,288,47514,5,0,0:0:0:0:
172,36,47687,1,0,0:0:0:0:
344,340,47861,5,0,0:0:0:0:
240,0,48034,1,0,0:0:0:0:
328,264,48208,5,0,0:0:0:0:
244,80,48381,2,0,B|292:52|352:64|352:64|244:80,1,216.000000823975
352,64,48901,5,0,0:0:0:0:
128,272,49075,1,0,0:0:0:0:
224,292,49248,2,0,B|252:356|252:356|304:356|304:356|328:264|328:264|388:264|388:264|408:328,1,324.000001235962
224,292,49942,6,0,P|152:280|120:248,1,108.000000411987
136,24,50289,5,0,0:0:0:0:
364,144,50462,1,0,0:0:0:0:
136,24,50635,5,0,0:0:0:0:
460,196,50809,1,0,0:0:0:0:
364,144,50982,5,0,0:0:0:0:
136,24,51156,2,0,P|88:52|64:104,1,108.000000411987
72,348,51502,5,0,0:0:0:0:
316,312,51676,1,0,0:0:0:0:
72,348,51849,5,0,0:0:0:0:
436,292,52023,1,0,0:0:0:0:
316,312,52196,5,0,0:0:0:0:
72,348,52369,1,0,0:0:0:0:
116,272,52543,6,0,B|140:164|140:164|56:248,1,216.000000823975
140,164,53063,5,0,0:0:0:0:
288,132,53236,2,0,B|308:24|308:24|228:116,1,216.000000823975
264,340,53757,1,0,0:0:0:0:
488,200,53930,2,0,B|460:176|452:156|456:132|468:112|488:96|488:96|448:116|424:120|404:112|392:100|384:76|384:72|384:72|372:96|368:112|368:136|368:168|388:188,1,324.000001235962
388,196,54537,5,0,0:0:0:0:
412,244,54624,1,0,0:0:0:0:
416,296,54710,1,0,0:0:0:0:
392,344,54797,1,0,0:0:0:0:
340,364,54884,1,0,0:0:0:0:
288,356,54971,6,0,L|268:380,2,27.0000001029968
248,320,55144,2,0,L|272:292,2,27.0000001029968
204,288,55317,2,0,L|176:320,2,27.0000001029968
160,252,55491,6,0,B|128:244|116:212|116:212|160:208|184:168,1,120.000004577637
