osu file format v14

[General]
AudioFilename: audio.mp3
AudioLeadIn: 0
PreviewTime: 48970
Countdown: 1
SampleSet: Normal
StackLeniency: 0.7
Mode: 1
LetterboxInBreaks: 0
WidescreenStoryboard: 1

[Editor]
Bookmarks: 23166
DistanceSpacing: 0.65
BeatDivisor: 4
GridSize: 32
TimelineZoom: 1.750002

[Metadata]
Title:The Asterisk War
TitleUnicode:The Asterisk War
Artist:Shiena Nishizawa
ArtistUnicode:西沢幸奏
Creator:streeteelf
Version:Oni
Source:学戦都市アスタリスク 2
Tags:Gakusen Toshi Academy City on the Water 2nd second season opening tv size
BeatmapID:1120100
BeatmapSetID:528039

[Difficulty]
HPDrainRate:5
CircleSize:2
OverallDifficulty:5
ApproachRate:10
SliderMultiplier:1.4
SliderTickRate:1

[Events]
//Background and Video events
0,0,"713620.jpg",0,50
//Break Periods
//Storyboard Layer 0 (Background)
//Storyboard Layer 1 (Fail)
//Storyboard Layer 2 (Pass)
//Storyboard Layer 3 (Foreground)
//Storyboard Sound Samples

[TimingPoints]
1768,419.58041958042,4,1,0,60,1,0
35334,-111.111111111111,4,1,0,50,0,0
42047,-100,4,1,0,60,0,0
50334,-95.2380952380952,4,1,0,60,0,0
50439,-90.9090909090909,4,1,0,70,0,1
77292,-100,4,1,0,60,0,0

[HitObjects]
256,192,1768,5,0,0:0:0:0:
256,192,1872,1,8,0:0:0:0:
256,192,1977,1,8,0:0:0:0:
256,192,2082,1,0,0:0:0:0:
256,192,2397,1,8,0:0:0:0:
256,192,2502,1,0,0:0:0:0:
256,192,2607,1,0,0:0:0:0:
256,192,2712,1,8,0:0:0:0:
256,192,3026,1,0,0:0:0:0:
256,192,3236,1,0,0:0:0:0:
256,192,3446,1,8,0:0:0:0:
256,192,3551,1,0,0:0:0:0:
256,192,3656,1,0,0:0:0:0:
256,192,3761,1,8,0:0:0:0:
256,192,4075,1,0,0:0:0:0:
256,192,4180,1,8,0:0:0:0:
256,192,4285,1,8,0:0:0:0:
256,192,4390,1,0,0:0:0:0:
256,192,4705,1,0,0:0:0:0:
256,192,4809,1,8,0:0:0:0:
256,192,4914,1,8,0:0:0:0:
256,192,5019,1,8,0:0:0:0:
256,192,5124,1,8,0:0:0:0:
256,192,5229,1,0,0:0:0:0:
256,192,5334,1,0,0:0:0:0:
256,192,5439,1,8,0:0:0:0:
256,192,5754,1,0,0:0:0:0:
256,192,5858,1,8,0:0:0:0:
256,192,5963,1,8,0:0:0:0:
256,192,6068,1,0,0:0:0:0:
256,192,6383,1,0,0:0:0:0:
256,192,6593,1,0,0:0:0:0:
256,192,6802,1,0,0:0:0:0:
256,192,6907,1,8,0:0:0:0:
256,192,7012,1,8,0:0:0:0:
256,192,7117,1,0,0:0:0:0:
256,192,7642,1,0,0:0:0:0:
256,192,8061,1,8,0:0:0:0:
256,192,8481,1,0,0:0:0:0:
256,192,8586,1,0,0:0:0:0:
256,192,8691,1,8,0:0:0:0:
256,192,8795,1,8,0:0:0:0:
256,192,8900,1,0,0:0:0:0:
256,192,9110,1,8,0:0:0:0:
256,192,9215,1,8,0:0:0:0:
256,192,9425,1,0,0:0:0:0:
256,192,9530,1,0,0:0:0:0:
256,192,9740,1,8,0:0:0:0:
256,192,9844,1,8,0:0:0:0:
256,192,9949,1,0,0:0:0:0:
256,192,10054,1,0,0:0:0:0:
256,192,10159,1,8,0:0:0:0:
256,192,10264,1,0,0:0:0:0:
256,192,10474,1,8,0:0:0:0:
256,192,10579,1,8,0:0:0:0:
256,192,10789,1,0,0:0:0:0:
256,192,10893,1,0,0:0:0:0:
256,192,11103,1,8,0:0:0:0:
256,192,11208,1,8,0:0:0:0:
256,192,11418,1,8,0:0:0:0:
256,192,11523,1,8,0:0:0:0:
256,192,11628,1,0,0:0:0:0:
256,192,11733,1,8,0:0:0:0:
256,192,11837,1,0,0:0:0:0:
256,192,11942,1,8,0:0:0:0:
256,192,12152,1,0,0:0:0:0:
256,192,12257,1,0,0:0:0:0:
256,192,12467,1,8,0:0:0:0:
256,192,12572,1,8,0:0:0:0:
256,192,12781,1,0,0:0:0:0:
256,192,12886,1,0,0:0:0:0:
256,192,13096,1,0,0:0:0:0:
256,192,13201,1,0,0:0:0:0:
256,192,13306,1,8,0:0:0:0:
256,192,13411,1,0,0:0:0:0:
256,192,13516,1,8,0:0:0:0:
256,192,13621,1,0,0:0:0:0:
256,192,13830,1,8,0:0:0:0:
256,192,13935,1,8,0:0:0:0:
256,192,14145,1,0,0:0:0:0:
256,192,14250,1,0,0:0:0:0:
256,192,14460,1,0,0:0:0:0:
256,192,14565,1,8,0:0:0:0:
256,192,14774,1,0,0:0:0:0:
256,192,14879,1,0,0:0:0:0:
256,192,14984,1,8,0:0:0:0:
256,192,15089,1,8,0:0:0:0:
256,192,15194,1,0,0:0:0:0:
256,192,15299,1,8,0:0:0:0:
256,192,15509,1,0,0:0:0:0:
256,192,15614,1,0,0:0:0:0:
256,192,15823,1,8,0:0:0:0:
256,192,15928,1,0,0:0:0:0:
256,192,16138,1,8,0:0:0:0:
256,192,16243,1,8,0:0:0:0:
256,192,16453,1,0,0:0:0:0:
256,192,16558,1,0,0:0:0:0:
256,192,16663,1,8,0:0:0:0:
256,192,16768,1,8,0:0:0:0:
256,192,16872,1,8,0:0:0:0:
256,192,16977,1,0,0:0:0:0:
256,192,17187,1,8,0:0:0:0:
256,192,17292,1,8,0:0:0:0:
256,192,17502,1,0,0:0:0:0:
256,192,17607,1,8,0:0:0:0:
256,192,17816,1,0,0:0:0:0:
256,192,17921,1,0,0:0:0:0:
256,192,18131,1,8,0:0:0:0:
256,192,18236,1,8,0:0:0:0:
256,192,18341,1,0,0:0:0:0:
256,192,18446,1,0,0:0:0:0:
256,192,18551,1,0,0:0:0:0:
256,192,18656,1,8,0:0:0:0:
256,192,18865,1,0,0:0:0:0:
256,192,18970,1,0,0:0:0:0:
256,192,19180,1,8,0:0:0:0:
256,192,19285,1,0,0:0:0:0:
256,192,19495,1,8,0:0:0:0:
256,192,19600,1,8,0:0:0:0:
256,192,19809,1,0,0:0:0:0:
256,192,19914,1,0,0:0:0:0:
256,192,20019,1,8,0:0:0:0:
256,192,20124,1,8,0:0:0:0:
256,192,20229,1,0,0:0:0:0:
256,192,20334,1,8,0:0:0:0:
256,192,20544,1,0,0:0:0:0:
256,192,20649,1,0,0:0:0:0:
256,192,20858,1,0,0:0:0:0:
256,192,20963,1,8,0:0:0:0:
256,192,21173,1,8,0:0:0:0:
256,192,21278,1,0,0:0:0:0:
256,192,21488,1,8,0:0:0:0:
256,192,21593,1,8,0:0:0:0:
256,192,21698,1,8,0:0:0:0:
256,192,21802,1,8,0:0:0:0:
256,192,21907,1,0,0:0:0:0:
256,192,22117,1,8,0:0:0:0:
256,192,22222,1,8,0:0:0:0:
256,192,22327,1,0,0:0:0:0:
256,192,22537,1,8,0:0:0:0:
256,192,22642,1,8,0:0:0:0:
256,192,22851,1,0,0:0:0:0:
256,192,22956,1,0,0:0:0:0:
256,192,23166,1,8,0:0:0:0:
256,192,23271,1,0,0:0:0:0:
256,192,23376,1,0,0:0:0:0:
256,192,23586,1,8,0:0:0:0:
256,192,23795,1,0,0:0:0:0:
256,192,23900,1,0,0:0:0:0:
256,192,24005,1,8,0:0:0:0:
256,192,24110,1,0,0:0:0:0:
256,192,24215,1,0,0:0:0:0:
256,192,24425,1,0,0:0:0:0:
256,192,24530,1,0,0:0:0:0:
256,192,24635,1,8,0:0:0:0:
256,192,24740,1,8,0:0:0:0:
256,192,24844,1,0,0:0:0:0:
256,192,25054,1,0,0:0:0:0:
256,192,25159,1,0,0:0:0:0:
256,192,25369,1,8,0:0:0:0:
256,192,25474,1,8,0:0:0:0:
256,192,25684,1,0,0:0:0:0:
256,192,25893,1,8,0:0:0:0:
256,192,25998,1,8,0:0:0:0:
256,192,26208,1,0,0:0:0:0:
256,192,26313,1,0,0:0:0:0:
256,192,26523,1,0,0:0:0:0:
256,192,26733,1,8,0:0:0:0:
256,192,26942,1,0,0:0:0:0:
256,192,27047,1,0,0:0:0:0:
256,192,27152,1,8,0:0:0:0:
256,192,27362,1,0,0:0:0:0:
256,192,27572,1,8,0:0:0:0:
256,192,27677,1,0,0:0:0:0:
256,192,27886,1,0,0:0:0:0:
256,192,27991,1,8,0:0:0:0:
256,192,28201,1,0,0:0:0:0:
256,192,28306,1,0,0:0:0:0:
256,192,28411,1,8,0:0:0:0:
256,192,28621,1,0,0:0:0:0:
256,192,28830,1,8,0:0:0:0:
256,192,28935,1,8,0:0:0:0:
256,192,29145,1,0,0:0:0:0:
256,192,29250,1,0,0:0:0:0:
256,192,29460,1,8,0:0:0:0:
256,192,29565,1,8,0:0:0:0:
256,192,29670,1,8,0:0:0:0:
256,192,29774,1,8,0:0:0:0:
256,192,29879,1,0,0:0:0:0:
256,192,30089,1,8,0:0:0:0:
256,192,30299,1,0,0:0:0:0:
256,192,30509,1,0,0:0:0:0:
256,192,30614,1,8,0:0:0:0:
256,192,30719,1,8,0:0:0:0:
256,192,30928,1,0,0:0:0:0:
256,192,31033,1,0,0:0:0:0:
256,192,31243,1,0,0:0:0:0:
256,192,31348,1,0,0:0:0:0:
256,192,31558,1,8,0:0:0:0:
256,192,31663,1,8,0:0:0:0:
256,192,31768,1,0,0:0:0:0:
256,192,31872,1,0,0:0:0:0:
256,192,31977,1,8,0:0:0:0:
256,192,32082,1,0,0:0:0:0:
256,192,32292,1,8,0:0:0:0:
256,192,32397,1,8,0:0:0:0:
256,192,32607,1,8,0:0:0:0:
256,192,32712,1,8,0:0:0:0:
256,192,32921,1,0,0:0:0:0:
256,192,33026,1,8,0:0:0:0:
256,192,33131,1,8,0:0:0:0:
256,192,33236,1,0,0:0:0:0:
256,192,33446,1,8,0:0:0:0:
256,192,33551,1,0,0:0:0:0:
256,192,33656,1,0,0:0:0:0:
256,192,33761,1,8,0:0:0:0:
256,192,33971,1,0,0:0:0:0:
256,192,34075,1,0,0:0:0:0:
256,192,34285,1,8,0:0:0:0:
256,192,34390,1,0,0:0:0:0:
256,192,34600,1,8,0:0:0:0:
256,192,34705,1,8,0:0:0:0:
256,192,34914,1,0,0:0:0:0:
256,192,35019,1,0,0:0:0:0:
256,192,35124,1,0,0:0:0:0:
256,192,35229,1,0,0:0:0:0:
256,192,35334,1,8,0:0:0:0:
256,192,35649,1,2,0:0:0:0:
256,192,35963,1,0,0:0:0:0:
256,192,36278,1,2,0:0:0:0:
256,192,36593,1,0,0:0:0:0:
256,192,36802,1,2,0:0:0:0:
256,192,37012,1,0,0:0:0:0:
256,192,37327,1,2,0:0:0:0:
256,192,37642,1,2,0:0:0:0:
256,192,37956,1,0,0:0:0:0:
256,192,38271,1,2,0:0:0:0:
256,192,38481,1,0,0:0:0:0:
256,192,38691,1,2,0:0:0:0:
256,192,39005,1,0,0:0:0:0:
256,192,39320,1,0,0:0:0:0:
256,192,39635,1,2,0:0:0:0:
256,192,39949,1,0,0:0:0:0:
256,192,40159,1,2,0:0:0:0:
256,192,40369,1,0,0:0:0:0:
256,192,40684,1,0,0:0:0:0:
256,192,40998,1,2,0:0:0:0:
256,192,41313,1,0,0:0:0:0:
256,192,41628,1,2,0:0:0:0:
256,192,41837,1,2,0:0:0:0:
256,192,42047,1,0,0:0:0:0:
256,192,42467,1,0,0:0:0:0:
256,192,42887,1,0,0:0:0:0:
256,192,43096,1,0,0:0:0:0:
256,192,43201,1,0,0:0:0:0:
256,192,43306,1,8,0:0:0:0:
256,192,43726,1,8,0:0:0:0:
256,192,43830,1,8,0:0:0:0:
256,192,43935,1,8,0:0:0:0:
256,192,44145,1,0,0:0:0:0:
256,192,44250,1,0,0:0:0:0:
256,192,44355,1,0,0:0:0:0:
256,192,44565,1,8,0:0:0:0:
256,192,44984,1,0,0:0:0:0:
256,192,45404,1,8,0:0:0:0:
256,192,45614,1,8,0:0:0:0:
256,192,45823,1,0,0:0:0:0:
256,192,45928,1,0,0:0:0:0:
256,192,46033,1,0,0:0:0:0:
256,192,46138,1,0,0:0:0:0:
256,192,46243,1,8,0:0:0:0:
256,192,46453,1,0,0:0:0:0:
256,192,46663,1,8,0:0:0:0:
256,192,47082,1,8,0:0:0:0:
256,192,47292,1,0,0:0:0:0:
256,192,47502,1,8,0:0:0:0:
256,192,47607,1,0,0:0:0:0:
256,192,47712,1,0,0:0:0:0:
256,192,47816,1,8,0:0:0:0:
256,192,47921,12,0,48761,0:0:0:0:
256,192,49180,5,0,0:0:0:0:
256,192,49600,1,0,0:0:0:0:
256,192,49809,1,0,0:0:0:0:
256,192,50019,1,8,0:0:0:0:
256,192,50229,1,8,0:0:0:0:
256,192,50334,1,8,0:0:0:0:
256,192,50439,1,0,0:0:0:0:
256,192,50544,1,8,0:0:0:0:
256,192,50649,1,8,0:0:0:0:
256,192,50754,1,8,0:0:0:0:
256,192,50858,1,0,0:0:0:0:
256,192,51068,1,8,0:0:0:0:
256,192,51173,1,8,0:0:0:0:
256,192,51383,1,0,0:0:0:0:
256,192,51488,1,0,0:0:0:0:
256,192,51698,1,0,0:0:0:0:
256,192,51907,1,0,0:0:0:0:
256,192,52012,1,0,0:0:0:0:
256,192,52117,1,8,0:0:0:0:
256,192,52222,1,0,0:0:0:0:
256,192,52432,1,8,0:0:0:0:
256,192,52537,1,8,0:0:0:0:
256,192,52747,1,0,0:0:0:0:
256,192,52851,1,8,0:0:0:0:
256,192,52956,1,8,0:0:0:0:
256,192,53166,1,0,0:0:0:0:
256,192,53376,1,8,0:0:0:0:
256,192,53481,1,0,0:0:0:0:
256,192,53691,1,0,0:0:0:0:
256,192,53795,1,8,0:0:0:0:
256,192,54005,1,0,0:0:0:0:
256,192,54110,1,0,0:0:0:0:
256,192,54215,1,8,0:0:0:0:
256,192,54425,1,0,0:0:0:0:
256,192,54635,1,0,0:0:0:0:
256,192,54740,1,0,0:0:0:0:
256,192,54844,1,0,0:0:0:0:
256,192,54949,1,0,0:0:0:0:
256,192,55054,1,8,0:0:0:0:
256,192,55264,1,0,0:0:0:0:
256,192,55474,1,8,0:0:0:0:
256,192,55579,1,8,0:0:0:0:
256,192,55788,1,0,0:0:0:0:
256,192,55893,1,0,0:0:0:0:
256,192,56103,1,8,0:0:0:0:
256,192,56313,1,0,0:0:0:0:
256,192,56418,1,0,0:0:0:0:
256,192,56523,1,8,0:0:0:0:
256,192,56628,1,8,0:0:0:0:
256,192,56733,1,8,0:0:0:0:
256,192,56837,1,0,0:0:0:0:
256,192,57047,1,0,0:0:0:0:
256,192,57152,1,0,0:0:0:0:
256,192,57257,1,8,0:0:0:0:
256,192,57362,1,0,0:0:0:0:
256,192,57572,1,0,0:0:0:0:
256,192,57781,1,8,0:0:0:0:
256,192,57886,1,8,0:0:0:0:
256,192,57991,1,0,0:0:0:0:
256,192,58201,1,8,0:0:0:0:
256,192,58411,1,0,0:0:0:0:
256,192,58516,1,0,0:0:0:0:
256,192,58621,1,8,0:0:0:0:
256,192,58830,1,0,0:0:0:0:
256,192,58935,1,0,0:0:0:0:
256,192,59145,1,8,0:0:0:0:
256,192,59250,1,8,0:0:0:0:
256,192,59460,1,0,0:0:0:0:
256,192,59670,1,8,0:0:0:0:
256,192,59774,1,8,0:0:0:0:
256,192,59879,1,8,0:0:0:0:
256,192,59984,1,0,0:0:0:0:
256,192,60089,1,0,0:0:0:0:
256,192,60299,1,8,0:0:0:0:
256,192,60509,1,0,0:0:0:0:
256,192,60719,1,8,0:0:0:0:
256,192,60823,1,8,0:0:0:0:
256,192,60928,1,0,0:0:0:0:
256,192,61138,1,8,0:0:0:0:
256,192,61348,1,0,0:0:0:0:
256,192,61453,1,8,0:0:0:0:
256,192,61663,1,0,0:0:0:0:
256,192,61768,1,0,0:0:0:0:
256,192,61872,1,8,0:0:0:0:
256,192,62082,1,8,0:0:0:0:
256,192,62187,1,0,0:0:0:0:
256,192,62397,1,0,0:0:0:0:
256,192,62502,1,8,0:0:0:0:
256,192,62607,1,8,0:0:0:0:
256,192,62816,1,0,0:0:0:0:
256,192,63026,1,8,0:0:0:0:
256,192,63131,1,8,0:0:0:0:
256,192,63236,1,0,0:0:0:0:
256,192,63341,1,0,0:0:0:0:
256,192,63446,1,8,0:0:0:0:
256,192,63551,1,8,0:0:0:0:
256,192,63656,1,8,0:0:0:0:
256,192,63865,1,0,0:0:0:0:
256,192,63970,1,0,0:0:0:0:
256,192,64180,1,8,0:0:0:0:
256,192,64285,1,0,0:0:0:0:
256,192,64390,1,0,0:0:0:0:
256,192,64600,1,8,0:0:0:0:
256,192,64705,1,0,0:0:0:0:
256,192,64809,1,8,0:0:0:0:
256,192,65019,1,0,0:0:0:0:
256,192,65124,1,0,0:0:0:0:
256,192,65334,1,8,0:0:0:0:
256,192,65439,1,0,0:0:0:0:
256,192,65544,1,0,0:0:0:0:
256,192,65649,1,8,0:0:0:0:
256,192,65858,1,8,0:0:0:0:
256,192,65963,1,8,0:0:0:0:
256,192,66173,1,0,0:0:0:0:
256,192,66278,1,8,0:0:0:0:
256,192,66488,1,0,0:0:0:0:
256,192,66593,1,0,0:0:0:0:
256,192,66802,1,8,0:0:0:0:
256,192,66907,1,8,0:0:0:0:
256,192,67012,1,0,0:0:0:0:
256,192,67117,1,0,0:0:0:0:
256,192,67222,1,8,0:0:0:0:
256,192,67432,1,0,0:0:0:0:
256,192,67537,1,8,0:0:0:0:
256,192,67642,1,8,0:0:0:0:
256,192,67851,1,0,0:0:0:0:
256,192,67956,1,8,0:0:0:0:
256,192,68166,1,0,0:0:0:0:
256,192,68376,1,8,0:0:0:0:
256,192,68481,1,0,0:0:0:0:
256,192,68691,1,8,0:0:0:0:
256,192,68795,1,0,0:0:0:0:
256,192,68900,1,0,0:0:0:0:
256,192,69005,1,8,0:0:0:0:
256,192,69215,1,0,0:0:0:0:
256,192,69320,1,8,0:0:0:0:
256,192,69530,1,8,0:0:0:0:
256,192,69635,1,0,0:0:0:0:
256,192,69740,1,0,0:0:0:0:
256,192,69844,1,8,0:0:0:0:
256,192,70054,1,8,0:0:0:0:
256,192,70159,1,0,0:0:0:0:
256,192,70264,1,0,0:0:0:0:
256,192,70369,1,8,0:0:0:0:
256,192,70474,1,8,0:0:0:0:
256,192,70579,1,0,0:0:0:0:
256,192,70788,1,0,0:0:0:0:
256,192,70893,1,0,0:0:0:0:
256,192,70998,1,8,0:0:0:0:
256,192,71208,1,0,0:0:0:0:
256,192,71313,1,0,0:0:0:0:
256,192,71523,1,8,0:0:0:0:
256,192,71628,1,0,0:0:0:0:
256,192,71733,1,0,0:0:0:0:
256,192,71837,1,8,0:0:0:0:
256,192,72047,1,0,0:0:0:0:
256,192,72257,1,8,0:0:0:0:
256,192,72362,1,8,0:0:0:0:
256,192,72467,1,0,0:0:0:0:
256,192,72572,1,8,0:0:0:0:
256,192,72677,1,8,0:0:0:0:
256,192,72886,1,0,0:0:0:0:
256,192,72991,1,0,0:0:0:0:
256,192,73096,1,8,0:0:0:0:
256,192,73306,1,0,0:0:0:0:
256,192,73516,1,8,0:0:0:0:
256,192,73621,1,0,0:0:0:0:
256,192,73726,1,0,0:0:0:0:
256,192,73830,1,8,0:0:0:0:
256,192,74040,1,8,0:0:0:0:
256,192,74145,1,0,0:0:0:0:
256,192,74355,1,8,0:0:0:0:
256,192,74460,1,8,0:0:0:0:
256,192,74565,1,0,0:0:0:0:
256,192,74670,1,8,0:0:0:0:
256,192,74774,1,0,0:0:0:0:
256,192,74879,1,8,0:0:0:0:
256,192,75089,1,0,0:0:0:0:
256,192,75194,1,8,0:0:0:0:
256,192,75299,1,0,0:0:0:0:
256,192,75404,1,0,0:0:0:0:
256,192,75509,1,0,0:0:0:0:
256,192,75614,1,8,0:0:0:0:
256,192,75823,1,8,0:0:0:0:
256,192,75928,1,0,0:0:0:0:
256,192,76033,1,0,0:0:0:0:
256,192,76138,1,8,0:0:0:0:
256,192,76243,1,0,0:0:0:0:
256,192,76453,1,0,0:0:0:0:
256,192,76663,1,8,0:0:0:0:
256,192,76768,1,8,0:0:0:0:
256,192,76977,1,0,0:0:0:0:
256,192,77082,1,0,0:0:0:0:
256,192,77292,1,0,0:0:0:0:
256,192,77397,1,0,0:0:0:0:
256,192,77502,1,8,0:0:0:0:
256,192,77606,1,8,0:0:0:0:
256,192,77711,1,0,0:0:0:0:
256,192,77921,1,8,0:0:0:0:
256,192,78026,1,8,0:0:0:0:
256,192,78236,1,0,0:0:0:0:
256,192,78341,1,0,0:0:0:0:
256,192,78551,1,8,0:0:0:0:
256,192,78655,1,8,0:0:0:0:
256,192,78760,1,0,0:0:0:0:
256,192,78865,1,0,0:0:0:0:
256,192,78970,1,8,0:0:0:0:
256,192,79075,1,0,0:0:0:0:
256,192,79285,1,8,0:0:0:0:
256,192,79390,1,8,0:0:0:0:
256,192,79600,1,0,0:0:0:0:
256,192,79704,1,0,0:0:0:0:
256,192,79914,1,8,0:0:0:0:
256,192,80019,1,8,0:0:0:0:
256,192,80229,1,8,0:0:0:0:
256,192,80334,1,8,0:0:0:0:
256,192,80439,1,0,0:0:0:0:
256,192,80544,1,8,0:0:0:0:
256,192,80648,1,0,0:0:0:0:
256,192,80753,1,8,0:0:0:0:
256,192,80963,1,0,0:0:0:0:
256,192,81068,1,0,0:0:0:0:
256,192,81278,1,8,0:0:0:0:
256,192,81383,1,8,0:0:0:0:
256,192,81592,1,0,0:0:0:0:
256,192,81697,1,0,0:0:0:0:
256,192,81907,1,0,0:0:0:0:
256,192,82012,1,0,0:0:0:0:
256,192,82117,1,8,0:0:0:0:
256,192,82222,1,0,0:0:0:0:
256,192,82327,1,8,0:0:0:0:
256,192,82432,1,0,0:0:0:0:
256,192,82641,1,8,0:0:0:0:
256,192,82746,1,8,0:0:0:0:
256,192,82956,1,0,0:0:0:0:
256,192,83061,1,0,0:0:0:0:
256,192,83271,1,0,0:0:0:0:
256,192,83376,1,8,0:0:0:0:
256,192,83585,1,0,0:0:0:0:
256,192,83690,1,0,0:0:0:0:
256,192,83795,1,0,0:0:0:0:
256,192,83900,1,12,0:0:0:0:
