osu file format v14

[General]
AudioFilename: audio.mp3
AudioLeadIn: 0
PreviewTime: 48970
Countdown: 1
SampleSet: Normal
StackLeniency: 0.7
Mode: 1
LetterboxInBreaks: 0
WidescreenStoryboard: 1

[Editor]
Bookmarks: 8900
DistanceSpacing: 0.65
BeatDivisor: 2
GridSize: 32
TimelineZoom: 1.250002

[Metadata]
Title:The Asterisk War
TitleUnicode:The Asterisk War
Artist:Shiena Nishizawa
ArtistUnicode:西沢幸奏
Creator:streeteelf
Version:Kantan
Source:学戦都市アスタリスク 2
Tags:Gakusen Toshi Academy City on the Water 2nd second season opening tv size
BeatmapID:1120098
BeatmapSetID:528039

[Difficulty]
HPDrainRate:8
CircleSize:2
OverallDifficulty:2
ApproachRate:10
SliderMultiplier:1.4
SliderTickRate:1

[Events]
//Background and Video events
0,0,"704364.jpg",0,100
//Break Periods
//Storyboard Layer 0 (Background)
//Storyboard Layer 1 (Fail)
//Storyboard Layer 2 (Pass)
//Storyboard Layer 3 (Foreground)
//Storyboard Sound Samples

[TimingPoints]
1768,419.58041958042,4,1,0,60,1,0
35334,-100,4,1,0,50,0,0
42047,-100,4,1,0,60,0,0
50439,-100,4,1,0,70,0,1
77292,-100,4,1,0,60,0,0

[HitObjects]
256,192,1768,5,0,0:0:0:0:
256,192,2397,1,8,0:0:0:0:
256,192,3026,1,0,0:0:0:0:
256,192,3446,1,8,0:0:0:0:
256,192,4075,1,0,0:0:0:0:
256,192,4705,1,0,0:0:0:0:
256,192,5124,1,8,0:0:0:0:
256,192,5754,1,0,0:0:0:0:
256,192,6383,1,0,0:0:0:0:
256,192,6802,1,0,0:0:0:0:
256,192,7642,1,0,0:0:0:0:
256,192,8061,1,8,0:0:0:0:
256,192,8481,1,12,0:0:0:0:
256,192,9110,1,0,0:0:0:0:
256,192,9740,1,8,0:0:0:0:
256,192,10159,1,0,0:0:0:0:
256,192,10789,1,0,0:0:0:0:
256,192,11418,1,0,0:0:0:0:
256,192,11837,1,8,0:0:0:0:
256,192,13096,1,8,0:0:0:0:
256,192,13516,1,0,0:0:0:0:
256,192,14145,1,0,0:0:0:0:
256,192,14774,1,0,0:0:0:0:
256,192,15194,1,8,0:0:0:0:
256,192,16453,1,0,0:0:0:0:
256,192,16872,1,8,0:0:0:0:
256,192,17502,1,0,0:0:0:0:
256,192,18131,1,8,0:0:0:0:
256,192,18551,1,0,0:0:0:0:
256,192,19809,1,0,0:0:0:0:
256,192,20229,1,8,0:0:0:0:
256,192,20858,1,0,0:0:0:0:
256,192,21488,1,8,0:0:0:0:
256,192,21907,1,8,0:0:0:0:
256,192,22747,1,0,0:0:0:0:
256,192,23166,1,8,0:0:0:0:
256,192,23586,1,8,0:0:0:0:
256,192,24425,1,0,0:0:0:0:
256,192,25054,1,0,0:0:0:0:
256,192,25684,1,0,0:0:0:0:
256,192,26523,1,0,0:0:0:0:
256,192,26942,1,0,0:0:0:0:
256,192,27781,1,0,0:0:0:0:
256,192,28411,1,8,0:0:0:0:
256,192,29040,1,0,0:0:0:0:
256,192,29879,1,0,0:0:0:0:
256,192,30299,1,0,0:0:0:0:
256,192,30928,1,0,0:0:0:0:
256,192,31558,1,8,0:0:0:0:
256,192,31977,1,0,0:0:0:0:
256,192,33236,1,0,0:0:0:0:
256,192,33656,1,8,0:0:0:0:
256,192,34285,1,8,0:0:0:0:
256,192,34914,1,0,0:0:0:0:
256,192,35334,1,0,0:0:0:0:
256,192,36593,1,0,0:0:0:0:
256,192,37012,1,8,0:0:0:0:
256,192,38271,1,2,0:0:0:0:
256,192,38691,1,0,0:0:0:0:
256,192,39949,1,0,0:0:0:0:
256,192,40369,1,8,0:0:0:0:
256,192,41628,1,2,0:0:0:0:
256,192,42047,1,0,0:0:0:0:
256,192,42886,1,0,0:0:0:0:
256,192,43726,1,8,0:0:0:0:
256,192,44565,1,0,0:0:0:0:
256,192,45404,1,8,0:0:0:0:
256,192,46243,1,8,0:0:0:0:
256,192,47082,1,0,0:0:0:0:
256,192,47502,1,8,0:0:0:0:
256,192,47921,12,0,48761,0:0:0:0:
256,192,49180,5,0,0:0:0:0:
256,192,50019,1,12,0:0:0:0:
256,192,50439,1,0,0:0:0:0:
256,192,51068,1,8,0:0:0:0:
256,192,52117,1,8,0:0:0:0:
256,192,52956,1,0,0:0:0:0:
256,192,53376,1,8,0:0:0:0:
256,192,53795,1,0,0:0:0:0:
256,192,54635,1,8,0:0:0:0:
256,192,55474,1,0,0:0:0:0:
256,192,56313,1,0,0:0:0:0:
256,192,57152,1,8,0:0:0:0:
256,192,57991,1,8,0:0:0:0:
256,192,58411,1,0,0:0:0:0:
256,192,59250,1,8,0:0:0:0:
256,192,60089,1,0,0:0:0:0:
256,192,60509,1,8,0:0:0:0:
256,192,61348,1,8,0:0:0:0:
256,192,61977,1,8,0:0:0:0:
256,192,62397,1,0,0:0:0:0:
256,192,63026,1,0,0:0:0:0:
256,192,63446,1,8,0:0:0:0:
256,192,63865,1,0,0:0:0:0:
256,192,64495,1,8,0:0:0:0:
256,192,65334,1,8,0:0:0:0:
256,192,65963,1,8,0:0:0:0:
256,192,66383,1,0,0:0:0:0:
256,192,67012,1,8,0:0:0:0:
256,192,68061,1,0,0:0:0:0:
256,192,68900,1,8,0:0:0:0:
256,192,69740,1,8,0:0:0:0:
256,192,70369,1,8,0:0:0:0:
256,192,70998,1,8,0:0:0:0:
256,192,71418,1,0,0:0:0:0:
256,192,72047,1,0,0:0:0:0:
256,192,72886,1,8,0:0:0:0:
256,192,73726,1,8,0:0:0:0:
256,192,74355,1,0,0:0:0:0:
256,192,75194,1,0,0:0:0:0:
256,192,75823,1,0,0:0:0:0:
256,192,76453,1,0,0:0:0:0:
256,192,77292,1,8,0:0:0:0:
256,192,77711,1,0,0:0:0:0:
256,192,78551,1,8,0:0:0:0:
256,192,78970,1,0,0:0:0:0:
256,192,79600,1,0,0:0:0:0:
256,192,80229,1,0,0:0:0:0:
256,192,80648,1,8,0:0:0:0:
256,192,81907,1,8,0:0:0:0:
256,192,82327,1,0,0:0:0:0:
256,192,82956,1,0,0:0:0:0:
256,192,83585,1,0,0:0:0:0:
256,192,83900,1,8,0:0:0:0:
