osu file format v14

[General]
AudioFilename: audio.mp3
AudioLeadIn: 0
PreviewTime: 48960
Countdown: 0
SampleSet: Soft
StackLeniency: 0.7
Mode: 3
LetterboxInBreaks: 0
SpecialStyle: 0
WidescreenStoryboard: 0

[Editor]
DistanceSpacing: 0.9
BeatDivisor: 4
GridSize: 16
TimelineZoom: 4.299999

[Metadata]
Title:The Asterisk War
TitleUnicode:The Asterisk War
Artist:Shiena Nishizawa
ArtistUnicode:西沢幸奏
Creator:leqek
Version:4K HD
Source:学戦都市アスタリスク
Tags:Gakusen toshi asterisk
BeatmapID:1225435
BeatmapSetID:578812

[Difficulty]
HPDrainRate:7.4
CircleSize:4
OverallDifficulty:6.9
ApproachRate:5
SliderMultiplier:1.4
SliderTickRate:1

[Events]
//Background and Video events
0,0,"BG.jpg",0,0
//Break Periods
//Storyboard Layer 0 (Background)
//Storyboard Layer 1 (Fail)
//Storyboard Layer 2 (Pass)
//Storyboard Layer 3 (Foreground)
//Storyboard Sound Samples

[TimingPoints]
1705,419.58041958042,4,2,0,22,1,0
50376,-100,4,2,0,22,0,1
77229,-100,4,2,0,22,0,0

[HitObjects]
64,192,865,128,0,1285:0:0:0:0:
448,192,1285,1,0,0:0:0:0:
320,192,1355,1,0,0:0:0:0:
192,192,1425,1,0,0:0:0:0:
64,192,1495,1,0,0:0:0:0:
448,192,1565,1,0,0:0:0:0:
320,192,1635,1,0,0:0:0:0:
64,192,1705,1,0,0:0:0:0:
192,192,1705,1,0,0:0:0:0:
320,192,2019,1,0,0:0:0:0:
320,192,2334,1,0,0:0:0:0:
64,192,2544,1,0,0:0:0:0:
320,192,2649,1,0,0:0:0:0:
192,192,2858,1,0,0:0:0:0:
448,192,2963,1,0,0:0:0:0:
320,192,3173,1,0,0:0:0:0:
192,192,3383,1,0,0:0:0:0:
448,192,3698,1,0,0:0:0:0:
448,192,4012,1,0,0:0:0:0:
64,192,4222,1,0,0:0:0:0:
448,192,4327,1,0,0:0:0:0:
320,192,4537,1,0,0:0:0:0:
64,192,4642,1,0,0:0:0:0:
192,192,4851,1,0,0:0:0:0:
320,192,5061,1,0,0:0:0:0:
64,192,5376,1,0,0:0:0:0:
64,192,5691,1,0,0:0:0:0:
320,192,5900,1,0,0:0:0:0:
64,192,6005,1,0,0:0:0:0:
192,192,6215,1,0,0:0:0:0:
448,192,6320,1,0,0:0:0:0:
320,192,6530,1,0,0:0:0:0:
64,192,6739,128,0,7579:0:0:0:0:
192,192,6739,1,0,0:0:0:0:
320,192,7054,1,0,0:0:0:0:
320,192,7369,1,0,0:0:0:0:
448,192,7579,1,0,0:0:0:0:
192,192,7998,1,0,0:0:0:0:
64,192,8418,1,0,0:0:0:0:
448,192,8418,1,0,0:0:0:0:
320,192,8523,1,0,0:0:0:0:
192,192,8523,1,0,0:0:0:0:
64,192,8628,1,0,0:0:0:0:
192,192,8732,1,0,0:0:0:0:
320,192,8837,1,0,0:0:0:0:
448,192,8837,1,0,0:0:0:0:
64,192,8942,1,0,0:0:0:0:
192,192,9047,1,0,0:0:0:0:
448,192,9152,1,0,0:0:0:0:
64,192,9257,1,0,0:0:0:0:
192,192,9362,1,0,0:0:0:0:
320,192,9362,1,0,0:0:0:0:
448,192,9467,1,0,0:0:0:0:
192,192,9572,1,0,0:0:0:0:
320,192,9677,1,0,0:0:0:0:
448,192,9677,1,0,0:0:0:0:
192,192,9781,1,0,0:0:0:0:
64,192,9886,1,0,0:0:0:0:
448,192,9991,1,0,0:0:0:0:
320,192,10096,1,0,0:0:0:0:
192,192,10096,1,0,0:0:0:0:
64,192,10201,1,0,0:0:0:0:
448,192,10201,1,0,0:0:0:0:
320,192,10306,1,0,0:0:0:0:
192,192,10411,1,0,0:0:0:0:
320,192,10516,1,0,0:0:0:0:
448,192,10516,1,0,0:0:0:0:
64,192,10621,1,0,0:0:0:0:
192,192,10725,1,0,0:0:0:0:
320,192,10830,1,0,0:0:0:0:
64,192,10935,1,0,0:0:0:0:
192,192,11040,1,0,0:0:0:0:
448,192,11040,1,0,0:0:0:0:
320,192,11145,1,0,0:0:0:0:
192,192,11250,1,0,0:0:0:0:
64,192,11355,1,0,0:0:0:0:
448,192,11355,1,0,0:0:0:0:
320,192,11460,1,0,0:0:0:0:
192,192,11565,1,0,0:0:0:0:
64,192,11670,1,0,0:0:0:0:
448,192,11774,1,0,0:0:0:0:
320,192,11774,1,0,0:0:0:0:
192,192,11879,1,0,0:0:0:0:
64,192,11879,1,0,0:0:0:0:
320,192,11984,1,0,0:0:0:0:
448,192,12089,1,0,0:0:0:0:
192,192,12194,1,0,0:0:0:0:
64,192,12194,1,0,0:0:0:0:
320,192,12299,1,0,0:0:0:0:
64,192,12404,1,0,0:0:0:0:
448,192,12509,1,0,0:0:0:0:
192,192,12614,1,0,0:0:0:0:
320,192,12718,1,0,0:0:0:0:
448,192,12718,1,0,0:0:0:0:
192,192,12823,1,0,0:0:0:0:
64,192,12928,1,0,0:0:0:0:
448,192,13033,1,0,0:0:0:0:
320,192,13033,1,0,0:0:0:0:
192,192,13138,1,0,0:0:0:0:
448,192,13243,1,0,0:0:0:0:
320,192,13348,1,0,0:0:0:0:
64,192,13453,1,0,0:0:0:0:
192,192,13453,1,0,0:0:0:0:
320,192,13558,1,0,0:0:0:0:
448,192,13558,1,0,0:0:0:0:
64,192,13663,1,0,0:0:0:0:
192,192,13767,1,0,0:0:0:0:
320,192,13872,1,0,0:0:0:0:
448,192,13872,1,0,0:0:0:0:
64,192,13977,1,0,0:0:0:0:
192,192,14082,1,0,0:0:0:0:
448,192,14187,1,0,0:0:0:0:
320,192,14292,1,0,0:0:0:0:
192,192,14397,1,0,0:0:0:0:
448,192,14397,1,0,0:0:0:0:
64,192,14502,1,0,0:0:0:0:
320,192,14607,1,0,0:0:0:0:
192,192,14711,1,0,0:0:0:0:
64,192,14711,1,0,0:0:0:0:
320,192,14816,1,0,0:0:0:0:
448,192,14816,1,0,0:0:0:0:
192,192,14921,1,0,0:0:0:0:
64,192,14921,1,0,0:0:0:0:
320,192,15026,1,0,0:0:0:0:
448,192,15026,1,0,0:0:0:0:
192,192,15131,1,0,0:0:0:0:
64,192,15131,1,0,0:0:0:0:
320,192,15236,1,0,0:0:0:0:
448,192,15236,1,0,0:0:0:0:
192,192,15341,1,0,0:0:0:0:
448,192,15446,1,0,0:0:0:0:
320,192,15551,1,0,0:0:0:0:
64,192,15551,1,0,0:0:0:0:
192,192,15656,1,0,0:0:0:0:
320,192,15760,1,0,0:0:0:0:
448,192,15865,1,0,0:0:0:0:
64,192,15865,1,0,0:0:0:0:
192,192,15970,1,0,0:0:0:0:
320,192,16075,1,0,0:0:0:0:
448,192,16180,1,0,0:0:0:0:
64,192,16285,1,0,0:0:0:0:
320,192,16390,1,0,0:0:0:0:
192,192,16390,1,0,0:0:0:0:
448,192,16495,1,0,0:0:0:0:
320,192,16600,1,0,0:0:0:0:
192,192,16705,1,0,0:0:0:0:
448,192,16809,1,0,0:0:0:0:
320,192,16809,1,0,0:0:0:0:
64,192,16914,1,0,0:0:0:0:
192,192,16914,1,0,0:0:0:0:
448,192,17019,1,0,0:0:0:0:
320,192,17124,1,0,0:0:0:0:
192,192,17229,1,0,0:0:0:0:
448,192,17229,1,0,0:0:0:0:
64,192,17334,1,0,0:0:0:0:
320,192,17439,1,0,0:0:0:0:
192,192,17544,1,0,0:0:0:0:
64,192,17649,1,0,0:0:0:0:
320,192,17753,1,0,0:0:0:0:
448,192,17753,1,0,0:0:0:0:
64,192,17858,1,0,0:0:0:0:
192,192,17963,1,0,0:0:0:0:
320,192,18068,1,0,0:0:0:0:
64,192,18068,1,0,0:0:0:0:
448,192,18173,1,0,0:0:0:0:
192,192,18278,1,0,0:0:0:0:
320,192,18383,1,0,0:0:0:0:
64,192,18488,1,0,0:0:0:0:
192,192,18488,1,0,0:0:0:0:
448,192,18593,1,0,0:0:0:0:
320,192,18698,1,0,0:0:0:0:
64,192,18802,1,0,0:0:0:0:
192,192,18907,1,0,0:0:0:0:
448,192,18907,1,0,0:0:0:0:
320,192,19012,1,0,0:0:0:0:
192,192,19117,1,0,0:0:0:0:
64,192,19222,1,0,0:0:0:0:
448,192,19222,1,0,0:0:0:0:
320,192,19327,1,0,0:0:0:0:
192,192,19432,1,0,0:0:0:0:
64,192,19432,1,0,0:0:0:0:
448,192,19537,1,0,0:0:0:0:
192,192,19642,1,0,0:0:0:0:
64,192,19746,1,0,0:0:0:0:
320,192,19746,1,0,0:0:0:0:
448,192,19851,1,0,0:0:0:0:
192,192,19956,1,0,0:0:0:0:
320,192,19956,1,0,0:0:0:0:
64,192,20061,1,0,0:0:0:0:
320,192,20166,1,0,0:0:0:0:
448,192,20166,1,0,0:0:0:0:
192,192,20271,1,0,0:0:0:0:
64,192,20271,1,0,0:0:0:0:
448,192,20376,1,0,0:0:0:0:
192,192,20481,1,0,0:0:0:0:
320,192,20586,1,0,0:0:0:0:
448,192,20586,1,0,0:0:0:0:
192,192,20691,1,0,0:0:0:0:
64,192,20795,1,0,0:0:0:0:
448,192,20795,1,0,0:0:0:0:
320,192,20900,1,0,0:0:0:0:
192,192,20900,1,0,0:0:0:0:
64,192,21005,1,0,0:0:0:0:
448,192,21110,1,0,0:0:0:0:
320,192,21215,1,0,0:0:0:0:
192,192,21320,1,0,0:0:0:0:
64,192,21425,1,0,0:0:0:0:
448,192,21530,1,0,0:0:0:0:
192,192,21635,1,0,0:0:0:0:
320,192,21739,1,0,0:0:0:0:
448,192,21844,1,0,0:0:0:0:
192,192,21844,1,0,0:0:0:0:
64,192,21844,1,0,0:0:0:0:
448,192,22054,1,0,0:0:0:0:
320,192,22159,1,0,0:0:0:0:
192,192,22264,1,0,0:0:0:0:
64,192,22264,1,0,0:0:0:0:
448,192,22474,1,0,0:0:0:0:
320,192,22474,1,0,0:0:0:0:
64,192,22579,1,0,0:0:0:0:
192,192,22788,1,0,0:0:0:0:
448,192,22788,1,0,0:0:0:0:
64,192,22893,1,0,0:0:0:0:
320,192,22893,1,0,0:0:0:0:
192,192,23103,1,0,0:0:0:0:
448,192,23103,1,0,0:0:0:0:
320,192,23313,1,0,0:0:0:0:
192,192,23523,1,0,0:0:0:0:
64,192,23523,1,0,0:0:0:0:
64,192,23732,1,0,0:0:0:0:
192,192,23837,1,0,0:0:0:0:
448,192,23942,1,0,0:0:0:0:
320,192,23942,1,0,0:0:0:0:
64,192,24152,1,0,0:0:0:0:
192,192,24152,1,0,0:0:0:0:
448,192,24257,1,0,0:0:0:0:
192,192,24467,1,0,0:0:0:0:
320,192,24572,1,0,0:0:0:0:
448,192,24572,1,0,0:0:0:0:
64,192,24781,1,0,0:0:0:0:
448,192,24781,1,0,0:0:0:0:
192,192,24991,1,0,0:0:0:0:
320,192,25201,1,0,0:0:0:0:
448,192,25201,1,0,0:0:0:0:
192,192,25411,1,0,0:0:0:0:
320,192,25516,1,0,0:0:0:0:
448,192,25621,1,0,0:0:0:0:
64,192,25621,1,0,0:0:0:0:
192,192,25830,1,0,0:0:0:0:
320,192,25830,1,0,0:0:0:0:
448,192,25935,1,0,0:0:0:0:
64,192,26040,1,0,0:0:0:0:
320,192,26145,1,0,0:0:0:0:
448,192,26145,1,0,0:0:0:0:
192,192,26250,1,0,0:0:0:0:
64,192,26355,1,0,0:0:0:0:
448,192,26460,1,0,0:0:0:0:
320,192,26460,1,0,0:0:0:0:
192,192,26670,1,0,0:0:0:0:
64,192,26879,1,0,0:0:0:0:
320,192,26879,1,0,0:0:0:0:
192,192,27089,1,0,0:0:0:0:
320,192,27194,1,0,0:0:0:0:
192,192,27299,1,0,0:0:0:0:
448,192,27299,1,0,0:0:0:0:
320,192,27509,1,0,0:0:0:0:
192,192,27614,1,0,0:0:0:0:
64,192,27614,1,0,0:0:0:0:
448,192,27718,128,0,28348:0:0:0:0:
320,192,27718,1,0,0:0:0:0:
64,192,27823,1,0,0:0:0:0:
192,192,27928,1,0,0:0:0:0:
320,192,28033,1,0,0:0:0:0:
192,192,28138,1,0,0:0:0:0:
64,192,28138,1,0,0:0:0:0:
320,192,28348,1,0,0:0:0:0:
192,192,28453,1,0,0:0:0:0:
448,192,28558,1,0,0:0:0:0:
64,192,28558,1,0,0:0:0:0:
320,192,28558,1,0,0:0:0:0:
192,192,28663,1,0,0:0:0:0:
320,192,28767,1,0,0:0:0:0:
448,192,28872,1,0,0:0:0:0:
64,192,28977,1,0,0:0:0:0:
192,192,28977,1,0,0:0:0:0:
192,192,29187,1,0,0:0:0:0:
320,192,29292,1,0,0:0:0:0:
448,192,29292,1,0,0:0:0:0:
192,192,29397,1,0,0:0:0:0:
64,192,29502,1,0,0:0:0:0:
448,192,29502,1,0,0:0:0:0:
320,192,29607,1,0,0:0:0:0:
192,192,29711,1,0,0:0:0:0:
64,192,29816,1,0,0:0:0:0:
320,192,29816,1,0,0:0:0:0:
192,192,30026,1,0,0:0:0:0:
64,192,30236,1,0,0:0:0:0:
448,192,30236,1,0,0:0:0:0:
320,192,30446,1,0,0:0:0:0:
192,192,30551,1,0,0:0:0:0:
320,192,30656,1,0,0:0:0:0:
64,192,30656,1,0,0:0:0:0:
192,192,30865,1,0,0:0:0:0:
64,192,30970,1,0,0:0:0:0:
448,192,30970,1,0,0:0:0:0:
320,192,31075,1,0,0:0:0:0:
64,192,31180,1,0,0:0:0:0:
192,192,31180,1,0,0:0:0:0:
448,192,31285,1,0,0:0:0:0:
192,192,31495,1,0,0:0:0:0:
64,192,31495,128,0,31914:0:0:0:0:
448,192,31600,1,0,0:0:0:0:
320,192,31705,1,0,0:0:0:0:
192,192,31809,1,0,0:0:0:0:
448,192,31914,1,0,0:0:0:0:
320,192,31914,1,0,0:0:0:0:
192,192,32019,1,0,0:0:0:0:
64,192,32124,1,0,0:0:0:0:
448,192,32229,1,0,0:0:0:0:
320,192,32334,1,0,0:0:0:0:
64,192,32334,1,0,0:0:0:0:
192,192,32544,1,0,0:0:0:0:
64,192,32544,1,0,0:0:0:0:
448,192,32649,1,0,0:0:0:0:
320,192,32649,1,0,0:0:0:0:
448,192,32858,1,0,0:0:0:0:
192,192,32858,1,0,0:0:0:0:
64,192,32963,1,0,0:0:0:0:
320,192,33068,1,0,0:0:0:0:
64,192,33173,1,0,0:0:0:0:
192,192,33173,1,0,0:0:0:0:
192,192,33383,1,0,0:0:0:0:
320,192,33488,1,0,0:0:0:0:
448,192,33488,1,0,0:0:0:0:
192,192,33593,128,0,34432:0:0:0:0:
64,192,33593,1,0,0:0:0:0:
320,192,33907,1,0,0:0:0:0:
448,192,34012,1,0,0:0:0:0:
64,192,34012,1,0,0:0:0:0:
320,192,34222,1,0,0:0:0:0:
448,192,34222,1,0,0:0:0:0:
64,192,34327,1,0,0:0:0:0:
320,192,34432,128,0,35271:0:0:0:0:
448,192,34432,1,0,0:0:0:0:
192,192,34537,1,0,0:0:0:0:
64,192,34642,1,0,0:0:0:0:
448,192,34746,1,0,0:0:0:0:
192,192,34851,1,0,0:0:0:0:
448,192,34956,1,0,0:0:0:0:
64,192,35061,1,0,0:0:0:0:
192,192,35166,1,0,0:0:0:0:
64,192,35271,1,0,0:0:0:0:
448,192,35271,1,0,0:0:0:0:
320,192,35586,1,0,0:0:0:0:
192,192,35900,1,0,0:0:0:0:
64,192,36215,1,0,0:0:0:0:
320,192,36530,1,0,0:0:0:0:
192,192,36739,1,0,0:0:0:0:
448,192,36949,1,0,0:0:0:0:
64,192,37264,1,0,0:0:0:0:
192,192,37579,1,0,0:0:0:0:
320,192,37893,1,0,0:0:0:0:
448,192,38208,1,0,0:0:0:0:
192,192,38418,1,0,0:0:0:0:
320,192,38628,1,0,0:0:0:0:
192,192,38942,1,0,0:0:0:0:
64,192,39257,1,0,0:0:0:0:
448,192,39572,1,0,0:0:0:0:
192,192,39886,1,0,0:0:0:0:
64,192,40096,1,0,0:0:0:0:
320,192,40306,1,0,0:0:0:0:
192,192,40621,1,0,0:0:0:0:
320,192,40935,1,0,0:0:0:0:
448,192,41250,1,0,0:0:0:0:
64,192,41565,1,0,0:0:0:0:
192,192,41774,1,0,0:0:0:0:
320,192,41984,1,0,0:0:0:0:
448,192,41984,128,0,43663:0:0:0:0:
192,192,42194,1,0,0:0:0:0:
64,192,42614,1,0,0:0:0:0:
320,192,43033,1,0,0:0:0:0:
192,192,43453,1,0,0:0:0:0:
64,192,43663,128,0,45341:0:0:0:0:
320,192,43872,1,0,0:0:0:0:
448,192,44292,1,0,0:0:0:0:
192,192,44711,1,0,0:0:0:0:
320,192,45131,1,0,0:0:0:0:
192,192,45341,128,0,47019:0:0:0:0:
448,192,45551,1,0,0:0:0:0:
64,192,45970,1,0,0:0:0:0:
320,192,46390,1,0,0:0:0:0:
448,192,46809,1,0,0:0:0:0:
320,192,47019,128,0,48698:0:0:0:0:
64,192,47229,1,0,0:0:0:0:
192,192,47649,1,0,0:0:0:0:
448,192,47858,1,0,0:0:0:0:
64,192,48068,1,0,0:0:0:0:
448,192,48278,1,0,0:0:0:0:
192,192,48488,1,0,0:0:0:0:
448,192,48698,1,0,0:0:0:0:
64,192,48698,1,0,0:0:0:0:
64,192,49537,1,0,0:0:0:0:
192,192,49589,1,0,0:0:0:0:
320,192,49642,1,0,0:0:0:0:
448,192,49694,1,0,0:0:0:0:
64,192,49746,1,0,0:0:0:0:
192,192,49799,1,0,0:0:0:0:
320,192,49851,1,0,0:0:0:0:
448,192,49904,1,0,0:0:0:0:
192,192,49956,1,0,0:0:0:0:
64,192,50009,1,0,0:0:0:0:
448,192,50061,1,0,0:0:0:0:
320,192,50114,1,0,0:0:0:0:
192,192,50166,1,0,0:0:0:0:
64,192,50218,1,0,0:0:0:0:
448,192,50271,1,0,0:0:0:0:
320,192,50323,1,0,0:0:0:0:
192,192,50376,1,0,0:0:0:0:
64,192,50376,128,0,52054:0:0:0:0:
448,192,50481,1,0,0:0:0:0:
320,192,50481,1,0,0:0:0:0:
192,192,50586,1,0,0:0:0:0:
448,192,50691,1,0,0:0:0:0:
192,192,50795,1,0,0:0:0:0:
320,192,50795,1,0,0:0:0:0:
448,192,51005,1,0,0:0:0:0:
320,192,51110,1,0,0:0:0:0:
448,192,51215,1,0,0:0:0:0:
192,192,51320,1,0,0:0:0:0:
320,192,51425,1,0,0:0:0:0:
192,192,51530,1,0,0:0:0:0:
320,192,51635,1,0,0:0:0:0:
448,192,51635,1,0,0:0:0:0:
448,192,51844,1,0,0:0:0:0:
320,192,52054,128,0,53732:0:0:0:0:
192,192,52054,1,0,0:0:0:0:
448,192,52159,1,0,0:0:0:0:
64,192,52159,1,0,0:0:0:0:
192,192,52264,1,0,0:0:0:0:
64,192,52474,1,0,0:0:0:0:
448,192,52474,1,0,0:0:0:0:
192,192,52684,1,0,0:0:0:0:
64,192,52788,1,0,0:0:0:0:
448,192,52893,1,0,0:0:0:0:
192,192,52998,1,0,0:0:0:0:
64,192,52998,1,0,0:0:0:0:
448,192,53103,1,0,0:0:0:0:
64,192,53208,1,0,0:0:0:0:
448,192,53313,1,0,0:0:0:0:
192,192,53313,1,0,0:0:0:0:
64,192,53523,1,0,0:0:0:0:
192,192,53732,128,0,55411:0:0:0:0:
448,192,53732,1,0,0:0:0:0:
320,192,53837,1,0,0:0:0:0:
64,192,53837,1,0,0:0:0:0:
64,192,54047,1,0,0:0:0:0:
320,192,54152,1,0,0:0:0:0:
448,192,54152,1,0,0:0:0:0:
320,192,54362,1,0,0:0:0:0:
64,192,54467,1,0,0:0:0:0:
448,192,54572,1,0,0:0:0:0:
64,192,54677,1,0,0:0:0:0:
320,192,54677,1,0,0:0:0:0:
448,192,54781,1,0,0:0:0:0:
64,192,54886,1,0,0:0:0:0:
320,192,54991,1,0,0:0:0:0:
448,192,54991,1,0,0:0:0:0:
448,192,55201,1,0,0:0:0:0:
320,192,55306,1,0,0:0:0:0:
64,192,55411,128,0,56670:0:0:0:0:
448,192,55411,1,0,0:0:0:0:
320,192,55516,1,0,0:0:0:0:
192,192,55516,1,0,0:0:0:0:
192,192,55725,1,0,0:0:0:0:
320,192,55830,1,0,0:0:0:0:
448,192,55830,1,0,0:0:0:0:
192,192,56040,1,0,0:0:0:0:
320,192,56145,1,0,0:0:0:0:
448,192,56250,1,0,0:0:0:0:
320,192,56355,1,0,0:0:0:0:
192,192,56355,1,0,0:0:0:0:
448,192,56460,1,0,0:0:0:0:
192,192,56565,1,0,0:0:0:0:
448,192,56670,1,0,0:0:0:0:
320,192,56670,1,0,0:0:0:0:
192,192,56774,1,0,0:0:0:0:
64,192,56774,1,0,0:0:0:0:
320,192,56879,1,0,0:0:0:0:
448,192,56879,1,0,0:0:0:0:
192,192,56984,1,0,0:0:0:0:
64,192,56984,1,0,0:0:0:0:
320,192,57089,128,0,58767:0:0:0:0:
448,192,57089,1,0,0:0:0:0:
192,192,57194,1,0,0:0:0:0:
64,192,57194,1,0,0:0:0:0:
64,192,57404,1,0,0:0:0:0:
192,192,57509,1,0,0:0:0:0:
448,192,57509,1,0,0:0:0:0:
448,192,57718,1,0,0:0:0:0:
64,192,57823,1,0,0:0:0:0:
192,192,57823,1,0,0:0:0:0:
448,192,57928,1,0,0:0:0:0:
192,192,58033,1,0,0:0:0:0:
64,192,58138,1,0,0:0:0:0:
192,192,58243,1,0,0:0:0:0:
64,192,58348,1,0,0:0:0:0:
448,192,58348,1,0,0:0:0:0:
192,192,58558,1,0,0:0:0:0:
192,192,58767,128,0,60341:0:0:0:0:
64,192,58767,1,0,0:0:0:0:
320,192,58872,1,0,0:0:0:0:
448,192,58872,1,0,0:0:0:0:
320,192,59082,1,0,0:0:0:0:
448,192,59187,1,0,0:0:0:0:
64,192,59187,1,0,0:0:0:0:
320,192,59397,1,0,0:0:0:0:
64,192,59502,1,0,0:0:0:0:
448,192,59607,1,0,0:0:0:0:
320,192,59711,1,0,0:0:0:0:
64,192,59711,1,0,0:0:0:0:
448,192,59816,1,0,0:0:0:0:
64,192,59921,1,0,0:0:0:0:
448,192,60026,1,0,0:0:0:0:
320,192,60026,1,0,0:0:0:0:
448,192,60236,1,0,0:0:0:0:
320,192,60341,1,0,0:0:0:0:
64,192,60341,1,0,0:0:0:0:
448,192,60446,128,0,62124:0:0:0:0:
192,192,60446,1,0,0:0:0:0:
64,192,60656,1,0,0:0:0:0:
192,192,60760,1,0,0:0:0:0:
64,192,60865,1,0,0:0:0:0:
320,192,60865,1,0,0:0:0:0:
320,192,61075,1,0,0:0:0:0:
192,192,61180,1,0,0:0:0:0:
64,192,61180,1,0,0:0:0:0:
320,192,61285,1,0,0:0:0:0:
64,192,61390,1,0,0:0:0:0:
192,192,61390,1,0,0:0:0:0:
320,192,61495,1,0,0:0:0:0:
64,192,61600,1,0,0:0:0:0:
192,192,61705,1,0,0:0:0:0:
320,192,61705,1,0,0:0:0:0:
64,192,61914,1,0,0:0:0:0:
192,192,61914,1,0,0:0:0:0:
64,192,62124,128,0,62753:0:0:0:0:
320,192,62124,1,0,0:0:0:0:
192,192,62334,1,0,0:0:0:0:
320,192,62439,1,0,0:0:0:0:
448,192,62544,1,0,0:0:0:0:
192,192,62544,1,0,0:0:0:0:
448,192,62753,1,0,0:0:0:0:
320,192,62753,1,0,0:0:0:0:
192,192,62858,1,0,0:0:0:0:
64,192,62858,1,0,0:0:0:0:
448,192,62963,1,0,0:0:0:0:
320,192,62963,128,0,63173:0:0:0:0:
64,192,63068,1,0,0:0:0:0:
192,192,63173,128,0,63383:0:0:0:0:
320,192,63278,1,0,0:0:0:0:
448,192,63383,128,0,63593:0:0:0:0:
192,192,63488,1,0,0:0:0:0:
64,192,63593,128,0,63802:0:0:0:0:
320,192,63698,1,0,0:0:0:0:
192,192,63802,1,0,0:0:0:0:
448,192,63802,1,0,0:0:0:0:
64,192,63907,1,0,0:0:0:0:
320,192,63907,1,0,0:0:0:0:
192,192,64117,1,0,0:0:0:0:
64,192,64117,1,0,0:0:0:0:
448,192,64222,1,0,0:0:0:0:
320,192,64222,1,0,0:0:0:0:
64,192,64432,1,0,0:0:0:0:
320,192,64432,1,0,0:0:0:0:
192,192,64537,1,0,0:0:0:0:
448,192,64537,1,0,0:0:0:0:
320,192,64746,1,0,0:0:0:0:
448,192,64746,1,0,0:0:0:0:
192,192,64851,1,0,0:0:0:0:
64,192,64851,1,0,0:0:0:0:
320,192,64956,1,0,0:0:0:0:
448,192,64956,1,0,0:0:0:0:
192,192,65061,1,0,0:0:0:0:
64,192,65061,1,0,0:0:0:0:
320,192,65271,1,0,0:0:0:0:
64,192,65481,1,0,0:0:0:0:
448,192,65481,1,0,0:0:0:0:
320,192,65586,1,0,0:0:0:0:
192,192,65586,1,0,0:0:0:0:
192,192,65795,1,0,0:0:0:0:
64,192,65795,1,0,0:0:0:0:
320,192,65900,1,0,0:0:0:0:
448,192,65900,1,0,0:0:0:0:
192,192,66110,1,0,0:0:0:0:
448,192,66110,1,0,0:0:0:0:
320,192,66215,1,0,0:0:0:0:
64,192,66215,1,0,0:0:0:0:
448,192,66425,128,0,66949:0:0:0:0:
320,192,66425,1,0,0:0:0:0:
64,192,66530,1,0,0:0:0:0:
192,192,66635,1,0,0:0:0:0:
320,192,66739,1,0,0:0:0:0:
64,192,66739,1,0,0:0:0:0:
192,192,66949,1,0,0:0:0:0:
64,192,66949,1,0,0:0:0:0:
320,192,67054,1,0,0:0:0:0:
448,192,67054,1,0,0:0:0:0:
64,192,67159,1,0,0:0:0:0:
192,192,67159,128,0,67369:0:0:0:0:
448,192,67264,1,0,0:0:0:0:
320,192,67369,1,0,0:0:0:0:
192,192,67474,1,0,0:0:0:0:
64,192,67474,1,0,0:0:0:0:
320,192,67579,1,0,0:0:0:0:
448,192,67579,1,0,0:0:0:0:
192,192,67788,1,0,0:0:0:0:
320,192,67788,1,0,0:0:0:0:
64,192,67893,1,0,0:0:0:0:
448,192,67893,1,0,0:0:0:0:
320,192,68103,1,0,0:0:0:0:
448,192,68103,1,0,0:0:0:0:
192,192,68208,1,0,0:0:0:0:
64,192,68208,1,0,0:0:0:0:
448,192,68418,1,0,0:0:0:0:
64,192,68418,1,0,0:0:0:0:
192,192,68628,1,0,0:0:0:0:
320,192,68732,1,0,0:0:0:0:
64,192,68732,1,0,0:0:0:0:
192,192,68837,1,0,0:0:0:0:
448,192,68837,128,0,69467:0:0:0:0:
320,192,69047,1,0,0:0:0:0:
192,192,69152,1,0,0:0:0:0:
64,192,69257,1,0,0:0:0:0:
320,192,69257,1,0,0:0:0:0:
192,192,69467,1,0,0:0:0:0:
320,192,69572,1,0,0:0:0:0:
448,192,69572,1,0,0:0:0:0:
64,192,69677,128,0,70096:0:0:0:0:
192,192,69677,1,0,0:0:0:0:
320,192,69781,1,0,0:0:0:0:
448,192,69781,1,0,0:0:0:0:
448,192,69991,1,0,0:0:0:0:
320,192,70096,1,0,0:0:0:0:
192,192,70096,1,0,0:0:0:0:
448,192,70201,1,0,0:0:0:0:
64,192,70201,1,0,0:0:0:0:
192,192,70306,1,0,0:0:0:0:
320,192,70306,1,0,0:0:0:0:
448,192,70516,1,0,0:0:0:0:
64,192,70516,1,0,0:0:0:0:
192,192,70516,1,0,0:0:0:0:
320,192,70725,1,0,0:0:0:0:
192,192,70830,1,0,0:0:0:0:
64,192,70830,1,0,0:0:0:0:
320,192,70935,1,0,0:0:0:0:
448,192,70935,1,0,0:0:0:0:
64,192,71145,1,0,0:0:0:0:
320,192,71145,1,0,0:0:0:0:
192,192,71250,1,0,0:0:0:0:
448,192,71250,1,0,0:0:0:0:
64,192,71355,1,0,0:0:0:0:
320,192,71460,1,0,0:0:0:0:
448,192,71460,1,0,0:0:0:0:
192,192,71565,1,0,0:0:0:0:
64,192,71565,1,0,0:0:0:0:
320,192,71670,1,0,0:0:0:0:
448,192,71670,1,0,0:0:0:0:
192,192,71774,1,0,0:0:0:0:
64,192,71774,1,0,0:0:0:0:
448,192,71984,1,0,0:0:0:0:
320,192,72194,1,0,0:0:0:0:
64,192,72194,1,0,0:0:0:0:
448,192,72299,1,0,0:0:0:0:
192,192,72299,128,0,72614:0:0:0:0:
64,192,72509,1,0,0:0:0:0:
320,192,72614,1,0,0:0:0:0:
448,192,72614,1,0,0:0:0:0:
192,192,72823,1,0,0:0:0:0:
320,192,72823,1,0,0:0:0:0:
64,192,72928,1,0,0:0:0:0:
448,192,72928,128,0,73453:0:0:0:0:
320,192,73033,1,0,0:0:0:0:
64,192,73138,1,0,0:0:0:0:
192,192,73138,1,0,0:0:0:0:
320,192,73243,1,0,0:0:0:0:
64,192,73348,1,0,0:0:0:0:
320,192,73453,1,0,0:0:0:0:
192,192,73453,1,0,0:0:0:0:
64,192,73558,1,0,0:0:0:0:
448,192,73558,1,0,0:0:0:0:
192,192,73767,1,0,0:0:0:0:
64,192,73767,1,0,0:0:0:0:
320,192,73872,128,0,74082:0:0:0:0:
448,192,73872,128,0,74082:0:0:0:0:
64,192,74082,1,0,0:0:0:0:
192,192,74292,1,0,0:0:0:0:
448,192,74292,1,0,0:0:0:0:
64,192,74397,1,0,0:0:0:0:
320,192,74397,1,0,0:0:0:0:
448,192,74607,1,0,0:0:0:0:
64,192,74607,1,0,0:0:0:0:
448,192,74816,1,0,0:0:0:0:
320,192,74816,1,0,0:0:0:0:
192,192,75026,1,0,0:0:0:0:
64,192,75026,1,0,0:0:0:0:
448,192,75131,1,0,0:0:0:0:
320,192,75131,128,0,75341:0:0:0:0:
192,192,75236,1,0,0:0:0:0:
64,192,75341,128,0,75551:0:0:0:0:
192,192,75446,1,0,0:0:0:0:
320,192,75551,1,0,0:0:0:0:
448,192,75551,1,0,0:0:0:0:
192,192,75656,1,0,0:0:0:0:
64,192,75760,1,0,0:0:0:0:
448,192,75760,128,0,75970:0:0:0:0:
192,192,75970,1,0,0:0:0:0:
320,192,75970,1,0,0:0:0:0:
448,192,76075,1,0,0:0:0:0:
64,192,76075,128,0,76390:0:0:0:0:
320,192,76285,1,0,0:0:0:0:
448,192,76285,1,0,0:0:0:0:
192,192,76390,1,0,0:0:0:0:
64,192,76495,1,0,0:0:0:0:
448,192,76495,1,0,0:0:0:0:
192,192,76600,1,0,0:0:0:0:
320,192,76600,1,0,0:0:0:0:
64,192,76705,1,0,0:0:0:0:
448,192,76705,128,0,76914:0:0:0:0:
64,192,76914,1,0,0:0:0:0:
320,192,76914,1,0,0:0:0:0:
448,192,77019,1,0,0:0:0:0:
192,192,77019,128,0,77229:0:0:0:0:
64,192,77229,1,0,0:0:0:0:
320,192,77229,1,0,0:0:0:0:
448,192,77229,1,0,0:0:0:0:
192,192,77334,1,0,0:0:0:0:
64,192,77439,1,0,0:0:0:0:
320,192,77544,1,0,0:0:0:0:
448,192,77649,1,0,0:0:0:0:
192,192,77649,1,0,0:0:0:0:
320,192,77753,1,0,0:0:0:0:
192,192,77858,1,0,0:0:0:0:
448,192,77963,1,0,0:0:0:0:
64,192,77963,1,0,0:0:0:0:
192,192,78068,1,0,0:0:0:0:
320,192,78173,1,0,0:0:0:0:
64,192,78173,1,0,0:0:0:0:
448,192,78278,1,0,0:0:0:0:
192,192,78383,1,0,0:0:0:0:
448,192,78488,1,0,0:0:0:0:
64,192,78488,1,0,0:0:0:0:
320,192,78593,1,0,0:0:0:0:
192,192,78698,1,0,0:0:0:0:
448,192,78802,1,0,0:0:0:0:
320,192,78907,1,0,0:0:0:0:
64,192,78907,1,0,0:0:0:0:
192,192,79012,1,0,0:0:0:0:
448,192,79117,1,0,0:0:0:0:
192,192,79222,1,0,0:0:0:0:
448,192,79327,1,0,0:0:0:0:
320,192,79327,1,0,0:0:0:0:
64,192,79432,1,0,0:0:0:0:
448,192,79537,1,0,0:0:0:0:
192,192,79642,1,0,0:0:0:0:
320,192,79642,1,0,0:0:0:0:
448,192,79746,1,0,0:0:0:0:
64,192,79851,1,0,0:0:0:0:
192,192,79851,1,0,0:0:0:0:
320,192,79956,1,0,0:0:0:0:
192,192,80061,1,0,0:0:0:0:
64,192,80166,1,0,0:0:0:0:
448,192,80166,1,0,0:0:0:0:
320,192,80271,1,0,0:0:0:0:
192,192,80376,1,0,0:0:0:0:
320,192,80481,1,0,0:0:0:0:
192,192,80586,1,0,0:0:0:0:
64,192,80586,1,0,0:0:0:0:
448,192,80691,1,0,0:0:0:0:
320,192,80795,1,0,0:0:0:0:
192,192,80900,1,0,0:0:0:0:
448,192,81005,1,0,0:0:0:0:
64,192,81005,1,0,0:0:0:0:
192,192,81110,1,0,0:0:0:0:
320,192,81215,1,0,0:0:0:0:
192,192,81320,1,0,0:0:0:0:
64,192,81320,1,0,0:0:0:0:
320,192,81425,1,0,0:0:0:0:
64,192,81530,1,0,0:0:0:0:
448,192,81530,1,0,0:0:0:0:
320,192,81635,1,0,0:0:0:0:
192,192,81739,1,0,0:0:0:0:
320,192,81844,1,0,0:0:0:0:
448,192,81844,1,0,0:0:0:0:
64,192,81949,1,0,0:0:0:0:
192,192,82054,1,0,0:0:0:0:
320,192,82159,1,0,0:0:0:0:
64,192,82264,1,0,0:0:0:0:
448,192,82264,1,0,0:0:0:0:
192,192,82404,1,0,0:0:0:0:
320,192,82404,1,0,0:0:0:0:
64,192,82544,1,0,0:0:0:0:
320,192,82544,1,0,0:0:0:0:
448,192,82684,1,0,0:0:0:0:
192,192,82684,1,0,0:0:0:0:
320,192,82823,1,0,0:0:0:0:
448,192,82823,1,0,0:0:0:0:
64,192,82963,1,0,0:0:0:0:
192,192,82963,1,0,0:0:0:0:
320,192,83103,1,0,0:0:0:0:
448,192,83103,1,0,0:0:0:0:
64,192,83208,1,0,0:0:0:0:
192,192,83313,1,0,0:0:0:0:
320,192,83418,1,0,0:0:0:0:
448,192,83523,1,0,0:0:0:0:
192,192,83523,1,0,0:0:0:0:
320,192,83628,1,0,0:0:0:0:
64,192,83628,1,0,0:0:0:0:
192,192,83732,1,0,0:0:0:0:
448,192,83732,1,0,0:0:0:0:
64,192,83837,1,0,0:0:0:0:
320,192,83837,1,0,0:0:0:0:
