osu file format v14

[General]
AudioFilename: audio.mp3
AudioLeadIn: 0
PreviewTime: 49063
Countdown: 0
SampleSet: Soft
StackLeniency: 0.7
Mode: 3
LetterboxInBreaks: 0
SpecialStyle: 0
WidescreenStoryboard: 0

[Editor]
DistanceSpacing: 1.6
BeatDivisor: 4
GridSize: 4
TimelineZoom: 2.3

[Metadata]
Title:The Asterisk War
TitleUnicode:The Asterisk War
Artist:Shiena Nishizawa
ArtistUnicode:西沢幸奏
Creator:arcwinolivirus
Version:4K Maximum Genestella
Source:学戦都市アスタリスク
Tags:2nd second season opening gakusen toshi academy city on water j-rock tv size west ground keweft
BeatmapID:1063557
BeatmapSetID:499781

[Difficulty]
HPDrainRate:8
CircleSize:4
OverallDifficulty:8
ApproachRate:5
SliderMultiplier:1.4
SliderTickRate:1

[Events]
//Background and Video events
0,0,"The+Asterisk+War.jpg",0,0
//Break Periods
//Storyboard Layer 0 (Background)
//Storyboard Layer 1 (Fail)
//Storyboard Layer 2 (Pass)
//Storyboard Layer 3 (Foreground)
//Storyboard Sound Samples

[TimingPoints]
1651,419.5804,4,2,1,60,1,0
7525,-125,4,2,1,60,0,0
8364,-100,4,2,1,60,0,0
35217,-111.111115,4,2,1,60,0,0
41930,-105.26316,4,2,1,60,0,0
48644,-33.333332,4,2,1,60,0,0
48748,-400,4,2,1,60,0,0
49483,-125,4,2,1,40,0,0
49902,-111.111115,4,2,1,50,0,0
50322,-100,4,2,1,60,0,1
62909,-100,4,2,1,60,0,0
63748,-100,4,2,1,60,0,1
73818,-100,4,2,1,60,0,0

[HitObjects]
64,192,811,128,0,1231:0:0:0:0:
448,192,1231,1,0,0:0:0:0:
320,192,1283,1,0,0:0:0:0:
64,192,1336,1,0,0:0:0:0:
192,192,1388,1,0,0:0:0:0:
448,192,1441,1,0,0:0:0:0:
320,192,1493,1,0,0:0:0:0:
64,192,1546,1,0,0:0:0:0:
192,192,1598,1,0,0:0:0:0:
320,192,1651,5,4,0:0:0:60:
448,192,1651,128,0,1860:0:0:0:0:
64,192,1651,1,0,0:0:0:0:
192,192,1860,1,0,0:0:0:0:
320,192,1965,1,0,0:0:0:0:
448,192,1965,1,0,0:0:0:0:
64,192,2175,1,0,0:0:0:0:
320,192,2280,1,0,0:0:0:0:
448,192,2280,128,0,2490:0:0:0:0:
192,192,2490,1,0,0:0:0:0:
320,192,2595,1,0,0:0:0:0:
448,192,2595,1,0,0:0:0:0:
64,192,2804,1,0,0:0:0:0:
448,192,2909,1,0,0:0:0:0:
320,192,2909,1,0,0:0:0:0:
192,192,3014,1,0,0:0:0:0:
448,192,3119,1,0,0:0:0:0:
64,192,3119,1,0,0:0:0:0:
320,192,3224,1,0,0:0:0:0:
192,192,3329,1,0,0:0:0:0:
64,192,3329,128,0,3539:0:0:0:0:
320,192,3434,1,0,0:0:0:0:
448,192,3539,1,0,0:0:0:0:
192,192,3644,1,0,0:0:0:0:
64,192,3644,1,0,0:0:0:0:
448,192,3748,1,0,0:0:0:0:
320,192,3853,1,0,0:0:0:0:
64,192,3958,128,0,4168:0:0:0:0:
192,192,3958,128,0,4063:0:0:0:0:
320,192,4063,128,0,4168:0:0:0:0:
448,192,4168,128,0,4273:0:0:0:0:
64,192,4273,1,0,0:0:0:0:
192,192,4273,128,0,4378:0:0:0:0:
320,192,4378,128,0,4483:0:0:0:0:
64,192,4483,128,0,4588:0:0:0:0:
192,192,4588,128,0,4797:0:0:0:0:
448,192,4588,128,0,4692:0:0:0:0:
320,192,4692,128,0,4797:0:0:0:0:
448,192,4797,128,0,5007:0:0:0:0:
64,192,4797,128,0,4902:0:0:0:0:
320,192,4902,128,0,5007:0:0:0:0:
192,192,5007,1,0,0:0:0:0:
64,192,5007,128,0,5217:0:0:0:0:
448,192,5112,1,0,0:0:0:0:
320,192,5217,1,0,0:0:0:0:
192,192,5322,1,0,0:0:0:0:
64,192,5322,1,0,0:0:0:0:
448,192,5427,1,0,0:0:0:0:
192,192,5532,1,0,0:0:0:0:
320,192,5637,1,0,0:0:0:0:
448,192,5637,128,0,5846:0:0:0:0:
64,192,5741,1,0,0:0:0:0:
192,192,5846,1,0,0:0:0:0:
320,192,5951,1,0,0:0:0:0:
448,192,5951,1,0,0:0:0:0:
64,192,6161,1,0,0:0:0:0:
192,192,6266,1,0,0:0:0:0:
320,192,6266,1,0,0:0:0:0:
448,192,6371,1,0,0:0:0:0:
192,192,6476,1,0,0:0:0:0:
64,192,6476,1,0,0:0:0:0:
320,192,6581,1,0,0:0:0:0:
448,192,6685,1,0,0:0:0:0:
64,192,6685,128,0,6895:0:0:0:0:
192,192,6790,1,0,0:0:0:0:
320,192,6895,1,0,0:0:0:0:
192,192,7000,1,0,0:0:0:0:
64,192,7000,1,0,0:0:0:0:
448,192,7105,128,0,7525:0:0:0:0:
320,192,7105,1,0,0:0:0:0:
64,192,7210,1,0,0:0:0:0:
320,192,7315,128,0,7525:0:0:0:0:
192,192,7315,1,0,0:0:0:0:
192,192,7525,1,0,0:0:0:0:
64,192,7525,128,0,7944:0:0:0:0:
320,192,7944,1,0,0:0:0:0:
192,192,7944,128,0,8364:0:0:0:0:
320,192,8364,1,2,0:0:0:60:
448,192,8364,1,4,0:0:0:60:
64,192,8364,1,0,0:0:0:0:
320,192,8469,1,8,0:0:0:60:
448,192,8469,1,0,0:0:0:0:
192,192,8574,1,0,0:0:0:0:
320,192,8678,1,2,0:0:0:60:
448,192,8678,1,0,0:0:0:0:
64,192,8783,1,8,0:0:0:60:
192,192,8783,1,0,0:0:0:0:
448,192,8783,1,0,0:0:0:0:
320,192,8888,1,0,0:0:0:0:
192,192,8993,1,2,0:0:0:60:
64,192,8993,1,0,0:0:0:0:
320,192,9098,1,2,0:0:0:60:
448,192,9098,1,0,0:0:0:0:
192,192,9203,1,0,0:0:0:0:
448,192,9308,1,8,0:0:0:60:
320,192,9308,1,0,0:0:0:0:
64,192,9413,1,2,0:0:0:60:
192,192,9413,1,0,0:0:0:0:
448,192,9518,1,2,0:0:0:60:
320,192,9518,1,0,0:0:0:0:
192,192,9623,1,8,0:0:0:60:
64,192,9623,1,0,0:0:0:0:
448,192,9623,128,0,9727:0:0:0:0:
192,192,9832,128,0,9937:0:0:0:0:
320,192,9832,1,0,0:0:0:0:
448,192,10042,1,2,0:0:0:60:
320,192,10042,1,0,0:0:0:0:
320,192,10147,1,8,0:0:0:60:
448,192,10147,1,0,0:0:0:0:
192,192,10147,1,0,0:0:0:0:
64,192,10252,1,0,0:0:0:0:
320,192,10357,1,2,0:0:0:60:
448,192,10357,1,0,0:0:0:0:
192,192,10462,1,8,0:0:0:60:
64,192,10462,1,0,0:0:0:0:
448,192,10462,1,0,0:0:0:0:
320,192,10567,1,0,0:0:0:0:
64,192,10671,1,2,0:0:0:60:
448,192,10671,1,0,0:0:0:0:
320,192,10776,1,2,0:0:0:60:
192,192,10776,1,0,0:0:0:0:
64,192,10881,1,0,0:0:0:0:
448,192,10986,1,8,0:0:0:60:
320,192,10986,1,0,0:0:0:0:
64,192,11091,1,2,0:0:0:60:
192,192,11091,1,0,0:0:0:0:
448,192,11196,1,2,0:0:0:60:
320,192,11196,1,0,0:0:0:0:
192,192,11301,1,8,0:0:0:60:
64,192,11301,1,0,0:0:0:0:
448,192,11301,128,0,11406:0:0:0:0:
320,192,11406,128,0,11511:0:0:0:0:
64,192,11511,128,0,11616:0:0:0:0:
192,192,11616,128,0,11720:0:0:0:0:
320,192,11720,1,2,0:0:0:60:
448,192,11720,1,0,0:0:0:0:
320,192,11825,1,8,0:0:0:60:
448,192,11825,1,0,0:0:0:0:
64,192,11825,1,0,0:0:0:0:
192,192,11930,1,0,0:0:0:0:
320,192,12035,1,2,0:0:0:60:
448,192,12035,1,0,0:0:0:0:
192,192,12140,1,8,0:0:0:60:
64,192,12140,1,0,0:0:0:0:
448,192,12140,1,0,0:0:0:0:
320,192,12245,1,0,0:0:0:0:
192,192,12350,1,2,0:0:0:60:
64,192,12350,1,0,0:0:0:0:
320,192,12455,1,2,0:0:0:60:
448,192,12455,1,0,0:0:0:0:
192,192,12560,1,0,0:0:0:0:
320,192,12664,1,8,0:0:0:60:
448,192,12664,1,0,0:0:0:0:
192,192,12769,1,2,0:0:0:60:
64,192,12769,1,0,0:0:0:0:
320,192,12874,1,2,0:0:0:60:
448,192,12874,1,0,0:0:0:0:
192,192,12979,1,8,0:0:0:60:
64,192,12979,1,0,0:0:0:0:
448,192,12979,128,0,13084:0:0:0:0:
192,192,13189,128,0,13294:0:0:0:0:
320,192,13189,1,0,0:0:0:0:
448,192,13399,1,2,0:0:0:60:
320,192,13399,1,0,0:0:0:0:
320,192,13504,1,8,0:0:0:60:
448,192,13504,1,0,0:0:0:0:
192,192,13504,1,0,0:0:0:0:
64,192,13609,1,0,0:0:0:0:
192,192,13713,1,2,0:0:0:60:
320,192,13713,1,0,0:0:0:0:
448,192,13818,1,8,0:0:0:60:
64,192,13818,1,0,0:0:0:0:
320,192,13818,1,0,0:0:0:0:
192,192,13923,1,0,0:0:0:0:
320,192,14028,1,2,0:0:0:60:
448,192,14028,1,0,0:0:0:0:
192,192,14133,1,2,0:0:0:60:
64,192,14133,1,0,0:0:0:0:
320,192,14238,1,0,0:0:0:0:
448,192,14343,1,8,0:0:0:60:
64,192,14343,1,0,0:0:0:0:
192,192,14448,1,2,0:0:0:60:
320,192,14448,1,0,0:0:0:0:
448,192,14553,1,2,0:0:0:60:
64,192,14553,1,0,0:0:0:0:
192,192,14657,1,8,0:0:0:60:
64,192,14657,128,0,14762:0:0:0:0:
320,192,14762,1,8,0:0:0:60:
448,192,14762,128,0,14867:0:0:0:0:
64,192,14867,1,8,0:0:0:60:
192,192,14867,128,0,14972:0:0:0:0:
448,192,14972,1,8,0:0:0:60:
320,192,14972,128,0,15077:0:0:0:0:
192,192,15077,1,2,0:0:0:60:
64,192,15077,1,4,0:0:0:60:
64,192,15182,1,8,0:0:0:60:
448,192,15182,1,0,0:0:0:0:
192,192,15182,1,0,0:0:0:0:
320,192,15287,1,0,0:0:0:0:
192,192,15392,1,2,0:0:0:60:
64,192,15392,1,0,0:0:0:0:
320,192,15497,1,8,0:0:0:60:
448,192,15497,1,0,0:0:0:0:
64,192,15497,1,0,0:0:0:0:
192,192,15602,1,0,0:0:0:0:
320,192,15706,1,2,0:0:0:60:
448,192,15706,1,0,0:0:0:0:
192,192,15811,1,8,0:0:0:60:
64,192,15811,1,0,0:0:0:0:
448,192,15811,1,0,0:0:0:0:
320,192,15916,1,0,0:0:0:0:
192,192,16021,1,8,0:0:0:60:
64,192,16021,1,0,0:0:0:0:
320,192,16126,1,2,0:0:0:60:
448,192,16126,1,0,0:0:0:0:
64,192,16231,1,2,0:0:0:60:
192,192,16231,1,0,0:0:0:0:
320,192,16336,1,8,0:0:0:60:
448,192,16336,1,0,0:0:0:0:
192,192,16336,128,0,16441:0:0:0:0:
448,192,16546,128,0,16650:0:0:0:0:
320,192,16546,1,0,0:0:0:0:
64,192,16755,1,2,0:0:0:60:
192,192,16755,1,0,0:0:0:0:
64,192,16860,1,8,0:0:0:60:
192,192,16860,1,0,0:0:0:0:
448,192,16860,1,0,0:0:0:0:
320,192,16965,1,0,0:0:0:0:
192,192,17070,1,2,0:0:0:60:
64,192,17070,1,0,0:0:0:0:
448,192,17175,1,8,0:0:0:60:
320,192,17175,1,0,0:0:0:0:
64,192,17175,1,0,0:0:0:0:
192,192,17280,1,0,0:0:0:0:
448,192,17385,1,2,0:0:0:60:
64,192,17385,1,0,0:0:0:0:
320,192,17490,1,2,0:0:0:60:
192,192,17490,1,0,0:0:0:0:
448,192,17595,1,0,0:0:0:0:
192,192,17699,1,8,0:0:0:60:
64,192,17699,1,0,0:0:0:0:
320,192,17804,1,2,0:0:0:60:
448,192,17804,1,0,0:0:0:0:
192,192,17909,1,2,0:0:0:60:
64,192,17909,1,0,0:0:0:0:
320,192,18014,1,8,0:0:0:60:
64,192,18014,1,0,0:0:0:0:
448,192,18014,128,0,18119:0:0:0:0:
192,192,18119,128,0,18224:0:0:0:0:
320,192,18224,128,0,18329:0:0:0:0:
64,192,18329,128,0,18434:0:0:0:0:
320,192,18434,1,2,0:0:0:60:
448,192,18434,1,4,0:0:0:60:
192,192,18539,1,0,0:0:0:0:
320,192,18644,1,0,0:0:0:0:
192,192,18748,1,2,0:0:0:60:
64,192,18748,1,0,0:0:0:0:
320,192,18853,1,8,0:0:0:60:
448,192,18853,1,0,0:0:0:0:
64,192,18853,1,0,0:0:0:0:
192,192,18958,1,0,0:0:0:0:
64,192,19063,1,2,0:0:0:60:
448,192,19063,1,0,0:0:0:0:
320,192,19168,1,8,0:0:0:60:
192,192,19168,1,0,0:0:0:0:
448,192,19168,1,0,0:0:0:0:
64,192,19273,1,0,0:0:0:0:
320,192,19378,1,8,0:0:0:60:
448,192,19378,1,0,0:0:0:0:
192,192,19483,1,2,0:0:0:60:
64,192,19483,1,0,0:0:0:0:
320,192,19588,1,2,0:0:0:60:
448,192,19588,1,0,0:0:0:0:
448,192,19692,1,8,0:0:0:60:
192,192,19692,1,0,0:0:0:0:
64,192,19692,128,0,19797:0:0:0:0:
320,192,19902,1,8,0:0:0:60:
192,192,19902,1,0,0:0:0:0:
448,192,19902,128,0,20007:0:0:0:0:
64,192,20112,1,2,0:0:0:60:
192,192,20112,1,0,0:0:0:0:
192,192,20217,1,8,0:0:0:60:
64,192,20217,1,0,0:0:0:0:
448,192,20217,1,0,0:0:0:0:
320,192,20322,1,0,0:0:0:0:
64,192,20427,1,2,0:0:0:60:
448,192,20427,1,0,0:0:0:0:
320,192,20532,1,8,0:0:0:60:
448,192,20532,1,4,0:0:0:60:
64,192,20532,1,0,0:0:0:0:
192,192,20637,1,0,0:0:0:0:
320,192,20741,1,2,0:0:0:60:
448,192,20741,1,0,0:0:0:0:
320,192,20846,1,8,0:0:0:60:
448,192,20846,1,0,0:0:0:0:
64,192,20846,1,0,0:0:0:0:
192,192,20951,1,0,0:0:0:0:
320,192,21056,1,2,0:0:0:60:
448,192,21056,1,0,0:0:0:0:
192,192,21161,1,2,0:0:0:60:
64,192,21161,1,0,0:0:0:0:
320,192,21266,1,2,0:0:0:60:
64,192,21371,1,2,0:0:0:60:
448,192,21371,128,0,21476:0:0:0:0:
320,192,21476,128,2,21581:0:0:0:60:
64,192,21581,1,2,0:0:0:60:
192,192,21581,128,0,21685:0:0:0:0:
320,192,21685,128,2,21790:0:0:0:60:
64,192,21790,1,2,0:0:0:60:
192,192,21790,1,4,0:0:0:60:
448,192,21790,128,0,22210:0:0:0:0:
192,192,22000,1,0,0:0:0:0:
320,192,22105,1,2,0:0:0:60:
64,192,22210,1,8,0:0:0:60:
192,192,22210,1,0,0:0:0:0:
448,192,22420,1,2,0:0:0:60:
320,192,22420,128,0,22630:0:0:0:0:
192,192,22525,1,8,0:0:0:60:
64,192,22525,1,0,0:0:0:0:
64,192,22734,1,8,0:0:0:60:
192,192,22734,128,0,22944:0:0:0:0:
320,192,22839,1,2,0:0:0:60:
448,192,22839,1,0,0:0:0:0:
64,192,23049,128,8,23469:0:0:0:60:
320,192,23049,1,0,0:0:0:0:
448,192,23049,1,0,0:0:0:0:
320,192,23259,1,0,0:0:0:0:
448,192,23469,128,2,23888:0:0:0:60:
192,192,23469,1,0,0:0:0:0:
192,192,23678,1,0,0:0:0:0:
320,192,23783,1,2,0:0:0:60:
192,192,23888,1,8,0:0:0:60:
64,192,23888,1,0,0:0:0:0:
448,192,24098,1,2,0:0:0:60:
320,192,24098,128,0,24308:0:0:0:0:
64,192,24203,1,8,0:0:0:60:
192,192,24203,1,0,0:0:0:0:
192,192,24413,128,0,24623:0:0:0:0:
64,192,24413,1,0,0:0:0:0:
320,192,24518,1,2,0:0:0:60:
448,192,24518,1,0,0:0:0:0:
448,192,24727,1,8,0:0:0:60:
64,192,24727,128,0,25147:0:0:0:0:
320,192,24727,1,0,0:0:0:0:
320,192,24937,1,0,0:0:0:0:
448,192,25147,128,2,25567:0:0:0:60:
192,192,25147,1,0,0:0:0:0:
192,192,25357,1,0,0:0:0:0:
320,192,25462,1,2,0:0:0:60:
64,192,25567,1,8,0:0:0:60:
192,192,25567,1,0,0:0:0:0:
448,192,25776,128,2,25986:0:0:0:60:
320,192,25776,1,0,0:0:0:0:
192,192,25881,1,0,0:0:0:0:
192,192,26091,1,8,0:0:0:60:
64,192,26091,128,0,26301:0:0:0:0:
448,192,26196,1,2,0:0:0:60:
320,192,26196,1,0,0:0:0:0:
192,192,26301,1,2,0:0:0:60:
320,192,26406,1,8,0:0:0:60:
448,192,26406,128,0,26825:0:0:0:0:
64,192,26406,1,0,0:0:0:0:
64,192,26616,1,0,0:0:0:0:
192,192,26825,128,2,27035:0:0:0:60:
320,192,26825,1,0,0:0:0:0:
448,192,27035,128,0,27245:0:0:0:0:
64,192,27035,1,0,0:0:0:0:
320,192,27140,1,2,0:0:0:60:
64,192,27245,128,8,27455:0:0:0:60:
192,192,27245,1,0,0:0:0:0:
448,192,27455,1,2,0:0:0:60:
320,192,27455,1,0,0:0:0:0:
64,192,27560,1,8,0:0:0:60:
192,192,27560,1,0,0:0:0:0:
448,192,27664,128,0,28084:0:0:0:0:
64,192,27769,1,8,0:0:0:60:
192,192,27769,1,0,0:0:0:0:
320,192,27874,1,2,0:0:0:60:
192,192,28084,1,8,0:0:0:60:
64,192,28084,1,0,0:0:0:0:
320,192,28189,1,2,0:0:0:60:
448,192,28294,1,2,0:0:0:60:
64,192,28294,1,0,0:0:0:0:
192,192,28399,1,2,0:0:0:60:
448,192,28504,1,2,0:0:0:60:
320,192,28504,128,4,28923:0:0:0:60:
64,192,28504,1,0,0:0:0:0:
192,192,28609,1,8,0:0:0:60:
64,192,28609,1,0,0:0:0:0:
448,192,28713,1,0,0:0:0:0:
64,192,28818,1,2,0:0:0:60:
448,192,28923,1,8,0:0:0:60:
192,192,28923,1,0,0:0:0:0:
192,192,29133,1,2,0:0:0:60:
64,192,29133,128,0,29343:0:0:0:0:
320,192,29238,1,8,0:0:0:60:
448,192,29238,1,0,0:0:0:0:
448,192,29448,1,8,0:0:0:60:
320,192,29448,128,0,29657:0:0:0:0:
192,192,29553,1,2,0:0:0:60:
64,192,29553,1,0,0:0:0:0:
448,192,29657,1,2,0:0:0:60:
64,192,29762,1,8,0:0:0:60:
192,192,29762,128,0,30182:0:0:0:0:
320,192,29762,1,0,0:0:0:0:
448,192,29972,1,0,0:0:0:0:
320,192,30182,128,2,30602:0:0:0:60:
448,192,30182,1,0,0:0:0:0:
64,192,30392,1,0,0:0:0:0:
448,192,30497,1,2,0:0:0:60:
192,192,30602,1,8,0:0:0:60:
64,192,30602,1,0,0:0:0:0:
320,192,30811,1,2,0:0:0:60:
448,192,30811,128,0,31021:0:0:0:0:
192,192,30916,1,8,0:0:0:60:
64,192,30916,1,0,0:0:0:0:
64,192,31126,1,8,0:0:0:60:
192,192,31126,128,0,31336:0:0:0:0:
320,192,31231,1,2,0:0:0:60:
448,192,31231,1,0,0:0:0:0:
448,192,31441,1,2,0:0:0:60:
320,192,31441,128,8,31860:0:0:0:60:
192,192,31441,1,0,0:0:0:0:
64,192,31546,1,2,0:0:0:60:
192,192,31650,1,2,0:0:0:60:
448,192,31755,1,2,0:0:0:60:
64,192,31860,1,2,0:0:0:60:
192,192,31860,128,0,32280:0:0:0:0:
320,192,31965,1,2,0:0:0:60:
448,192,31965,1,0,0:0:0:0:
64,192,32070,1,0,0:0:0:0:
320,192,32175,1,2,0:0:0:60:
64,192,32280,1,8,0:0:0:60:
448,192,32280,1,0,0:0:0:0:
448,192,32490,128,2,32699:0:0:0:60:
320,192,32490,1,0,0:0:0:0:
64,192,32595,1,8,0:0:0:60:
192,192,32595,1,0,0:0:0:0:
192,192,32804,128,8,33014:0:0:0:60:
64,192,32804,1,0,0:0:0:0:
448,192,32909,1,2,0:0:0:0:
320,192,32909,1,0,0:0:0:0:
64,192,33014,1,2,0:0:0:60:
320,192,33119,128,8,33329:0:0:0:60:
448,192,33119,1,0,0:0:0:0:
64,192,33329,1,0,0:0:0:0:
448,192,33434,1,8,0:0:0:60:
192,192,33434,1,0,0:0:0:0:
320,192,33539,1,2,0:0:0:60:
64,192,33539,128,4,34378:0:0:0:60:
448,192,33748,1,0,0:0:0:0:
192,192,33853,1,2,0:0:0:60:
320,192,33958,1,8,0:0:0:60:
448,192,33958,1,0,0:0:0:0:
448,192,34168,1,8,0:0:0:60:
192,192,34168,1,0,0:0:0:0:
320,192,34273,1,8,0:0:0:60:
448,192,34378,128,2,35217:0:0:0:60:
192,192,34378,1,0,0:0:0:0:
320,192,34483,1,2,0:0:0:60:
64,192,34588,1,2,0:0:0:60:
320,192,34692,1,2,0:0:0:60:
192,192,34797,1,2,0:0:0:60:
320,192,34902,1,2,0:0:0:60:
64,192,34955,1,2,0:0:0:60:
192,192,35007,1,2,0:0:0:60:
320,192,35060,1,2,0:0:0:60:
64,192,35112,1,2,0:0:0:60:
192,192,35164,1,2,0:0:0:60:
320,192,35217,1,4,0:0:0:60:
64,192,35532,1,0,0:0:0:0:
192,192,35532,1,0,0:0:0:0:
448,192,35637,1,0,0:0:0:0:
64,192,35846,1,0,0:0:0:0:
192,192,35846,1,0,0:0:0:0:
448,192,36056,1,0,0:0:0:0:
64,192,36161,1,0,0:0:0:0:
192,192,36161,1,0,0:0:0:0:
320,192,36266,1,0,0:0:0:0:
64,192,36476,1,0,0:0:0:0:
192,192,36476,1,0,0:0:0:0:
64,192,36685,1,0,0:0:0:0:
320,192,36685,1,0,0:0:0:0:
192,192,36895,1,0,0:0:0:0:
448,192,36895,1,0,0:0:0:0:
64,192,37105,1,0,0:0:0:0:
448,192,37210,1,0,0:0:0:0:
320,192,37210,1,0,0:0:0:0:
192,192,37315,1,0,0:0:0:0:
320,192,37420,128,0,37525:0:0:0:0:
448,192,37525,128,0,37734:0:0:0:0:
64,192,37525,128,0,37630:0:0:0:0:
192,192,37630,128,0,37734:0:0:0:0:
320,192,37734,128,0,37944:0:0:0:0:
64,192,37839,128,0,37944:0:0:0:0:
192,192,37944,128,0,38154:0:0:0:0:
448,192,38049,128,0,38154:0:0:0:0:
64,192,38154,128,0,38574:0:0:0:0:
320,192,38154,128,0,38259:0:0:0:0:
192,192,38364,1,0,0:0:0:0:
448,192,38364,1,0,0:0:0:0:
448,192,38574,1,0,0:0:0:0:
320,192,38574,1,0,0:0:0:0:
192,192,38888,1,0,0:0:0:0:
64,192,38888,1,0,0:0:0:0:
320,192,38993,1,0,0:0:0:0:
64,192,39203,1,0,0:0:0:0:
448,192,39203,128,0,39518:0:0:0:0:
192,192,39518,1,0,0:0:0:0:
64,192,39518,1,0,0:0:0:0:
320,192,39623,1,0,0:0:0:0:
192,192,39832,1,0,0:0:0:0:
448,192,39832,1,0,0:0:0:0:
320,192,40042,1,0,0:0:0:0:
64,192,40042,1,0,0:0:0:0:
192,192,40252,1,0,0:0:0:0:
448,192,40252,1,0,0:0:0:0:
64,192,40462,128,0,40671:0:0:0:0:
320,192,40567,1,0,0:0:0:0:
448,192,40567,1,0,0:0:0:0:
192,192,40671,128,0,40881:0:0:0:0:
320,192,40881,128,0,41091:0:0:0:0:
448,192,40881,128,0,40986:0:0:0:0:
64,192,40986,128,0,41091:0:0:0:0:
192,192,41091,128,0,41301:0:0:0:0:
448,192,41196,128,0,41301:0:0:0:0:
64,192,41301,128,0,41511:0:0:0:0:
320,192,41406,128,0,41511:0:0:0:0:
448,192,41511,128,0,41720:0:0:0:0:
192,192,41511,128,0,41616:0:0:0:0:
64,192,41616,128,0,41720:0:0:0:0:
320,192,41720,128,0,41930:0:0:0:0:
192,192,41720,128,0,41825:0:0:0:0:
448,192,41825,128,0,41930:0:0:0:0:
192,192,41930,1,4,0:0:0:60:
64,192,41930,128,0,43609:0:0:0:0:
320,192,42140,1,0,0:0:0:0:
448,192,42140,1,0,0:0:0:70:cymbal light.wav
192,192,42245,1,0,0:0:0:0:
448,192,42350,1,0,0:0:0:0:
320,192,42350,1,0,0:0:0:0:
448,192,42560,1,0,0:0:0:70:cymbal light.wav
192,192,42560,1,0,0:0:0:0:
192,192,42664,1,0,0:0:0:0:
448,192,42664,1,0,0:0:0:0:
320,192,42874,1,0,0:0:0:0:
192,192,42874,1,0,0:0:0:0:
192,192,42979,1,0,0:0:0:70:cymbal light.wav
320,192,42979,1,0,0:0:0:0:
320,192,43189,1,0,0:0:0:0:
448,192,43189,1,0,0:0:0:0:
192,192,43294,1,0,0:0:0:0:
320,192,43399,1,0,0:0:0:70:cymbal light.wav
448,192,43399,1,0,0:0:0:0:
192,192,43504,1,0,0:0:0:0:
320,192,43609,1,0,0:0:0:0:
448,192,43609,128,0,45287:0:0:0:0:
192,192,43818,1,0,0:0:0:70:cymbal light.wav
320,192,43818,1,0,0:0:0:0:
192,192,44028,1,0,0:0:0:0:
64,192,44028,1,0,0:0:0:0:
64,192,44238,1,0,0:0:0:70:cymbal light.wav
320,192,44238,1,0,0:0:0:0:
320,192,44343,1,0,0:0:0:0:
64,192,44343,1,0,0:0:0:0:
192,192,44553,1,0,0:0:0:0:
320,192,44553,1,0,0:0:0:0:
320,192,44657,1,0,0:0:0:70:cymbal light.wav
192,192,44657,1,0,0:0:0:0:
64,192,44867,1,0,0:0:0:0:
192,192,44867,1,0,0:0:0:0:
320,192,44972,1,0,0:0:0:0:
192,192,45077,1,0,0:0:0:70:cymbal light.wav
64,192,45077,1,0,0:0:0:0:
320,192,45182,1,0,0:0:0:0:
192,192,45287,1,0,0:0:0:0:
64,192,45287,128,0,46965:0:0:0:0:
320,192,45392,1,0,0:0:0:0:
448,192,45497,1,0,0:0:0:70:cymbal light.wav
192,192,45602,1,0,0:0:0:0:
448,192,45706,1,0,0:0:0:0:
320,192,45811,1,0,0:0:0:0:
192,192,45916,1,0,0:0:0:70:cymbal light.wav
448,192,46126,1,0,0:0:0:0:
192,192,46231,1,0,0:0:0:0:
320,192,46336,1,0,0:0:0:70:cymbal light.wav
192,192,46546,1,0,0:0:0:0:
448,192,46650,1,0,0:0:0:0:
320,192,46755,1,0,0:0:0:70:cymbal light.wav
192,192,46860,1,0,0:0:0:0:
448,192,46965,128,0,48644:0:0:0:0:
320,192,46965,1,0,0:0:0:0:
192,192,47070,1,0,0:0:0:0:
64,192,47175,1,0,0:0:0:70:cymbal light.wav
320,192,47280,1,0,0:0:0:0:
64,192,47385,1,0,0:0:0:0:
192,192,47490,1,0,0:0:0:0:
320,192,47595,1,0,0:0:0:70:cymbal light.wav
192,192,47804,1,0,0:0:0:0:
320,192,47909,1,0,0:0:0:0:
64,192,48014,1,0,0:0:0:70:cymbal light.wav
320,192,48224,128,0,48644:0:0:0:0:
192,192,48329,128,0,48644:0:0:0:0:
64,192,48434,128,0,48644:0:0:0:70:cymbal light.wav
64,192,49483,1,0,0:0:0:70:hitwhistle Left.wav
192,192,49535,1,0,0:0:0:70:hitwhistle Left.wav
320,192,49588,1,0,0:0:0:70:hitwhistle Left.wav
448,192,49640,1,0,0:0:0:70:hitwhistle Left.wav
64,192,49692,1,0,0:0:0:70:hitwhistle Left.wav
192,192,49745,1,0,0:0:0:70:hitwhistle Left.wav
320,192,49797,1,0,0:0:0:70:hitwhistle Left.wav
448,192,49850,1,0,0:0:0:70:hitwhistle Left.wav
64,192,49902,1,0,0:0:0:70:hitwhistle Right.wav
192,192,49955,1,0,0:0:0:70:hitwhistle Right.wav
448,192,50007,1,0,0:0:0:70:hitwhistle Right.wav
320,192,50060,1,0,0:0:0:70:hitwhistle Right.wav
64,192,50112,1,0,0:0:0:70:hitwhistle Right.wav
192,192,50164,1,0,0:0:0:70:hitwhistle Right.wav
448,192,50217,1,0,0:0:0:70:hitwhistle Right.wav
320,192,50269,1,0,0:0:0:70:hitwhistle Right.wav
192,192,50322,1,4,0:0:0:60:
64,192,50322,1,2,0:0:0:60:
320,192,50427,1,8,0:0:0:60:
448,192,50427,1,0,0:0:0:0:
64,192,50427,1,0,0:0:0:0:
320,192,50637,1,2,0:0:0:60:
448,192,50637,1,0,0:0:0:0:
192,192,50741,1,8,0:0:0:60:
448,192,50741,1,0,0:0:0:0:
64,192,50741,1,0,0:0:0:0:
192,192,50951,1,2,0:0:0:60:
64,192,50951,1,0,0:0:0:0:
320,192,51056,1,8,0:0:0:60:
448,192,51056,1,0,0:0:0:0:
64,192,51056,1,0,0:0:0:0:
448,192,51266,1,8,0:0:0:60:
320,192,51266,1,0,0:0:0:0:
64,192,51266,1,0,0:0:0:0:
192,192,51371,1,2,0:0:0:60:
320,192,51476,1,2,0:0:0:60:
448,192,51581,1,8,0:0:0:60:
192,192,51581,1,0,0:0:0:0:
64,192,51581,1,0,0:0:0:0:
320,192,51790,1,0,0:0:0:0:
192,192,52000,1,2,0:0:0:60:
64,192,52000,1,0,0:0:0:0:
320,192,52105,1,8,0:0:0:60:
448,192,52105,1,0,0:0:0:0:
64,192,52105,1,0,0:0:0:0:
320,192,52315,1,2,0:0:0:60:
448,192,52315,1,0,0:0:0:0:
192,192,52420,1,8,0:0:0:60:
64,192,52420,1,0,0:0:0:0:
448,192,52420,1,0,0:0:0:0:
64,192,52630,1,2,0:0:0:60:
448,192,52630,1,0,0:0:0:0:
192,192,52734,1,2,0:0:0:60:
320,192,52734,1,0,0:0:0:0:
320,192,52944,1,8,0:0:0:60:
448,192,52944,1,0,0:0:0:0:
192,192,52944,1,0,0:0:0:0:
64,192,53049,1,2,0:0:0:60:
448,192,53154,1,2,0:0:0:60:
192,192,53259,1,8,0:0:0:60:
320,192,53259,1,0,0:0:0:0:
64,192,53259,1,0,0:0:0:0:
448,192,53469,1,0,0:0:0:0:
64,192,53678,1,2,0:0:0:60:
192,192,53678,1,0,0:0:0:0:
320,192,53783,1,8,0:0:0:60:
448,192,53783,1,0,0:0:0:0:
64,192,53783,1,0,0:0:0:0:
320,192,53993,1,2,0:0:0:60:
448,192,53993,1,0,0:0:0:0:
64,192,54098,1,8,0:0:0:60:
448,192,54098,1,0,0:0:0:0:
192,192,54098,1,0,0:0:0:0:
64,192,54308,1,2,0:0:0:60:
192,192,54308,1,0,0:0:0:0:
320,192,54413,1,2,0:0:0:60:
448,192,54413,1,0,0:0:0:0:
192,192,54518,1,0,0:0:0:0:
448,192,54623,1,8,0:0:0:60:
64,192,54623,1,0,0:0:0:0:
320,192,54623,1,0,0:0:0:0:
192,192,54727,1,2,0:0:0:60:
320,192,54832,1,2,0:0:0:60:
192,192,54937,1,8,0:0:0:60:
448,192,54937,1,0,0:0:0:0:
64,192,54937,1,0,0:0:0:0:
64,192,55147,1,0,0:0:0:0:
448,192,55357,1,2,0:0:0:60:
320,192,55357,1,0,0:0:0:0:
192,192,55462,1,8,0:0:0:60:
64,192,55462,1,0,0:0:0:0:
448,192,55462,1,0,0:0:0:0:
64,192,55671,1,2,0:0:0:60:
192,192,55671,1,0,0:0:0:0:
448,192,55776,1,8,0:0:0:60:
64,192,55776,1,0,0:0:0:0:
320,192,55776,1,0,0:0:0:0:
448,192,55986,1,2,0:0:0:60:
64,192,55986,1,0,0:0:0:0:
192,192,56091,1,2,0:0:0:60:
320,192,56091,1,0,0:0:0:0:
320,192,56301,1,8,0:0:0:60:
448,192,56301,1,0,0:0:0:0:
64,192,56301,1,0,0:0:0:0:
192,192,56406,1,2,0:0:0:60:
320,192,56511,1,2,0:0:0:60:
192,192,56616,1,8,0:0:0:60:
64,192,56616,1,0,0:0:0:0:
320,192,56720,1,8,0:0:0:60:
448,192,56720,1,0,0:0:0:0:
192,192,56825,1,8,0:0:0:60:
64,192,56825,1,0,0:0:0:0:
320,192,56930,1,8,0:0:0:60:
448,192,56930,1,0,0:0:0:0:
64,192,57035,128,2,58713:0:0:0:60:
192,192,57035,1,4,0:0:0:60:
320,192,57140,1,8,0:0:0:60:
448,192,57140,1,0,0:0:0:0:
192,192,57350,1,2,0:0:0:60:
320,192,57455,1,8,0:0:0:60:
448,192,57455,1,0,0:0:0:0:
192,192,57664,1,2,0:0:0:60:
320,192,57769,1,8,0:0:0:60:
448,192,57769,1,0,0:0:0:0:
448,192,57979,1,8,0:0:0:60:
192,192,57979,1,0,0:0:0:0:
320,192,58084,1,2,0:0:0:60:
192,192,58189,1,2,0:0:0:60:
320,192,58294,1,8,0:0:0:60:
448,192,58294,1,0,0:0:0:0:
192,192,58504,1,0,0:0:0:0:
448,192,58713,128,2,60392:0:0:0:60:
320,192,58713,1,0,0:0:0:0:
192,192,58818,1,8,0:0:0:60:
64,192,58818,1,0,0:0:0:0:
320,192,59028,1,2,0:0:0:60:
192,192,59133,1,8,0:0:0:60:
64,192,59133,1,0,0:0:0:0:
320,192,59343,1,2,0:0:0:60:
192,192,59448,1,2,0:0:0:60:
64,192,59657,1,8,0:0:0:60:
192,192,59657,1,0,0:0:0:0:
320,192,59762,1,2,0:0:0:60:
192,192,59867,1,2,0:0:0:60:
64,192,59972,1,8,0:0:0:60:
320,192,59972,1,0,0:0:0:0:
192,192,60182,1,0,0:0:0:0:
320,192,60287,1,8,0:0:0:60:
192,192,60392,1,2,0:0:0:60:
64,192,60392,128,4,61231:0:0:0:60:
448,192,60602,1,0,0:0:0:0:
320,192,60706,1,2,0:0:0:60:
448,192,60811,1,8,0:0:0:60:
192,192,60811,1,0,0:0:0:0:
192,192,61021,1,2,0:0:0:60:
320,192,61126,1,8,0:0:0:60:
448,192,61126,1,0,0:0:0:0:
192,192,61231,128,2,62070:0:0:0:60:
320,192,61336,1,8,0:0:0:60:
448,192,61336,1,0,0:0:0:0:
64,192,61546,1,2,0:0:0:60:
448,192,61650,1,0,0:0:0:0:
320,192,61650,1,8,0:0:0:60:
64,192,61860,1,2,0:0:0:60:
320,192,61860,1,0,0:0:0:0:
448,192,62070,1,2,0:0:0:60:
320,192,62070,128,4,62909:0:0:0:60:
64,192,62070,1,0,0:0:0:0:
192,192,62280,1,0,0:0:0:0:
448,192,62385,1,2,0:0:0:60:
64,192,62490,1,8,0:0:0:60:
192,192,62490,1,0,0:0:0:0:
64,192,62699,1,8,0:0:0:60:
192,192,62699,1,0,0:0:0:0:
448,192,62804,1,8,0:0:0:60:
192,192,62909,1,2,0:0:0:60:
64,192,62909,1,0,0:0:0:0:
448,192,63014,1,2,0:0:0:60:
320,192,63119,1,2,0:0:0:60:
192,192,63119,1,0,0:0:0:0:
64,192,63224,1,2,0:0:0:60:
448,192,63224,1,0,0:0:0:0:
320,192,63329,1,2,0:0:0:60:
192,192,63329,1,0,0:0:0:0:
64,192,63434,1,2,0:0:0:60:
320,192,63539,1,2,0:0:0:60:
448,192,63539,1,0,0:0:0:0:
192,192,63644,1,2,0:0:0:60:
448,192,63748,1,2,0:0:0:60:
320,192,63748,1,4,0:0:0:60:
64,192,63748,1,0,0:0:0:0:
320,192,63853,1,8,0:0:0:60:
192,192,63853,1,0,0:0:0:0:
448,192,63853,1,0,0:0:0:0:
192,192,64063,1,2,0:0:0:60:
64,192,64063,1,0,0:0:0:0:
64,192,64168,1,8,0:0:0:60:
192,192,64168,1,0,0:0:0:0:
320,192,64168,1,0,0:0:0:0:
320,192,64378,1,2,0:0:0:60:
448,192,64378,1,0,0:0:0:0:
448,192,64483,1,8,0:0:0:60:
320,192,64483,1,0,0:0:0:0:
192,192,64483,1,0,0:0:0:0:
448,192,64692,1,8,0:0:0:60:
64,192,64692,1,0,0:0:0:0:
192,192,64797,1,2,0:0:0:60:
320,192,64797,1,0,0:0:0:0:
64,192,64902,1,2,0:0:0:60:
448,192,64902,1,0,0:0:0:0:
448,192,65007,1,8,0:0:0:60:
320,192,65007,1,0,0:0:0:0:
192,192,65007,1,0,0:0:0:0:
64,192,65217,1,0,0:0:0:0:
320,192,65427,1,2,0:0:0:60:
448,192,65427,1,0,0:0:0:0:
192,192,65532,1,8,0:0:0:60:
64,192,65532,1,0,0:0:0:0:
448,192,65532,1,0,0:0:0:0:
192,192,65741,1,2,0:0:0:60:
64,192,65741,1,0,0:0:0:0:
320,192,65846,1,8,0:0:0:60:
448,192,65846,1,0,0:0:0:0:
64,192,65846,1,0,0:0:0:0:
320,192,66056,1,2,0:0:0:60:
448,192,66056,1,0,0:0:0:0:
192,192,66161,1,8,0:0:0:60:
64,192,66161,1,0,0:0:0:0:
448,192,66161,1,0,0:0:0:0:
192,192,66371,1,8,0:0:0:60:
320,192,66371,1,0,0:0:0:0:
448,192,66476,1,2,0:0:0:60:
64,192,66476,1,0,0:0:0:0:
320,192,66581,1,2,0:0:0:60:
192,192,66581,1,0,0:0:0:0:
192,192,66685,1,8,0:0:0:60:
64,192,66685,1,0,0:0:0:0:
448,192,66685,1,0,0:0:0:0:
320,192,66895,1,8,0:0:0:60:
448,192,66895,1,0,0:0:0:0:
192,192,67000,1,8,0:0:0:60:
64,192,67000,1,0,0:0:0:0:
320,192,67105,1,2,0:0:0:60:
448,192,67105,1,4,0:0:0:60:
64,192,67105,1,0,0:0:0:0:
320,192,67210,1,0,0:0:0:0:
192,192,67210,1,0,0:0:0:0:
192,192,67420,1,2,0:0:0:60:
320,192,67420,1,0,0:0:0:0:
448,192,67525,1,8,0:0:0:60:
64,192,67525,1,0,0:0:0:0:
320,192,67525,1,0,0:0:0:0:
320,192,67734,1,2,0:0:0:60:
192,192,67734,1,0,0:0:0:0:
64,192,67839,1,8,0:0:0:60:
448,192,67839,1,0,0:0:0:0:
320,192,67839,1,0,0:0:0:0:
64,192,68049,1,8,0:0:0:60:
192,192,68049,1,0,0:0:0:0:
320,192,68154,1,2,0:0:0:60:
448,192,68154,1,0,0:0:0:0:
192,192,68259,1,2,0:0:0:60:
64,192,68259,1,0,0:0:0:0:
64,192,68364,1,8,0:0:0:60:
320,192,68364,1,0,0:0:0:0:
448,192,68364,1,0,0:0:0:0:
192,192,68574,1,0,0:0:0:0:
320,192,68678,1,8,0:0:0:60:
448,192,68678,1,0,0:0:0:0:
192,192,68783,1,2,0:0:0:60:
64,192,68783,128,4,69098:0:0:0:60:
320,192,68888,1,2,0:0:0:60:
320,192,69098,1,2,0:0:0:60:
448,192,69098,1,0,0:0:0:0:
448,192,69203,1,8,0:0:0:60:
64,192,69203,1,0,0:0:0:0:
192,192,69203,1,0,0:0:0:0:
320,192,69413,1,0,0:0:0:0:
192,192,69518,1,8,0:0:0:60:
64,192,69518,1,0,0:0:0:0:
320,192,69623,1,2,0:0:0:60:
448,192,69623,1,0,0:0:0:0:
64,192,69727,1,8,0:0:0:60:
192,192,69727,1,0,0:0:0:0:
448,192,69727,1,0,0:0:0:0:
320,192,69832,1,0,0:0:0:0:
192,192,69937,1,2,0:0:0:60:
448,192,70042,1,8,0:0:0:60:
320,192,70042,1,0,0:0:0:0:
192,192,70147,1,8,0:0:0:60:
64,192,70147,1,0,0:0:0:0:
320,192,70252,1,8,0:0:0:60:
448,192,70252,1,0,0:0:0:0:
192,192,70357,1,2,0:0:0:60:
448,192,70462,1,2,0:0:0:60:
320,192,70462,1,4,0:0:0:60:
64,192,70462,1,0,0:0:0:0:
192,192,70671,1,0,0:0:0:0:
320,192,70776,1,2,0:0:0:60:
448,192,70776,1,0,0:0:0:0:
64,192,70881,1,8,0:0:0:60:
192,192,70881,1,0,0:0:0:0:
448,192,70881,1,0,0:0:0:0:
320,192,71091,1,2,0:0:0:60:
448,192,71091,1,0,0:0:0:0:
192,192,71196,1,8,0:0:0:60:
64,192,71196,1,0,0:0:0:0:
448,192,71196,1,0,0:0:0:0:
320,192,71301,1,0,0:0:0:0:
64,192,71406,1,8,0:0:0:60:
192,192,71406,1,0,0:0:0:0:
448,192,71511,1,2,0:0:0:60:
320,192,71511,1,0,0:0:0:0:
64,192,71616,1,2,0:0:0:60:
192,192,71616,1,0,0:0:0:0:
320,192,71720,1,8,0:0:0:60:
448,192,71720,1,0,0:0:0:0:
64,192,71720,1,0,0:0:0:0:
320,192,71930,1,0,0:0:0:0:
192,192,72140,1,2,0:0:0:60:
64,192,72140,1,0,0:0:0:0:
320,192,72245,1,8,0:0:0:60:
448,192,72245,1,0,0:0:0:0:
64,192,72245,1,0,0:0:0:0:
192,192,72350,1,0,0:0:0:0:
448,192,72455,1,2,0:0:0:60:
320,192,72455,1,0,0:0:0:0:
448,192,72560,1,8,0:0:0:60:
64,192,72560,1,0,0:0:0:0:
192,192,72560,1,0,0:0:0:0:
320,192,72769,1,2,0:0:0:60:
192,192,72769,1,0,0:0:0:0:
192,192,72874,1,8,0:0:0:60:
64,192,72874,1,0,0:0:0:0:
448,192,72874,1,0,0:0:0:0:
320,192,72979,1,2,0:0:0:60:
192,192,73084,1,8,0:0:0:60:
64,192,73084,1,0,0:0:0:0:
320,192,73189,1,2,0:0:0:60:
448,192,73189,1,0,0:0:0:0:
64,192,73294,1,2,0:0:0:60:
192,192,73399,1,8,0:0:0:60:
320,192,73399,1,0,0:0:0:0:
448,192,73504,1,8,0:0:0:60:
64,192,73504,1,0,0:0:0:0:
192,192,73609,1,2,0:0:0:60:
320,192,73713,1,8,0:0:0:60:
448,192,73713,1,0,0:0:0:0:
448,192,73818,1,2,0:0:0:60:
192,192,73818,1,4,0:0:0:60:
64,192,73818,1,0,0:0:0:0:
320,192,74028,1,2,0:0:0:60:
192,192,74028,1,0,0:0:0:0:
320,192,74238,1,8,0:0:0:60:
448,192,74238,1,0,0:0:0:0:
64,192,74238,1,0,0:0:0:0:
192,192,74343,1,2,0:0:0:60:
64,192,74343,1,0,0:0:0:0:
192,192,74553,1,2,0:0:0:60:
320,192,74553,1,0,0:0:0:0:
448,192,74762,1,8,0:0:0:60:
64,192,74762,1,0,0:0:0:0:
320,192,74762,1,0,0:0:0:0:
64,192,74972,1,2,0:0:0:60:
192,192,74972,1,0,0:0:0:0:
320,192,75077,1,8,0:0:0:60:
448,192,75077,1,0,0:0:0:0:
64,192,75077,1,0,0:0:0:0:
192,192,75182,1,2,0:0:0:60:
64,192,75287,1,2,0:0:0:60:
448,192,75287,1,0,0:0:0:0:
320,192,75392,1,2,0:0:0:60:
192,192,75497,1,8,0:0:0:60:
64,192,75497,1,0,0:0:0:0:
320,192,75602,1,8,0:0:0:60:
448,192,75602,1,0,0:0:0:0:
192,192,75706,1,2,0:0:0:60:
64,192,75706,128,0,75916:0:0:0:0:
448,192,75916,1,8,0:0:0:60:
320,192,75916,1,0,0:0:0:0:
192,192,76021,1,2,0:0:0:60:
64,192,76021,128,0,76231:0:0:0:0:
320,192,76231,1,8,0:0:0:60:
448,192,76231,1,0,0:0:0:0:
192,192,76336,1,2,0:0:0:60:
64,192,76336,1,0,0:0:0:0:
320,192,76441,1,2,0:0:0:60:
448,192,76441,1,0,0:0:0:0:
192,192,76546,1,8,0:0:0:60:
64,192,76546,1,0,0:0:0:0:
320,192,76650,1,2,0:0:0:60:
448,192,76755,1,0,0:0:0:0:
64,192,76755,1,0,0:0:0:0:
192,192,76860,1,2,0:0:0:60:
320,192,76965,1,8,0:0:0:60:
448,192,76965,1,0,0:0:0:0:
64,192,76965,1,0,0:0:0:0:
64,192,77175,1,2,0:0:0:60:
192,192,77175,128,4,77280:0:0:0:60:
448,192,77175,1,0,0:0:0:0:
320,192,77280,128,0,77385:0:0:0:0:
448,192,77385,128,0,77490:0:0:0:0:
64,192,77490,1,2,0:0:0:60:
192,192,77490,128,0,77595:0:0:0:0:
320,192,77595,1,8,0:0:0:60:
448,192,77595,128,0,77699:0:0:0:0:
64,192,77595,1,0,0:0:0:0:
192,192,77699,128,0,77804:0:0:0:0:
448,192,77804,1,2,0:0:0:60:
320,192,77804,128,0,77909:0:0:0:0:
192,192,77909,1,8,0:0:0:60:
64,192,77909,128,0,78014:0:0:0:0:
448,192,77909,1,0,0:0:0:0:
320,192,78014,128,0,78119:0:0:0:0:
448,192,78119,128,8,78224:0:0:0:60:
64,192,78119,1,0,0:0:0:0:
192,192,78224,128,2,78329:0:0:0:60:
320,192,78224,1,0,0:0:0:0:
448,192,78329,128,2,78434:0:0:0:60:
64,192,78329,1,0,0:0:0:0:
320,192,78434,1,8,0:0:0:60:
192,192,78434,128,0,78539:0:0:0:0:
64,192,78434,1,0,0:0:0:0:
448,192,78644,128,2,78748:0:0:0:60:
64,192,78644,1,0,0:0:0:0:
448,192,78853,1,2,0:0:0:60:
320,192,78853,128,4,78958:0:0:0:60:
64,192,78853,1,0,0:0:0:0:
192,192,78958,128,0,79063:0:0:0:0:
64,192,79063,128,0,79168:0:0:0:0:
320,192,79168,128,2,79273:0:0:0:60:
448,192,79168,1,0,0:0:0:0:
192,192,79273,128,8,79378:0:0:0:60:
64,192,79273,1,0,0:0:0:0:
448,192,79273,1,0,0:0:0:0:
320,192,79378,128,0,79483:0:0:0:0:
192,192,79483,128,2,79588:0:0:0:60:
64,192,79483,1,0,0:0:0:0:
320,192,79588,1,8,0:0:0:60:
448,192,79588,128,0,79692:0:0:0:0:
64,192,79588,1,0,0:0:0:0:
192,192,79692,128,0,79797:0:0:0:0:
448,192,79797,1,8,0:0:0:60:
64,192,79797,128,0,79902:0:0:0:0:
192,192,79902,1,2,0:0:0:60:
320,192,79902,128,0,80007:0:0:0:0:
448,192,80007,128,2,80112:0:0:0:60:
64,192,80007,1,0,0:0:0:0:
320,192,80112,128,8,80217:0:0:0:60:
64,192,80112,1,0,0:0:0:0:
192,192,80112,1,0,0:0:0:0:
448,192,80217,128,0,80322:0:0:0:0:
192,192,80322,128,0,80427:0:0:0:0:
320,192,80427,128,0,80532:0:0:0:0:
448,192,80532,128,2,80637:0:0:0:60:
64,192,80532,1,4,0:0:0:60:
192,192,80532,1,0,0:0:0:0:
320,192,80637,128,0,80741:0:0:0:0:
64,192,80741,128,0,80846:0:0:0:0:
448,192,80846,1,2,0:0:0:60:
192,192,80846,128,0,80951:0:0:0:0:
64,192,80951,1,8,0:0:0:60:
320,192,80951,128,0,81056:0:0:0:0:
448,192,80951,1,0,0:0:0:0:
192,192,81056,128,0,81161:0:0:0:0:
320,192,81161,1,2,0:0:0:60:
448,192,81161,128,0,81266:0:0:0:0:
64,192,81266,128,8,81371:0:0:0:60:
192,192,81266,1,0,0:0:0:0:
320,192,81371,128,2,81476:0:0:0:60:
448,192,81371,1,0,0:0:0:0:
192,192,81476,128,8,81581:0:0:0:60:
64,192,81476,1,0,0:0:0:0:
448,192,81581,128,2,81685:0:0:0:60:
64,192,81685,1,2,0:0:0:60:
192,192,81685,128,0,81790:0:0:0:0:
448,192,81790,1,4,0:0:0:60:
320,192,81790,128,8,81895:0:0:0:60:
64,192,81790,1,0,0:0:0:0:
192,192,81895,128,0,82000:0:0:0:0:
64,192,82000,128,2,82105:0:0:0:60:
448,192,82000,1,0,0:0:0:0:
192,192,82210,1,2,0:0:0:60:
64,192,82210,1,0,0:0:0:0:
448,192,82210,1,8,0:0:0:60:
64,192,82350,1,2,0:0:0:60:
320,192,82350,1,0,0:0:0:0:
448,192,82490,1,2,0:0:0:60:
192,192,82490,1,0,0:0:0:0:
320,192,82630,1,2,0:0:0:60:
448,192,82630,1,8,0:0:0:60:
64,192,82630,1,0,0:0:0:0:
64,192,82769,1,0,0:0:0:0:
192,192,82769,1,2,0:0:0:60:
320,192,82909,1,0,0:0:0:0:
448,192,82909,1,2,0:0:0:60:
64,192,83049,1,8,0:0:0:60:
192,192,83049,1,4,0:0:0:60:
448,192,83049,128,0,83154:0:0:0:0:
320,192,83154,128,0,83259:0:0:0:0:
192,192,83259,128,0,83364:0:0:0:0:
448,192,83364,128,8,83469:0:0:0:60:
64,192,83364,1,0,0:0:0:0:
192,192,83469,1,8,0:0:0:60:
320,192,83469,128,0,83574:0:0:0:0:
448,192,83574,1,8,0:0:0:60:
64,192,83574,128,0,83678:0:0:0:0:
320,192,83678,1,8,0:0:0:60:
192,192,83678,128,0,83783:0:0:0:0:
64,192,83783,1,8,0:0:0:60:
448,192,83783,128,0,83888:0:0:0:0:
