osu file format v14

[General]
AudioFilename: audio.mp3
AudioLeadIn: 0
PreviewTime: 49063
Countdown: 0
SampleSet: Soft
StackLeniency: 0.7
Mode: 3
LetterboxInBreaks: 0
SpecialStyle: 0
WidescreenStoryboard: 0

[Editor]
DistanceSpacing: 1.6
BeatDivisor: 4
GridSize: 4
TimelineZoom: 2.1

[Metadata]
Title:The Asterisk War
TitleUnicode:The Asterisk War
Artist:Shiena Nishizawa
ArtistUnicode:西沢幸奏
Creator:arcwinolivirus
Version:7K Easy
Source:学戦都市アスタリスク
Tags:2nd second season opening gakusen toshi academy city on water j-rock tv size west ground keweft
BeatmapID:1063559
BeatmapSetID:499781

[Difficulty]
HPDrainRate:6.5
CircleSize:7
OverallDifficulty:7
ApproachRate:5
SliderMultiplier:1.4
SliderTickRate:1

[Events]
//Background and Video events
0,0,"The+Asterisk+War.jpg",0,0
//Break Periods
//Storyboard Layer 0 (Background)
//Storyboard Layer 1 (Fail)
//Storyboard Layer 2 (Pass)
//Storyboard Layer 3 (Foreground)
//Storyboard Sound Samples
Sample,31441,0,"soft-hitclap.wav",60

[TimingPoints]
1651,419.5804,4,2,1,60,1,0
49483,-100,4,2,1,40,0,0
49902,-100,4,2,1,50,0,0
50322,-100,4,2,1,60,0,1
62909,-100,4,2,1,60,0,0
63748,-100,4,2,1,60,0,1
73818,-100,4,2,1,60,0,0

[HitObjects]
256,192,811,128,0,1651:0:0:0:0:
402,192,1651,128,4,1965:0:0:0:60:
109,192,2280,128,0,2595:0:0:0:0:
329,192,2909,1,0,0:0:0:0:
182,192,3119,1,0,0:0:0:0:
402,192,3329,128,0,3644:0:0:0:0:
109,192,3958,128,0,4273:0:0:0:0:
475,192,4588,1,0,0:0:0:0:
36,192,4797,1,0,0:0:0:0:
329,192,5007,128,0,5322:0:0:0:0:
182,192,5637,128,0,5951:0:0:0:0:
402,192,6266,1,0,0:0:0:0:
109,192,6476,1,0,0:0:0:0:
329,192,6685,128,0,7000:0:0:0:0:
182,192,7315,1,0,0:0:0:0:
402,192,7525,1,0,0:0:0:0:
256,192,7944,1,0,0:0:0:0:
109,192,8364,1,2,0:0:0:60:
402,192,8364,1,4,0:0:0:60:
256,192,8783,1,8,0:0:0:60:
182,192,9098,1,2,0:0:0:60:
329,192,9308,128,8,9623:0:0:0:60:
109,192,9623,1,8,0:0:0:60:
256,192,9832,1,0,0:0:0:0:
402,192,10042,1,2,0:0:0:60:
256,192,10462,1,8,0:0:0:60:
329,192,10776,1,2,0:0:0:60:
182,192,10986,128,8,11301:0:0:0:60:
475,192,11301,128,8,11720:0:0:0:60:
36,192,11720,1,2,0:0:0:60:
182,192,12140,1,8,0:0:0:60:
329,192,12455,1,2,0:0:0:60:
475,192,12664,128,8,12979:0:0:0:60:
256,192,12979,1,8,0:0:0:60:
109,192,13189,1,0,0:0:0:0:
475,192,13399,1,2,0:0:0:60:
329,192,13818,1,8,0:0:0:60:
182,192,14133,1,2,0:0:0:60:
36,192,14343,128,8,14657:0:0:0:60:
256,192,14657,128,8,15077:0:0:0:60:
402,192,15077,1,2,0:0:0:60:
475,192,15077,1,4,0:0:0:60:
182,192,15497,1,8,0:0:0:60:
329,192,15811,1,8,0:0:0:60:
109,192,16021,128,8,16336:0:0:0:60:
402,192,16336,1,8,0:0:0:60:
256,192,16546,1,0,0:0:0:0:
109,192,16755,1,2,0:0:0:60:
329,192,17175,1,8,0:0:0:60:
182,192,17490,1,2,0:0:0:60:
402,192,17699,128,8,18014:0:0:0:60:
256,192,18014,128,8,18434:0:0:0:60:
36,192,18434,1,2,0:0:0:60:
475,192,18434,1,4,0:0:0:60:
256,192,18853,1,8,0:0:0:60:
109,192,19168,1,8,0:0:0:60:
329,192,19378,128,8,19692:0:0:0:60:
182,192,19692,1,8,0:0:0:60:
256,192,19902,1,8,0:0:0:60:
402,192,20112,1,2,0:0:0:60:
109,192,20532,1,8,0:0:0:60:
256,192,20532,1,4,0:0:0:60:
329,192,20846,1,8,0:0:0:60:
36,192,21056,128,2,21371:0:0:0:60:
256,192,21371,128,2,21790:0:0:0:60:
475,192,21790,128,2,22210:0:0:0:60:
36,192,21790,1,4,0:0:0:60:
109,192,22210,1,8,0:0:0:60:
329,192,22420,1,2,0:0:0:60:
182,192,22734,1,8,0:0:0:60:
402,192,23049,128,8,23469:0:0:0:60:
36,192,23469,128,2,23888:0:0:0:60:
329,192,23888,1,8,0:0:0:60:
182,192,24098,1,2,0:0:0:60:
402,192,24413,1,0,0:0:0:0:
109,192,24727,128,8,25147:0:0:0:60:
475,192,25147,128,2,25567:0:0:0:60:
182,192,25567,1,8,0:0:0:60:
329,192,25776,1,2,0:0:0:60:
109,192,26091,1,8,0:0:0:60:
402,192,26406,128,8,26825:0:0:0:60:
36,192,26825,1,2,0:0:0:60:
182,192,27035,1,0,0:0:0:0:
329,192,27245,1,8,0:0:0:60:
475,192,27455,1,2,0:0:0:60:
256,192,27664,128,0,28084:0:0:0:0:
36,192,28084,128,8,28504:0:0:0:60:
475,192,28504,1,2,0:0:0:60:
329,192,28504,1,4,0:0:0:60:
182,192,28713,1,0,0:0:0:0:
402,192,28923,1,8,0:0:0:60:
109,192,29238,1,8,0:0:0:60:
329,192,29448,1,8,0:0:0:60:
475,192,29762,128,8,30182:0:0:0:60:
36,192,30182,1,2,0:0:0:60:
329,192,30392,1,0,0:0:0:0:
109,192,30602,1,8,0:0:0:60:
402,192,30916,1,8,0:0:0:60:
182,192,31126,1,8,0:0:0:60:
36,192,31441,128,2,31860:0:0:0:60:
475,192,31860,1,2,0:0:0:60:
256,192,32070,1,0,0:0:0:0:
402,192,32280,1,8,0:0:0:60:
182,192,32595,1,8,0:0:0:60:
329,192,32909,1,2,0:0:0:0:
109,192,33119,128,8,33539:0:0:0:60:
475,192,33539,128,2,34378:0:0:0:60:
256,192,33539,1,4,0:0:0:60:
36,192,34378,128,2,35217:0:0:0:60:
475,192,35217,1,4,0:0:0:60:
402,192,35532,1,0,0:0:0:0:
329,192,35846,1,0,0:0:0:0:
36,192,36895,1,0,0:0:0:0:
109,192,37210,1,0,0:0:0:0:
182,192,37525,1,0,0:0:0:0:
256,192,38154,1,0,0:0:0:0:
475,192,38574,1,0,0:0:0:0:
36,192,38888,1,0,0:0:0:0:
329,192,39203,1,0,0:0:0:0:
182,192,39518,1,0,0:0:0:0:
256,192,39832,1,0,0:0:0:0:
109,192,40252,1,0,0:0:0:0:
402,192,40567,1,0,0:0:0:0:
256,192,40881,1,0,0:0:0:0:
182,192,41196,1,0,0:0:0:0:
329,192,41511,1,0,0:0:0:0:
256,192,41720,1,0,0:0:0:0:
182,192,41930,1,4,0:0:0:60:
36,192,41930,1,0,0:0:0:0:
402,192,42140,1,0,0:0:0:70:cymbal light.wav
402,192,42560,1,0,0:0:0:70:cymbal light.wav
109,192,42979,1,0,0:0:0:70:cymbal light.wav
109,192,43399,1,0,0:0:0:70:cymbal light.wav
329,192,43818,1,0,0:0:0:70:cymbal light.wav
329,192,44238,1,0,0:0:0:70:cymbal light.wav
182,192,44657,1,0,0:0:0:70:cymbal light.wav
182,192,45077,1,0,0:0:0:70:cymbal light.wav
402,192,45497,1,0,0:0:0:70:cymbal light.wav
109,192,45916,1,0,0:0:0:70:cymbal light.wav
329,192,46336,1,0,0:0:0:70:cymbal light.wav
182,192,46755,1,0,0:0:0:70:cymbal light.wav
402,192,47175,1,0,0:0:0:70:cymbal light.wav
109,192,47595,1,0,0:0:0:70:cymbal light.wav
475,192,48014,1,0,0:0:0:70:cymbal light.wav
36,192,48434,1,0,0:0:0:70:cymbal light.wav
182,192,49483,128,0,49902:0:0:0:70:hitwhistle Left.wav
329,192,49902,128,0,50322:0:0:0:70:hitwhistle Right.wav
475,192,50322,1,4,0:0:0:60:
36,192,50322,1,2,0:0:0:60:
329,192,50741,1,8,0:0:0:60:
182,192,51056,1,8,0:0:0:60:
402,192,51266,128,8,51581:0:0:0:60:
256,192,51581,1,8,0:0:0:60:
36,192,52000,1,2,0:0:0:60:
182,192,52420,1,8,0:0:0:60:
329,192,52734,1,2,0:0:0:60:
109,192,52944,128,8,53259:0:0:0:60:
256,192,53259,1,8,0:0:0:60:
402,192,53678,1,2,0:0:0:60:
182,192,54098,1,8,0:0:0:60:
329,192,54413,1,2,0:0:0:60:
109,192,54623,128,8,54937:0:0:0:60:
256,192,54937,1,8,0:0:0:60:
109,192,55357,1,2,0:0:0:60:
329,192,55776,1,8,0:0:0:60:
182,192,56091,1,2,0:0:0:60:
402,192,56301,128,8,56616:0:0:0:60:
256,192,56616,128,8,57035:0:0:0:60:
109,192,57035,1,2,0:0:0:60:
402,192,57035,1,4,0:0:0:60:
256,192,57455,1,8,0:0:0:60:
475,192,57769,1,8,0:0:0:60:
329,192,57979,128,8,58294:0:0:0:60:
182,192,58294,1,8,0:0:0:60:
402,192,58713,1,2,0:0:0:60:
256,192,59133,1,8,0:0:0:60:
36,192,59448,1,2,0:0:0:60:
182,192,59657,128,8,59972:0:0:0:60:
329,192,59972,1,8,0:0:0:60:
475,192,60392,1,2,0:0:0:60:
36,192,60392,128,4,60811:0:0:0:60:
256,192,60811,1,8,0:0:0:60:
109,192,61231,128,2,61650:0:0:0:60:
402,192,61650,1,8,0:0:0:60:
329,192,62070,1,2,0:0:0:60:
182,192,62070,128,4,62490:0:0:0:60:
475,192,62490,1,8,0:0:0:60:
36,192,62699,1,8,0:0:0:60:
256,192,62909,128,2,63748:0:0:0:60:
109,192,63748,1,2,0:0:0:60:
402,192,63748,1,4,0:0:0:60:
256,192,64168,1,8,0:0:0:60:
182,192,64483,1,8,0:0:0:60:
329,192,64692,128,8,65007:0:0:0:60:
36,192,65007,1,8,0:0:0:60:
402,192,65427,1,2,0:0:0:60:
256,192,65846,1,8,0:0:0:60:
329,192,66161,1,8,0:0:0:60:
182,192,66371,128,8,66685:0:0:0:60:
475,192,66685,1,8,0:0:0:60:
329,192,66895,1,8,0:0:0:60:
182,192,67105,1,2,0:0:0:60:
36,192,67105,1,4,0:0:0:60:
329,192,67525,1,8,0:0:0:60:
109,192,67839,1,8,0:0:0:60:
402,192,68049,128,8,68364:0:0:0:60:
256,192,68364,1,8,0:0:0:60:
109,192,68783,1,2,0:0:0:60:
402,192,68783,1,4,0:0:0:60:
256,192,69203,1,8,0:0:0:60:
182,192,69623,1,2,0:0:0:60:
329,192,69937,1,2,0:0:0:60:
475,192,70252,1,8,0:0:0:60:
36,192,70462,1,2,0:0:0:60:
256,192,70462,1,4,0:0:0:60:
182,192,70881,1,8,0:0:0:60:
475,192,71196,1,8,0:0:0:60:
329,192,71406,128,8,71720:0:0:0:60:
109,192,71720,1,8,0:0:0:60:
475,192,72140,1,2,0:0:0:60:
182,192,72560,1,8,0:0:0:60:
402,192,72874,1,8,0:0:0:60:
109,192,73084,1,8,0:0:0:60:
329,192,73399,1,8,0:0:0:60:
182,192,73609,1,2,0:0:0:60:
36,192,73818,128,2,74238:0:0:0:60:
475,192,73818,1,4,0:0:0:60:
256,192,74238,1,8,0:0:0:60:
402,192,74553,1,2,0:0:0:60:
109,192,74762,1,8,0:0:0:60:
475,192,75077,128,8,75497:0:0:0:60:
256,192,75497,1,8,0:0:0:60:
329,192,75706,128,2,75916:0:0:0:60:
182,192,76021,128,2,76231:0:0:0:60:
36,192,76336,128,2,76755:0:0:0:60:
475,192,76755,128,0,77175:0:0:0:0:
256,192,77175,1,2,0:0:0:60:
36,192,77175,1,4,0:0:0:60:
109,192,77595,1,8,0:0:0:60:
475,192,77909,1,8,0:0:0:60:
329,192,78119,128,8,78434:0:0:0:60:
182,192,78434,1,8,0:0:0:60:
36,192,78644,1,2,0:0:0:60:
256,192,78853,1,2,0:0:0:60:
475,192,78853,1,4,0:0:0:60:
402,192,79273,1,8,0:0:0:60:
182,192,79588,1,8,0:0:0:60:
329,192,79797,128,8,80112:0:0:0:60:
36,192,80112,128,8,80532:0:0:0:60:
256,192,80532,1,2,0:0:0:60:
475,192,80532,1,4,0:0:0:60:
109,192,80951,1,8,0:0:0:60:
329,192,81266,1,8,0:0:0:60:
182,192,81476,1,8,0:0:0:60:
402,192,81790,1,4,0:0:0:60:
109,192,81790,1,8,0:0:0:60:
256,192,82000,1,2,0:0:0:60:
36,192,82210,1,8,0:0:0:60:
475,192,82210,1,2,0:0:0:60:
109,192,82630,1,2,0:0:0:60:
402,192,82630,1,8,0:0:0:60:
182,192,83049,1,8,0:0:0:60:
329,192,83049,1,4,0:0:0:60:
36,192,83469,1,8,0:0:0:60:
182,192,83574,1,8,0:0:0:60:
329,192,83678,1,8,0:0:0:60:
475,192,83783,1,8,0:0:0:60:
