osu file format v14

[General]
AudioFilename: audio.mp3
AudioLeadIn: 0
PreviewTime: 49088
Countdown: 0
SampleSet: Soft
StackLeniency: 0.7
Mode: 0
LetterboxInBreaks: 0
WidescreenStoryboard: 0

[Editor]
DistanceSpacing: 0.3
BeatDivisor: 4
GridSize: 16
TimelineZoom: 2

[Metadata]
Title:The Asterisk War
TitleUnicode:The Asterisk War
Artist:Shiena Nishizawa
ArtistUnicode:西沢幸奏
Creator:Wou
Version:Soul
Source:学戦都市アスタリスク
Tags:wou gakusen toshi asterisk 2nd season the asterisk war the academy city on the water op theme
BeatmapID:944755
BeatmapSetID:438952

[Difficulty]
HPDrainRate:7
CircleSize:4
OverallDifficulty:8
ApproachRate:9.5
SliderMultiplier:1.8
SliderTickRate:1

[Events]
//Background and Video events
Video,0,"op.avi"
0,0,"bg.jpg",0,0
//Break Periods
//Storyboard Layer 0 (Background)
//Storyboard Layer 1 (Fail)
//Storyboard Layer 2 (Pass)
//Storyboard Layer 3 (Foreground)
//Storyboard Sound Samples

[TimingPoints]
1361,419.58041958042,4,2,3,45,1,0
2409,-83.3333333333333,4,2,3,45,0,0
7654,-83.3333333333333,4,2,3,35,0,0
8493,-66.6666666666667,4,2,1,65,0,0
21920,-100,4,2,1,65,0,0
35766,-133.333333333333,4,2,3,40,0,0
42060,-133.333333333333,4,2,3,30,0,0
50451,-58.8235294117647,4,2,1,65,0,1
74577,-55.5555555555556,4,2,1,65,0,1
74997,-58.8235294117647,4,2,1,65,0,1
77305,-58.8235294117647,4,2,1,65,0,0

[Colours]
Combo1 : 0,255,128
Combo2 : 128,128,192
Combo3 : 255,128,192
Combo4 : 255,128,255

[HitObjects]
104,104,1361,5,0,0:0:0:0:
128,92,1465,1,0,0:0:0:0:
156,88,1570,1,0,0:0:0:0:
184,88,1675,1,0,0:0:0:0:
208,96,1780,6,0,B|256:128|288:80|320:112,1,90,2|0,0:0|0:0,0:0:0:0:
336,96,2095,1,2,0:0:0:0:
352,192,2409,1,2,0:0:0:0:
352,192,2514,1,0,0:0:0:0:
352,192,2619,6,0,L|304:224,1,53.9999983520508,0|2,0:0|0:0,0:0:0:0:
160,224,2829,1,0,0:0:0:0:
368,352,3039,1,0,0:0:0:0:
192,112,3249,1,0,0:0:0:0:
192,320,3458,1,2,0:0:0:0:
192,320,3563,1,0,0:0:0:0:
192,320,3668,6,0,L|240:272,1,53.9999983520508,0|2,0:0|0:0,0:0:0:0:
256,160,3878,1,0,0:0:0:0:
416,224,4088,1,0,0:0:0:0:
96,176,4298,1,2,0:0:0:0:
208,48,4507,1,0,0:0:0:0:
176,272,4717,6,0,P|224:256|304:256,1,107.999996704102
240,352,5137,1,2,0:0:0:0:
400,256,5347,1,0,0:0:0:0:
400,256,5451,1,2,0:0:0:0:
400,256,5556,5,0,0:0:0:0:
176,112,5766,1,0,0:0:0:0:
352,64,5976,1,0,0:0:0:0:
352,64,6081,1,2,0:0:0:0:
352,64,6186,5,0,0:0:0:0:
288,256,6395,1,0,0:0:0:0:
400,176,6605,1,0,0:0:0:0:
112,160,6815,1,2,0:0:0:0:
112,160,6920,1,0,0:0:0:0:
112,160,7025,6,0,L|176:176,1,53.9999983520508,0|2,0:0|0:0,0:0:0:0:
192,64,7235,1,0,0:0:0:0:
144,256,7444,1,0,0:0:0:0:
144,256,7549,1,0,0:0:0:0:
144,256,7654,5,2,0:0:0:0:
384,176,8074,1,2,0:0:0:0:
64,96,8493,5,12,0:0:0:0:
96,80,8598,1,8,0:0:0:0:
128,72,8703,1,8,0:0:0:0:
160,68,8808,1,8,0:0:0:0:
192,64,8913,6,0,P|256:64|324:104,1,135.000005149842,8|0,0:0|0:0,0:0:0:0:
224,176,9333,1,0,0:0:0:0:
224,176,9437,1,8,0:0:0:0:
224,176,9542,1,8,0:0:0:0:
304,320,9752,1,8,0:0:0:0:
96,272,9962,1,8,0:0:0:0:
352,192,10172,1,0,0:0:0:0:
352,192,10277,1,8,0:0:0:0:
352,192,10381,5,8,0:0:0:0:
384,48,10591,1,8,0:0:0:0:
448,256,10801,1,8,0:0:0:0:
192,144,11011,1,0,0:0:0:0:
192,144,11116,1,8,0:0:0:0:
192,144,11221,5,8,0:0:0:0:
432,128,11430,1,8,0:0:0:0:
240,272,11640,1,8,0:0:0:0:
272,64,11850,1,0,0:0:0:0:
272,64,11955,1,8,0:0:0:0:
272,64,12060,5,8,0:0:0:0:
336,256,12270,1,8,0:0:0:0:
96,176,12479,1,8,0:0:0:0:
384,144,12689,1,0,0:0:0:0:
384,144,12794,1,8,0:0:0:0:
384,144,12899,5,8,0:0:0:0:
224,336,13109,1,8,0:0:0:0:
240,80,13319,2,0,L|240:224,1,135.000005149842,8|0,0:0|0:0,0:0:0:0:
144,272,13738,1,8,0:0:0:0:
352,192,13948,1,8,0:0:0:0:
336,80,14158,1,0,0:0:0:0:
336,80,14263,1,8,0:0:0:0:
336,80,14367,5,8,0:0:0:0:
320,304,14577,1,8,0:0:0:0:
432,176,14787,1,8,0:0:0:0:
432,176,14892,1,8,0:0:0:0:
432,176,14997,5,8,0:0:0:0:
176,192,15207,1,0,0:0:0:0:
176,192,15312,1,8,0:0:0:0:
176,192,15416,5,8,0:0:0:0:
368,336,15626,1,8,0:0:0:0:
288,96,15836,1,8,0:0:0:0:
288,96,15941,1,8,0:0:0:0:
288,96,16046,5,8,0:0:0:0:
224,320,16256,1,0,0:0:0:0:
400,192,16465,2,0,P|336:224|256:224,1,135.000005149842,8|0,0:0|0:0,0:0:0:0:
304,128,16885,1,0,0:0:0:0:
304,128,16990,1,8,0:0:0:0:
304,128,17095,5,8,0:0:0:0:
96,96,17305,1,8,0:0:0:0:
208,272,17514,1,0,0:0:0:0:
208,272,17619,1,8,0:0:0:0:
208,272,17724,5,8,0:0:0:0:
208,64,17934,1,2,0:0:0:0:
352,80,18144,1,8,0:0:0:0:
112,240,18354,1,8,0:0:0:0:
288,304,18563,1,0,0:0:0:0:
288,304,18668,1,0,0:0:0:0:
288,304,18773,5,0,0:0:0:0:
224,144,18983,1,8,0:0:0:0:
384,208,19193,1,0,0:0:0:0:
384,208,19298,1,8,0:0:0:0:
384,208,19402,5,8,0:0:0:0:
288,64,19612,1,0,0:0:0:0:
256,288,19822,1,8,0:0:0:0:
128,160,20032,1,8,0:0:0:0:
368,112,20242,1,0,0:0:0:0:
368,112,20347,1,8,0:0:0:0:
368,112,20451,5,8,0:0:0:0:
160,256,20661,1,8,0:0:0:0:
224,64,20871,1,0,0:0:0:0:
224,64,20976,1,8,0:0:0:0:
224,64,21081,5,8,0:0:0:0:
288,256,21291,1,0,0:0:0:0:
96,144,21500,1,0,0:0:0:0:
304,144,21710,1,0,0:0:0:0:
128,304,21920,5,4,0:0:0:0:
32,288,22130,1,0,0:0:0:0:
96,208,22340,2,0,P|144:208|176:176,2,90,8|2|8,0:0|0:0|0:0,0:0:0:0:
96,128,22969,1,8,0:0:0:0:
160,48,23179,2,0,L|256:48,1,90,8|0,0:0|0:0,0:0:0:0:
352,96,23598,1,2,0:0:0:0:
240,160,23808,2,0,L|240:256,2,90,0|8|2,0:0|0:0|0:0,0:0:0:0:
96,208,24437,5,0,0:0:0:0:
320,256,24647,1,2,0:0:0:0:
192,320,24857,1,8,0:0:0:0:
192,128,25067,2,0,P|192:80|224:48,1,90,0|2,0:0|0:0,0:0:0:0:
272,112,25486,1,2,0:0:0:0:
384,48,25696,2,0,P|384:96|400:144,2,90,8|0|0,0:0|0:0|0:0,0:0:0:0:
464,80,26326,1,2,0:0:0:0:
464,80,26430,1,2,0:0:0:0:
464,80,26535,1,8,0:0:0:0:
384,208,26745,5,0,0:0:0:0:
480,256,26955,1,2,0:0:0:0:
272,192,27165,1,0,0:0:0:0:
352,128,27374,1,8,0:0:0:0:
128,192,27584,1,0,0:0:0:0:
192,256,27794,1,2,0:0:0:0:
48,96,28004,5,8,0:0:0:0:
48,96,28109,1,0,0:0:0:0:
48,96,28214,1,0,0:0:0:0:
112,32,28423,1,0,0:0:0:0:
80,288,28633,1,0,0:0:0:0:
176,160,28843,2,0,P|224:160|256:128,2,90,0|8|0,0:0|0:0|0:0,0:0:0:0:
192,80,29472,5,10,0:0:0:0:
192,80,29577,1,10,0:0:0:0:
192,80,29682,1,10,0:0:0:0:
304,64,29892,1,8,0:0:0:0:
112,192,30102,1,0,0:0:0:0:
240,320,30312,2,0,L|240:224,2,90,2|0|8,0:0|0:0|0:0,0:0:0:0:
320,208,30941,5,10,0:0:0:0:
320,208,31046,1,10,0:0:0:0:
320,208,31151,1,10,0:0:0:0:
240,96,31361,2,0,L|288:96,1,45,10|10,0:0|0:0,0:0:0:0:
352,32,31570,1,10,0:0:0:0:
432,112,31780,1,0,0:0:0:0:
160,160,31990,1,2,0:0:0:0:
304,32,32200,5,0,0:0:0:0:
272,208,32409,1,8,0:0:0:0:
384,320,32619,1,10,0:0:0:0:
384,320,32724,1,10,0:0:0:0:
384,320,32829,1,10,0:0:0:0:
192,288,33039,2,0,L|96:288,2,90,0|8|0,0:0|0:0|0:0,0:0:0:0:
272,176,33668,6,0,L|384:176,1,90,2|2,0:0|0:0,0:0:0:0:
432,96,34088,1,8,0:0:0:0:
192,128,34298,1,8,0:0:0:0:
320,272,34507,6,0,L|320:368,1,90,2|2,0:0|0:0,0:0:0:0:
192,224,34927,1,8,0:0:0:0:
432,160,35137,1,8,0:0:0:0:
176,112,35347,2,0,L|272:112,1,90,4|0,0:0|0:0,0:0:0:0:
368,112,35766,5,2,0:0:0:0:
368,112,35976,1,0,0:0:0:0:
368,112,36186,1,2,0:0:0:0:
368,112,36395,1,0,0:0:0:0:
368,112,36605,6,0,L|448:112,2,67.5000025749208,2|0|2,0:0|0:0|0:0,0:0:0:0:
224,64,37235,1,0,0:0:0:0:
304,240,37444,1,2,0:0:0:0:
112,176,37654,2,0,L|208:176,2,67.5000025749208,0|2|0,0:0|0:0|0:0,0:0:0:0:
32,96,38284,2,0,L|112:96,1,67.5000025749208,2|0,0:0|0:0,0:0:0:0:
240,96,38703,5,2,0:0:0:0:
112,176,38913,1,0,0:0:0:0:
224,288,39123,1,2,0:0:0:0:
368,176,39333,2,0,L|288:176,2,67.5000025749208,0|2|0,0:0|0:0|0:0,0:0:0:0:
448,64,39962,2,0,L|368:64,1,67.5000025749208,2|0,0:0|0:0,0:0:0:0:
256,80,40381,5,2,0:0:0:0:
432,176,40591,1,0,0:0:0:0:
320,288,40801,1,2,0:0:0:0:
176,192,41011,2,0,L|256:192,2,67.5000025749208,0|2|0,0:0|0:0|0:0,0:0:0:0:
48,144,41640,1,2,0:0:0:0:
192,64,41850,1,0,0:0:0:0:
208,352,42060,6,0,P|208:304|288:256,1,135.000005149842,4|0,0:0|0:0,0:0:0:0:
288,336,42689,1,2,0:0:0:0:
320,144,42899,1,0,0:0:0:0:
448,288,43109,1,2,0:0:0:0:
160,192,43319,2,0,L|240:192,2,67.5000025749208,0|2|0,0:0|0:0|0:0,0:0:0:0:
64,128,43948,1,2,0:0:0:0:
192,80,44158,1,0,0:0:0:0:
192,304,44367,2,0,L|112:304,2,67.5000025749208,2|0|2,0:0|0:0|0:0,0:0:0:0:
288,240,44997,6,0,P|336:240|384:160,1,135.000005149842
288,144,45626,1,2,0:0:0:0:
144,64,45836,2,2,L|224:64,2,67.5000025749208
352,64,46465,1,2,0:0:0:0:
192,192,46675,1,0,0:0:0:0:
320,336,46885,2,0,P|320:288|336:256,2,67.5000025749208,2|0|2,0:0|0:0|0:0,0:0:0:0:
416,304,47514,1,0,0:0:0:0:
144,176,47724,6,0,P|192:176|240:256,1,135.000005149842,2|2,0:0|0:0,0:0:0:0:
144,272,48354,1,0,0:0:0:0:
272,112,48563,1,0,0:0:0:0:
96,112,48773,1,0,0:0:0:0:
352,48,49193,5,0,0:0:0:0:
272,112,49612,1,0,0:0:0:0:
192,176,50032,1,0,0:0:0:0:
80,288,50451,6,0,L|240:288,1,153.000002918243,14|0,0:0|0:0,0:0:0:0:
288,208,50871,1,8,0:0:0:0:
144,208,51081,1,2,0:0:0:0:
144,208,51186,1,2,0:0:0:0:
144,208,51291,1,2,0:0:0:0:
224,112,51500,1,0,0:0:0:0:
160,352,51710,1,8,0:0:0:0:
352,272,51920,5,0,0:0:0:0:
128,128,52130,1,0,0:0:0:0:
368,96,52340,1,0,0:0:0:0:
128,272,52549,1,8,0:0:0:0:
336,352,52759,1,0,0:0:0:0:
256,64,52969,1,0,0:0:0:0:
224,352,53179,5,0,0:0:0:0:
224,352,53284,1,0,0:0:0:0:
224,352,53388,1,8,0:0:0:0:
352,192,53598,1,0,0:0:0:0:
80,128,53808,1,0,0:0:0:0:
240,48,54018,1,0,0:0:0:0:
160,256,54228,1,8,0:0:0:0:
352,288,54437,1,0,0:0:0:0:
160,80,54647,5,0,0:0:0:0:
160,80,54752,1,0,0:0:0:0:
160,80,54857,1,0,0:0:0:0:
368,96,55067,1,8,0:0:0:0:
112,224,55277,1,0,0:0:0:0:
416,224,55486,6,0,P|480:288|448:336,1,153.000002918243
208,32,55906,2,0,B|208:112|208:112|256:176,1,153.000002918243,8|0,0:0|0:0,0:0:0:0:
336,240,56326,1,0,0:0:0:0:
336,240,56430,1,0,0:0:0:0:
336,240,56535,1,0,0:0:0:0:
288,80,56745,1,8,0:0:0:0:
64,192,56955,1,0,0:0:0:0:
192,352,57165,5,0,0:0:0:0:
384,192,57374,1,0,0:0:0:0:
112,288,57584,1,8,0:0:0:0:
256,80,57794,1,0,0:0:0:0:
336,336,58004,1,0,0:0:0:0:
112,144,58214,1,0,0:0:0:0:
384,192,58423,1,8,0:0:0:0:
112,288,58633,6,0,P|176:288|240:208,1,153.000002918243
288,64,59053,1,0,0:0:0:0:
336,304,59263,1,8,0:0:0:0:
128,128,59472,1,0,0:0:0:0:
384,176,59682,1,0,0:0:0:0:
208,304,59892,1,0,0:0:0:0:
240,64,60102,1,8,0:0:0:0:
320,352,60312,6,0,B|320:272|320:272|336:240|320:192,1,153.000002918243,0|8,0:0|0:0,0:0:0:0:
192,224,60731,1,0,0:0:0:0:
192,224,60836,1,0,0:0:0:0:
192,224,60941,1,8,0:0:0:0:
336,48,61151,6,0,B|416:48|464:96|464:96|464:112,1,153.000002918243
464,240,61570,1,0,0:0:0:0:
192,96,61780,1,8,0:0:0:0:
256,352,61990,6,0,P|256:272|320:240,1,153.000002918243
336,320,62409,1,0,0:0:0:0:
112,208,62619,1,8,0:0:0:0:
384,112,62829,1,10,0:0:0:0:
384,112,62934,1,10,0:0:0:0:
384,112,63039,5,10,0:0:0:0:
176,320,63249,1,2,0:0:0:0:
400,224,63458,1,2,0:0:0:0:
16,128,63668,1,2,0:0:0:0:
416,32,63878,1,12,0:0:0:0:
192,256,64088,1,0,0:0:0:0:
176,48,64298,1,8,0:0:0:0:
304,304,64507,5,0,0:0:0:0:
304,304,64612,1,0,0:0:0:0:
304,304,64717,1,0,0:0:0:0:
336,160,64927,1,0,0:0:0:0:
272,48,65137,1,8,0:0:0:0:
80,176,65347,6,0,P|160:176|240:192,2,153.000002918243,0|8|0,0:0|0:0|0:0,0:0:0:0:
112,304,65976,1,8,0:0:0:0:
192,80,66186,1,0,0:0:0:0:
288,304,66395,1,0,0:0:0:0:
80,176,66605,1,0,0:0:0:0:
304,160,66815,6,0,B|384:160|384:160|416:192|384:224,1,153.000002918243,8|0,0:0|0:0,0:0:0:0:
224,256,67235,1,0,0:0:0:0:
448,96,67444,1,0,0:0:0:0:
256,48,67654,1,8,0:0:0:0:
320,336,67864,1,0,0:0:0:0:
384,224,68074,1,0,0:0:0:0:
160,176,68284,1,0,0:0:0:0:
352,112,68493,1,8,0:0:0:0:
224,320,68703,1,0,0:0:0:0:
224,48,68913,6,0,P|240:128|304:160,1,153.000002918243
320,64,69333,1,8,0:0:0:0:
112,192,69542,1,0,0:0:0:0:
256,320,69752,1,0,0:0:0:0:
224,48,69962,1,0,0:0:0:0:
224,48,70067,1,0,0:0:0:0:
224,48,70172,1,8,0:0:0:0:
80,96,70381,5,0,0:0:0:0:
352,160,70591,1,0,0:0:0:0:
128,240,70801,1,0,0:0:0:0:
320,64,71011,1,8,0:0:0:0:
272,336,71221,1,0,0:0:0:0:
192,160,71430,1,0,0:0:0:0:
464,128,71640,1,0,0:0:0:0:
64,288,71850,6,0,L|224:288,1,153.000002918243,8|0,0:0|0:0,0:0:0:0:
352,256,72270,1,0,0:0:0:0:
96,176,72479,1,10,0:0:0:0:
96,176,72584,1,10,0:0:0:0:
96,176,72689,1,10,0:0:0:0:
352,96,72899,5,0,0:0:0:0:
192,32,73109,1,0,0:0:0:0:
272,336,73319,1,0,0:0:0:0:
352,192,73528,1,0,0:0:0:0:
96,144,73738,5,6,0:0:0:0:
272,32,73948,1,0,0:0:0:0:
144,272,74158,1,0,0:0:0:0:
384,112,74367,1,8,0:0:0:0:
112,48,74577,5,6,0:0:0:0:
336,288,74787,1,0,0:0:0:0:
336,288,74892,1,8,0:0:0:0:
336,288,74997,1,0,0:0:0:0:
80,192,75207,1,8,0:0:0:0:
240,32,75416,5,2,0:0:0:0:
208,336,75626,1,8,0:0:0:0:
368,176,75836,1,0,0:0:0:0:
96,96,76046,1,8,0:0:0:0:
192,256,76256,1,0,0:0:0:0:
288,64,76465,1,0,0:0:0:0:
320,272,76675,1,8,0:0:0:0:
324,296,76780,1,8,0:0:0:0:
328,316,76885,1,0,0:0:0:0:
224,192,77095,6,0,P|288:160|368:160,1,153.000002918243
432,240,77514,1,0,0:0:0:0:
432,240,77619,1,0,0:0:0:0:
432,240,77724,1,8,0:0:0:0:
144,96,77934,1,0,0:0:0:0:
336,48,78144,1,0,0:0:0:0:
160,288,78354,1,0,0:0:0:0:
368,320,78563,1,8,0:0:0:0:
240,48,78773,1,0,0:0:0:0:
240,336,78983,5,0,0:0:0:0:
240,336,79088,1,0,0:0:0:0:
240,336,79193,1,0,0:0:0:0:
336,144,79402,1,8,0:0:0:0:
96,80,79612,5,0,0:0:0:0:
96,80,79717,1,0,0:0:0:0:
96,80,79822,1,0,0:0:0:0:
320,256,80032,1,0,0:0:0:0:
240,32,80242,1,8,0:0:0:0:
192,288,80451,1,0,0:0:0:0:
112,128,80661,5,0,0:0:0:0:
112,128,80766,1,0,0:0:0:0:
112,128,80871,1,0,0:0:0:0:
352,96,81081,1,8,0:0:0:0:
272,336,81291,5,0,0:0:0:0:
272,336,81395,1,0,0:0:0:0:
272,336,81500,1,0,0:0:0:0:
400,192,81710,1,0,0:0:0:0:
144,224,81920,1,8,0:0:0:0:
352,80,82130,1,0,0:0:0:0:
128,160,82340,5,0,0:0:0:0:
128,160,82445,1,0,0:0:0:0:
128,160,82550,1,0,0:0:0:0:
272,48,82759,1,8,0:0:0:0:
304,336,82969,1,0,0:0:0:0:
304,336,83074,1,0,0:0:0:0:
304,336,83179,1,0,0:0:0:0:
320,192,83388,6,0,L|400:192,1,76.5000014591217
256,128,83598,2,8,L|176:128,1,76.5000014591217,8|8,0:0|0:0,0:0:0:0:
352,80,83808,2,8,L|432:80,1,76.5000014591217
